<?xml version="1.0" standalone="no"?>
<!DOCTYPE svg PUBLIC "-//W3C//DTD SVG 1.1//EN" "http://www.w3.org/Graphics/SVG/1.1/DTD/svg11.dtd" >
<svg>
<metadata>
Created by FontForge 20090914 at Thu Oct 14 04:59:34 2021
 By www-data
&#194;&#169; 2015-2017 Apple Inc. All rights reserved.
</metadata>
<defs>
<font id="SFProDisplay-Bold" horiz-adv-x="1702" >
  <font-face 
    font-family="SF Pro Display"
    font-weight="700"
    font-stretch="normal"
    units-per-em="2048"
    panose-1="0 0 8 0 0 0 0 0 0 0"
    ascent="1638"
    descent="-410"
    x-height="1072"
    cap-height="1443"
    bbox="-585 -537 2631 2178"
    underline-thickness="190"
    underline-position="-375"
    unicode-range="U+0020-U+1F189"
  />
<missing-glyph horiz-adv-x="2048" 
d="M100 -494v206h1848v-206h-1848zM100 -46v206h1848v-206h-1848zM100 401v206h1848v-206h-1848zM100 849v206h1848v-206h-1848zM100 1296v206h1848v-206h-1848zM100 1744v206h1848v-206h-1848z" />
    <glyph glyph-name="uni2460" unicode="&#x31;&#x20dd;" 
d="M986 383h-201v517h-7l-160 -108v171l167 112h201v-692zM851 121c108.667 0 208.331 26.833 298.998 80.5s162 126.334 214 218.001s78 191.834 78 300.501s-26 209 -78 301s-123.333 164.667 -214 218s-190.334 80 -299.001 80
c-81.333 0 -158.666 -15.833 -231.999 -47.5s-136 -74.167 -188 -127.5s-93.333 -117 -124 -191s-46 -151.667 -46 -233c0 -108.667 25.833 -208.834 77.5 -300.501s122.834 -164.334 213.501 -218.001s190.334 -80.5 299.001 -80.5zM850.997 -55
c-141.333 0 -271.334 34.5 -390.001 103.5s-212.334 163 -281.001 282s-103 249.167 -103 390.5c0 106 20.333 206.833 61 302.5s95.334 178 164.001 247s150.834 123.833 246.501 164.5s196.5 61 302.5 61s206.833 -20.333 302.5 -61s178 -95.5 247 -164.5
s123.833 -151.333 164.5 -247s61 -196.5 61 -302.5s-20.333 -206.833 -61 -302.5s-95.5 -178.167 -164.5 -247.5s-151.333 -124.333 -247 -165s-196.5 -61 -302.5 -61z" />
    <glyph glyph-name="uni2461" unicode="&#x32;&#x20dd;" 
d="M767 848l-186 0.000976562v3c0 68 24.167 124.167 72.5 168.5s114.833 66.5 199.5 66.5c78 0 141.333 -19.167 190 -57.5s73 -87.5 73 -147.5c0 -37.333 -10.667 -72.333 -32 -105s-54.333 -69.334 -99 -110.001l-122 -121v-7h264v-156h-534v123l249 239
c26.667 25.333 46.167 46.833 58.5 64.5s18.5 36.167 18.5 55.5c0 20 -6.83301 36.333 -20.5 49s-31.5 19 -53.5 19c-24.667 0 -44 -7.5 -58 -22.5s-20.667 -34.5 -20 -58.5v-3zM851 121.001c108.667 0 208.331 26.833 298.998 80.5s162 126.334 214 218.001
s78 191.834 78 300.501s-26 209 -78 301s-123.333 164.667 -214 218s-190.334 80 -299.001 80c-81.333 0 -158.666 -15.833 -231.999 -47.5s-136 -74.167 -188 -127.5s-93.333 -117 -124 -191s-46 -151.667 -46 -233c0 -108.667 25.833 -208.834 77.5 -300.501
s122.834 -164.334 213.501 -218.001s190.334 -80.5 299.001 -80.5zM850.997 -54.999c-141.333 0 -271.334 34.5 -390.001 103.5s-212.334 163 -281.001 282s-103 249.167 -103 390.5c0 106 20.333 206.833 61 302.5s95.334 178 164.001 247s150.834 123.833 246.501 164.5
s196.5 61 302.5 61s206.833 -20.333 302.5 -61s178 -95.5 247 -164.5s123.833 -151.333 164.5 -247s61 -196.5 61 -302.5s-20.333 -206.833 -61 -302.5s-95.5 -178.167 -164.5 -247.5s-151.333 -124.333 -247 -165s-196.5 -61 -302.5 -61z" />
    <glyph glyph-name="uni2462" unicode="&#x33;&#x20dd;" 
d="M776 662l-0.00488281 145.001h70c24.667 0 44.834 6.66699 60.501 20s23.5 30.666 23.5 51.999c0 19.333 -7.83301 35.166 -23.5 47.499s-35.834 18.5 -60.501 18.5c-26.667 0 -48.167 -7.33301 -64.5 -22s-25.166 -33 -26.499 -55h-183
c2.66699 68 27.834 121.333 75.501 160s114.834 58 201.501 58c82 0 147.5 -17 196.5 -51s74.167 -78.667 75.5 -134c0.666992 -38 -12.833 -71.167 -40.5 -99.5s-58.167 -44.833 -91.5 -49.5v-10c40 -3.33301 74.833 -19.666 104.5 -48.999s44.834 -67.333 45.501 -114
c0.666992 -63.333 -26 -113.833 -80 -151.5s-124.667 -56.5 -212 -56.5c-85.333 0 -153.5 20.333 -204.5 61s-77.167 93.334 -78.5 158.001h183c1.33301 -21.333 11 -38.833 29 -52.5s41.333 -20.834 70 -21.501c30 0 54 6.83301 72 20.5s27 31.5 27 53.5
c-0.666992 22 -9.66699 39.5 -27 52.5s-40.666 19.5 -69.999 19.5h-72zM850.995 121.001c108.667 0 208.331 26.833 298.998 80.5s162 126.334 214 218.001s78 191.834 78 300.501s-26 209 -78 301s-123.333 164.667 -214 218s-190.334 80 -299.001 80
c-81.333 0 -158.666 -15.833 -231.999 -47.5s-136 -74.167 -188 -127.5s-93.333 -117 -124 -191s-46 -151.667 -46 -233c0 -108.667 25.833 -208.834 77.5 -300.501s122.834 -164.334 213.501 -218.001s190.334 -80.5 299.001 -80.5zM850.992 -54.999
c-141.333 0 -271.334 34.5 -390.001 103.5s-212.334 163 -281.001 282s-103 249.167 -103 390.5c0 106 20.333 206.833 61 302.5s95.334 178 164.001 247s150.834 123.833 246.501 164.5s196.5 61 302.5 61s206.833 -20.333 302.5 -61s178 -95.5 247 -164.5
s123.833 -151.333 164.5 -247s61 -196.5 61 -302.5s-20.333 -206.833 -61 -302.5s-95.5 -178.167 -164.5 -247.5s-151.333 -124.333 -247 -165s-196.5 -61 -302.5 -61z" />
    <glyph glyph-name="uni2463" unicode="&#x34;&#x20dd;" 
d="M775 1075h271v-431h95v-148h-95v-113h-168v113h-346v151c50 98 131 240.667 243 428zM704 644h174.001v308h-7c-62.667 -103.333 -118.334 -205.333 -167.001 -306v-2zM851.001 121c108.667 0 208.331 26.833 298.998 80.5s162 126.334 214 218.001
s78 191.834 78 300.501s-26 209 -78 301s-123.333 164.667 -214 218s-190.334 80 -299.001 80c-81.333 0 -158.666 -15.833 -231.999 -47.5s-136 -74.167 -188 -127.5s-93.333 -117 -124 -191s-46 -151.667 -46 -233c0 -108.667 25.833 -208.834 77.5 -300.501
s122.834 -164.334 213.501 -218.001s190.334 -80.5 299.001 -80.5zM850.998 -55c-141.333 0 -271.334 34.5 -390.001 103.5s-212.334 163 -281.001 282s-103 249.167 -103 390.5c0 106 20.333 206.833 61 302.5s95.334 178 164.001 247s150.834 123.833 246.501 164.5
s196.5 61 302.5 61s206.833 -20.333 302.5 -61s178 -95.5 247 -164.5s123.833 -151.333 164.5 -247s61 -196.5 61 -302.5s-20.333 -206.833 -61 -302.5s-95.5 -178.167 -164.5 -247.5s-151.333 -124.333 -247 -165s-196.5 -61 -302.5 -61z" />
    <glyph glyph-name="uni2464" unicode="&#x35;&#x20dd;" 
d="M582 589l184.998 0.000976562c4 -20.667 15 -36.834 33 -48.501s38.667 -17.5 62 -17.5c26.667 0 49.5 9.33301 68.5 28s28.5 42.667 28.5 72c0 27.333 -9.5 49.833 -28.5 67.5s-42.167 26.5 -69.5 26.5c-40.667 0 -70 -16.333 -88 -49h-177l27 412h481v-142h-330
l-12 -152h9c10.667 17.333 29.5 32.5 56.5 45.5s58.167 19.5 93.5 19.5c67.333 0 122.333 -20.167 165 -60.5s64 -94.5 64 -162.5c0 -76.667 -26.167 -137.834 -78.5 -183.501s-122.833 -68.5 -211.5 -68.5c-81.333 0 -147.666 19.833 -198.999 59.5
s-77.666 90.834 -78.999 153.501zM850.998 121.001c108.667 0 208.331 26.833 298.998 80.5s162 126.334 214 218.001s78 191.834 78 300.501s-26 209 -78 301s-123.333 164.667 -214 218s-190.334 80 -299.001 80c-81.333 0 -158.666 -15.833 -231.999 -47.5
s-136 -74.167 -188 -127.5s-93.333 -117 -124 -191s-46 -151.667 -46 -233c0 -108.667 25.833 -208.834 77.5 -300.501s122.834 -164.334 213.501 -218.001s190.334 -80.5 299.001 -80.5zM850.995 -54.999c-141.333 0 -271.334 34.5 -390.001 103.5
s-212.334 163 -281.001 282s-103 249.167 -103 390.5c0 106 20.333 206.833 61 302.5s95.334 178 164.001 247s150.834 123.833 246.501 164.5s196.5 61 302.5 61s206.833 -20.333 302.5 -61s178 -95.5 247 -164.5s123.833 -151.333 164.5 -247s61 -196.5 61 -302.5
s-20.333 -206.833 -61 -302.5s-95.5 -178.167 -164.5 -247.5s-151.333 -124.333 -247 -165s-196.5 -61 -302.5 -61z" />
    <glyph glyph-name="uni2465" unicode="&#x36;&#x20dd;" 
d="M1126 896l-181 0.000976562c-14 32 -41.667 48 -83 48c-38 0 -67.833 -18.5 -89.5 -55.5s-30.5 -84.833 -26.5 -143.5h8c28 60 82.333 90 163 90c64.667 0 118.167 -19.333 160.5 -58s63.5 -91.334 63.5 -158.001c0 -76 -26 -136.333 -78 -181s-120.667 -67 -206 -67
c-113.333 0 -196.333 41.667 -249 125c-36.667 58 -55 134 -55 228c0 116.667 27.333 206.167 82 268.5s130 93.5 226 93.5c74 0 135.333 -18.5 184 -55.5s75.667 -81.833 81 -134.5zM759 614.001c0 -29.333 9.16602 -52.833 27.499 -70.5s41.5 -26.5 69.5 -26.5
s51 8.5 69 25.5s27 40.5 27 70.5c0 29.333 -9.16699 52.5 -27.5 69.5s-41.166 25.5 -68.499 25.5c-28.667 0 -52 -8.83301 -70 -26.5s-27 -40.167 -27 -67.5zM850.999 121.001c108.667 0 208.331 26.833 298.998 80.5s162 126.334 214 218.001s78 191.834 78 300.501
s-26 209 -78 301s-123.333 164.667 -214 218s-190.334 80 -299.001 80c-81.333 0 -158.666 -15.833 -231.999 -47.5s-136 -74.167 -188 -127.5s-93.333 -117 -124 -191s-46 -151.667 -46 -233c0 -108.667 25.833 -208.834 77.5 -300.501s122.834 -164.334 213.501 -218.001
s190.334 -80.5 299.001 -80.5zM850.996 -54.999c-141.333 0 -271.334 34.5 -390.001 103.5s-212.334 163 -281.001 282s-103 249.167 -103 390.5c0 106 20.333 206.833 61 302.5s95.334 178 164.001 247s150.834 123.833 246.501 164.5s196.5 61 302.5 61
s206.833 -20.333 302.5 -61s178 -95.5 247 -164.5s123.833 -151.333 164.5 -247s61 -196.5 61 -302.5s-20.333 -206.833 -61 -302.5s-95.5 -178.167 -164.5 -247.5s-151.333 -124.333 -247 -165s-196.5 -61 -302.5 -61z" />
    <glyph glyph-name="uni2466" unicode="&#x37;&#x20dd;" 
d="M589 1070h543v-157l-274 -535h-213l284 529v8h-340v155zM851 121c108.667 0 208.331 26.833 298.998 80.5s162 126.334 214 218.001s78 191.834 78 300.501s-26 209 -78 301s-123.333 164.667 -214 218s-190.334 80 -299.001 80
c-81.333 0 -158.666 -15.833 -231.999 -47.5s-136 -74.167 -188 -127.5s-93.333 -117 -124 -191s-46 -151.667 -46 -233c0 -108.667 25.833 -208.834 77.5 -300.501s122.834 -164.334 213.501 -218.001s190.334 -80.5 299.001 -80.5zM850.997 -55
c-141.333 0 -271.334 34.5 -390.001 103.5s-212.334 163 -281.001 282s-103 249.167 -103 390.5c0 106 20.333 206.833 61 302.5s95.334 178 164.001 247s150.834 123.833 246.501 164.5s196.5 61 302.5 61s206.833 -20.333 302.5 -61s178 -95.5 247 -164.5
s123.833 -151.333 164.5 -247s61 -196.5 61 -302.5s-20.333 -206.833 -61 -302.5s-95.5 -178.167 -164.5 -247.5s-151.333 -124.333 -247 -165s-196.5 -61 -302.5 -61z" />
    <glyph glyph-name="uni2467" unicode="&#x38;&#x20dd;" 
d="M851 502c29.333 0 53.667 8.49902 73 25.499s29 38.5 29 64.5s-9.5 47.5 -28.5 64.5s-43.5 25.5 -73.5 25.5c-29.333 0 -53.666 -8.66699 -72.999 -26s-29 -38.666 -29 -63.999c0 -26 9.66699 -47.5 29 -64.5s43.666 -25.5 72.999 -25.5zM851.001 801.999
c24.667 0 44.833 7.33301 60.5 22s23.5 33 23.5 55s-8 40.167 -24 54.5s-36 21.5 -60 21.5s-44 -7.16699 -60 -21.5s-24 -32.5 -24 -54.5s8 -40.333 24 -55s36 -22 60 -22zM850 370.999c-92.667 0 -166.497 18.6641 -221.497 55.9971s-82.5 87.333 -82.5 150
c0 44 14.167 81 42.5 111s66.166 48.667 113.499 56v8c-84.667 24.667 -127 74.334 -127 149.001c0 55.333 25.167 100 75.5 134s117.166 51 200.499 51s150.166 -17 200.499 -51s75.5 -78.667 75.5 -134c0 -76 -42.333 -125.667 -127 -149v-8
c47.333 -6.66699 85.166 -25.167 113.499 -55.5s42.5 -67.166 42.5 -110.499c0 -63.333 -27.667 -113.666 -83 -150.999s-129.666 -56 -222.999 -56zM851.003 120.996c108.667 0 208.331 26.833 298.998 80.5s162 126.334 214 218.001s78 191.834 78 300.501
s-26 209 -78 301s-123.333 164.667 -214 218s-190.334 80 -299.001 80c-81.333 0 -158.666 -15.833 -231.999 -47.5s-136 -74.167 -188 -127.5s-93.333 -117 -124 -191s-46 -151.667 -46 -233c0 -108.667 25.833 -208.834 77.5 -300.501s122.834 -164.334 213.501 -218.001
s190.334 -80.5 299.001 -80.5zM851 -55.0039c-141.333 0 -271.334 34.5 -390.001 103.5s-212.334 163 -281.001 282s-103 249.167 -103 390.5c0 106 20.333 206.833 61 302.5s95.334 178 164.001 247s150.834 123.833 246.501 164.5s196.5 61 302.5 61
s206.833 -20.333 302.5 -61s178 -95.5 247 -164.5s123.833 -151.333 164.5 -247s61 -196.5 61 -302.5s-20.333 -206.833 -61 -302.5s-95.5 -178.167 -164.5 -247.5s-151.333 -124.333 -247 -165s-196.5 -61 -302.5 -61z" />
    <glyph glyph-name="uni2468" unicode="&#x39;&#x20dd;" 
d="M562 841c0 73.333 26.832 132.667 80.499 178s122.167 68 205.5 68c92 0 165.167 -29 219.5 -87s81.5 -146.333 81.5 -265c0 -117.333 -26.5 -207.333 -79.5 -270s-129.167 -94 -228.5 -94c-74 0 -134.833 18.167 -182.5 54.5s-74.5 81.166 -80.5 134.499h183
c13.333 -30.667 40.333 -46 81 -46c42 0 73.333 18.833 94 56.5s28.334 84.834 23.001 141.501h-7c-12 -27.333 -31.833 -49.333 -59.5 -66s-61.5 -25 -101.5 -25c-67.333 0 -122.333 19.667 -165 59s-64 93 -64 161zM943.999 843.001c0 30 -9.00098 53.832 -27.001 71.499
s-41 26.5 -69 26.5c-27.333 0 -50.166 -8.83301 -68.499 -26.5s-27.5 -41.167 -27.5 -70.5s9.16699 -52.666 27.5 -69.999s41.5 -26 69.5 -26c27.333 0 50 8.5 68 25.5s27 40.167 27 69.5zM850.998 121c108.667 0 208.331 26.833 298.998 80.5s162 126.334 214 218.001
s78 191.834 78 300.501s-26 209 -78 301s-123.333 164.667 -214 218s-190.334 80 -299.001 80c-81.333 0 -158.666 -15.833 -231.999 -47.5s-136 -74.167 -188 -127.5s-93.333 -117 -124 -191s-46 -151.667 -46 -233c0 -108.667 25.833 -208.834 77.5 -300.501
s122.834 -164.334 213.501 -218.001s190.334 -80.5 299.001 -80.5zM850.995 -55c-141.333 0 -271.334 34.5 -390.001 103.5s-212.334 163 -281.001 282s-103 249.167 -103 390.5c0 106 20.333 206.833 61 302.5s95.334 178 164.001 247s150.834 123.833 246.501 164.5
s196.5 61 302.5 61s206.833 -20.333 302.5 -61s178 -95.5 247 -164.5s123.833 -151.333 164.5 -247s61 -196.5 61 -302.5s-20.333 -206.833 -61 -302.5s-95.5 -178.167 -164.5 -247.5s-151.333 -124.333 -247 -165s-196.5 -61 -302.5 -61z" />
    <glyph glyph-name="uni24B6" unicode="A&#x20dd;" 
d="M778 688h147l-69 246h-9zM705 408h-200l226 692h241l225 -692h-199l-40 139h-214zM851 121c108.667 0 208.331 26.833 298.998 80.5s162 126.334 214 218.001s78 191.834 78 300.501s-26 209 -78 301s-123.333 164.667 -214 218s-190.334 80 -299.001 80
c-81.333 0 -158.666 -15.833 -231.999 -47.5s-136 -74.167 -188 -127.5s-93.333 -117 -124 -191s-46 -151.667 -46 -233c0 -108.667 25.833 -208.834 77.5 -300.501s122.834 -164.334 213.501 -218.001s190.334 -80.5 299.001 -80.5zM850.997 -55
c-141.333 0 -271.334 34.5 -390.001 103.5s-212.334 163 -281.001 282s-103 249.167 -103 390.5c0 106 20.333 206.833 61 302.5s95.334 178 164.001 247s150.834 123.833 246.501 164.5s196.5 61 302.5 61s206.833 -20.333 302.5 -61s178 -95.5 247 -164.5
s123.833 -151.333 164.5 -247s61 -196.5 61 -302.5s-20.333 -206.833 -61 -302.5s-95.5 -178.167 -164.5 -247.5s-151.333 -124.333 -247 -165s-196.5 -61 -302.5 -61z" />
    <glyph glyph-name="uni24B7" unicode="B&#x20dd;" 
d="M582 383l-0.00292969 691.998h343c66.667 0 119.334 -15.167 158.001 -45.5s58 -71.833 58 -124.5c0 -39.333 -12.167 -72.5 -36.5 -99.5s-56.166 -44.167 -95.499 -51.5v-7c50 -5.33301 89.667 -23.166 119 -53.499s44 -70.166 44 -119.499
c0 -57.333 -22.167 -103.5 -66.5 -138.5s-102.166 -52.5 -173.499 -52.5h-350zM767.997 947.998v-152h79c72.667 0 109 26 109 78c0 22.667 -8 40.667 -24 54s-37.667 20 -65 20h-99zM767.997 684.998v-169h87c81.333 0 122 28 122 84c0 26 -9.16699 46.667 -27.5 62
s-43.833 23 -76.5 23h-105zM850.997 120.998c108.667 0 208.331 26.833 298.998 80.5s162 126.334 214 218.001s78 191.834 78 300.501s-26 209 -78 301s-123.333 164.667 -214 218s-190.334 80 -299.001 80c-81.333 0 -158.666 -15.833 -231.999 -47.5
s-136 -74.167 -188 -127.5s-93.333 -117 -124 -191s-46 -151.667 -46 -233c0 -108.667 25.833 -208.834 77.5 -300.501s122.834 -164.334 213.501 -218.001s190.334 -80.5 299.001 -80.5zM850.994 -55.002c-141.333 0 -271.334 34.5 -390.001 103.5
s-212.334 163 -281.001 282s-103 249.167 -103 390.5c0 106 20.333 206.833 61 302.5s95.334 178 164.001 247s150.834 123.833 246.501 164.5s196.5 61 302.5 61s206.833 -20.333 302.5 -61s178 -95.5 247 -164.5s123.833 -151.333 164.5 -247s61 -196.5 61 -302.5
s-20.333 -206.833 -61 -302.5s-95.5 -178.167 -164.5 -247.5s-151.333 -124.333 -247 -165s-196.5 -61 -302.5 -61z" />
    <glyph glyph-name="uni24B8" unicode="C&#x20dd;" 
d="M981 633h186c-6 -78 -37.833 -141.167 -95.5 -189.5s-131.167 -72.5 -220.5 -72.5c-98.667 0 -179.667 32.167 -243 96.5s-95 151.166 -95 260.499s31.667 196.333 95 261s144.333 97 243 97c90.667 0 164.834 -24.667 222.501 -74s89.167 -113.666 94.5 -192.999h-185
c-2.66699 31.333 -16.167 57.166 -40.5 77.499s-53.833 30.5 -88.5 30.5c-43.333 0 -78 -17.667 -104 -53s-39 -84 -39 -146c0 -61.333 13 -109.666 39 -144.999s60.667 -53 104 -53c33.333 0 62.166 9.83301 86.499 29.5s37.833 44.167 40.5 73.5zM851 121
c108.667 0 208.331 26.833 298.998 80.5s162 126.334 214 218.001s78 191.834 78 300.501s-26 209 -78 301s-123.333 164.667 -214 218s-190.334 80 -299.001 80c-81.333 0 -158.666 -15.833 -231.999 -47.5s-136 -74.167 -188 -127.5s-93.333 -117 -124 -191
s-46 -151.667 -46 -233c0 -108.667 25.833 -208.834 77.5 -300.501s122.834 -164.334 213.501 -218.001s190.334 -80.5 299.001 -80.5zM850.997 -55c-141.333 0 -271.334 34.5 -390.001 103.5s-212.334 163 -281.001 282s-103 249.167 -103 390.5
c0 106 20.333 206.833 61 302.5s95.334 178 164.001 247s150.834 123.833 246.501 164.5s196.5 61 302.5 61s206.833 -20.333 302.5 -61s178 -95.5 247 -164.5s123.833 -151.333 164.5 -247s61 -196.5 61 -302.5s-20.333 -206.833 -61 -302.5s-95.5 -178.167 -164.5 -247.5
s-151.333 -124.333 -247 -165s-196.5 -61 -302.5 -61z" />
    <glyph glyph-name="uni24B9" unicode="D&#x20dd;" 
d="M582 1075h297.999c106.667 0 187.334 -29.667 242.001 -89s82 -145 82 -257s-27.5 -197.667 -82.5 -257s-135.5 -89 -241.5 -89h-298v692zM773.999 923v-388.999h75c53.333 0 92.333 15.667 117 47s37 80.333 37 147c0 67.333 -12.333 116.666 -37 147.999
s-63.667 47 -117 47h-75zM850.999 121.001c108.667 0 208.331 26.833 298.998 80.5s162 126.334 214 218.001s78 191.834 78 300.501s-26 209 -78 301s-123.333 164.667 -214 218s-190.334 80 -299.001 80c-81.333 0 -158.666 -15.833 -231.999 -47.5
s-136 -74.167 -188 -127.5s-93.333 -117 -124 -191s-46 -151.667 -46 -233c0 -108.667 25.833 -208.834 77.5 -300.501s122.834 -164.334 213.501 -218.001s190.334 -80.5 299.001 -80.5zM850.996 -54.999c-141.333 0 -271.334 34.5 -390.001 103.5
s-212.334 163 -281.001 282s-103 249.167 -103 390.5c0 106 20.333 206.833 61 302.5s95.334 178 164.001 247s150.834 123.833 246.501 164.5s196.5 61 302.5 61s206.833 -20.333 302.5 -61s178 -95.5 247 -164.5s123.833 -151.333 164.5 -247s61 -196.5 61 -302.5
s-20.333 -206.833 -61 -302.5s-95.5 -178.167 -164.5 -247.5s-151.333 -124.333 -247 -165s-196.5 -61 -302.5 -61z" />
    <glyph glyph-name="uni24BA" unicode="E&#x20dd;" 
d="M1109 532v-149h-495v692h495v-149h-306v-130h287v-130h-287v-134h306zM851 121c108.667 0 208.331 26.833 298.998 80.5s162 126.334 214 218.001s78 191.834 78 300.501s-26 209 -78 301s-123.333 164.667 -214 218s-190.334 80 -299.001 80
c-81.333 0 -158.666 -15.833 -231.999 -47.5s-136 -74.167 -188 -127.5s-93.333 -117 -124 -191s-46 -151.667 -46 -233c0 -108.667 25.833 -208.834 77.5 -300.501s122.834 -164.334 213.501 -218.001s190.334 -80.5 299.001 -80.5zM850.997 -55
c-141.333 0 -271.334 34.5 -390.001 103.5s-212.334 163 -281.001 282s-103 249.167 -103 390.5c0 106 20.333 206.833 61 302.5s95.334 178 164.001 247s150.834 123.833 246.501 164.5s196.5 61 302.5 61s206.833 -20.333 302.5 -61s178 -95.5 247 -164.5
s123.833 -151.333 164.5 -247s61 -196.5 61 -302.5s-20.333 -206.833 -61 -302.5s-95.5 -178.167 -164.5 -247.5s-151.333 -124.333 -247 -165s-196.5 -61 -302.5 -61z" />
    <glyph glyph-name="uni24BB" unicode="F&#x20dd;" 
d="M829 383h-198v692h493v-152h-295v-139h268v-151h-268v-250zM851 121c108.667 0 208.331 26.833 298.998 80.5s162 126.334 214 218.001s78 191.834 78 300.501s-26 209 -78 301s-123.333 164.667 -214 218s-190.334 80 -299.001 80
c-81.333 0 -158.666 -15.833 -231.999 -47.5s-136 -74.167 -188 -127.5s-93.333 -117 -124 -191s-46 -151.667 -46 -233c0 -108.667 25.833 -208.834 77.5 -300.501s122.834 -164.334 213.501 -218.001s190.334 -80.5 299.001 -80.5zM850.997 -55
c-141.333 0 -271.334 34.5 -390.001 103.5s-212.334 163 -281.001 282s-103 249.167 -103 390.5c0 106 20.333 206.833 61 302.5s95.334 178 164.001 247s150.834 123.833 246.501 164.5s196.5 61 302.5 61s206.833 -20.333 302.5 -61s178 -95.5 247 -164.5
s123.833 -151.333 164.5 -247s61 -196.5 61 -302.5s-20.333 -206.833 -61 -302.5s-95.5 -178.167 -164.5 -247.5s-151.333 -124.333 -247 -165s-196.5 -61 -302.5 -61z" />
    <glyph glyph-name="uni24BC" unicode="G&#x20dd;" 
d="M984 612l-0.00292969 30.998h-127v122h309v-121c0 -80 -28.167 -145.5 -84.5 -196.5s-132.833 -76.5 -229.5 -76.5c-101.333 0 -183.166 32.833 -245.499 98.5s-93.5 151.834 -93.5 258.501s31.167 193 93.5 259s144.166 99 245.499 99c85.333 0 157 -22.333 215 -67
s91.667 -103.667 101 -177h-190c-3.33301 28 -16.333 50.833 -39 68.5s-50.667 26.5 -84 26.5c-43.333 0 -78.166 -19 -104.499 -57s-39.5 -88.667 -39.5 -152s13.333 -114.666 40 -153.999s61.334 -59 104.001 -59c40.667 0 72.334 9 95.001 27s34 41.333 34 70z
M850.997 120.998c108.667 0 208.331 26.833 298.998 80.5s162 126.334 214 218.001s78 191.834 78 300.501s-26 209 -78 301s-123.333 164.667 -214 218s-190.334 80 -299.001 80c-81.333 0 -158.666 -15.833 -231.999 -47.5s-136 -74.167 -188 -127.5
s-93.333 -117 -124 -191s-46 -151.667 -46 -233c0 -108.667 25.833 -208.834 77.5 -300.501s122.834 -164.334 213.501 -218.001s190.334 -80.5 299.001 -80.5zM850.994 -55.002c-141.333 0 -271.334 34.5 -390.001 103.5s-212.334 163 -281.001 282
s-103 249.167 -103 390.5c0 106 20.333 206.833 61 302.5s95.334 178 164.001 247s150.834 123.833 246.501 164.5s196.5 61 302.5 61s206.833 -20.333 302.5 -61s178 -95.5 247 -164.5s123.833 -151.333 164.5 -247s61 -196.5 61 -302.5s-20.333 -206.833 -61 -302.5
s-95.5 -178.167 -164.5 -247.5s-151.333 -124.333 -247 -165s-196.5 -61 -302.5 -61z" />
    <glyph glyph-name="uni24BD" unicode="H&#x20dd;" 
d="M1161 383h-187v268h-245v-268h-187v692h187v-265h245v265h187v-692zM851 121c108.667 0 208.331 26.833 298.998 80.5s162 126.334 214 218.001s78 191.834 78 300.501s-26 209 -78 301s-123.333 164.667 -214 218s-190.334 80 -299.001 80
c-81.333 0 -158.666 -15.833 -231.999 -47.5s-136 -74.167 -188 -127.5s-93.333 -117 -124 -191s-46 -151.667 -46 -233c0 -108.667 25.833 -208.834 77.5 -300.501s122.834 -164.334 213.501 -218.001s190.334 -80.5 299.001 -80.5zM850.997 -55
c-141.333 0 -271.334 34.5 -390.001 103.5s-212.334 163 -281.001 282s-103 249.167 -103 390.5c0 106 20.333 206.833 61 302.5s95.334 178 164.001 247s150.834 123.833 246.501 164.5s196.5 61 302.5 61s206.833 -20.333 302.5 -61s178 -95.5 247 -164.5
s123.833 -151.333 164.5 -247s61 -196.5 61 -302.5s-20.333 -206.833 -61 -302.5s-95.5 -178.167 -164.5 -247.5s-151.333 -124.333 -247 -165s-196.5 -61 -302.5 -61z" />
    <glyph glyph-name="uni24BE" unicode="I&#x20dd;" 
d="M958 383h-214v692h214v-692zM851 121c108.667 0 208.331 26.833 298.998 80.5s162 126.334 214 218.001s78 191.834 78 300.501s-26 209 -78 301s-123.333 164.667 -214 218s-190.334 80 -299.001 80c-81.333 0 -158.666 -15.833 -231.999 -47.5
s-136 -74.167 -188 -127.5s-93.333 -117 -124 -191s-46 -151.667 -46 -233c0 -108.667 25.833 -208.834 77.5 -300.501s122.834 -164.334 213.501 -218.001s190.334 -80.5 299.001 -80.5zM850.997 -55c-141.333 0 -271.334 34.5 -390.001 103.5s-212.334 163 -281.001 282
s-103 249.167 -103 390.5c0 106 20.333 206.833 61 302.5s95.334 178 164.001 247s150.834 123.833 246.501 164.5s196.5 61 302.5 61s206.833 -20.333 302.5 -61s178 -95.5 247 -164.5s123.833 -151.333 164.5 -247s61 -196.5 61 -302.5s-20.333 -206.833 -61 -302.5
s-95.5 -178.167 -164.5 -247.5s-151.333 -124.333 -247 -165s-196.5 -61 -302.5 -61z" />
    <glyph glyph-name="uni24BF" unicode="J&#x20dd;" 
d="M553 617h194c0 -26 6.5 -46 19.5 -60s31.167 -21 54.5 -21c48.667 0 73 30.333 73 91v438h201v-441c0 -82 -24 -146.333 -72 -193s-114 -70 -198 -70s-150.333 23.5 -199 70.5s-73 108.833 -73 185.5zM851 121c108.667 0 208.331 26.833 298.998 80.5
s162 126.334 214 218.001s78 191.834 78 300.501s-26 209 -78 301s-123.333 164.667 -214 218s-190.334 80 -299.001 80c-81.333 0 -158.666 -15.833 -231.999 -47.5s-136 -74.167 -188 -127.5s-93.333 -117 -124 -191s-46 -151.667 -46 -233
c0 -108.667 25.833 -208.834 77.5 -300.501s122.834 -164.334 213.501 -218.001s190.334 -80.5 299.001 -80.5zM850.997 -55c-141.333 0 -271.334 34.5 -390.001 103.5s-212.334 163 -281.001 282s-103 249.167 -103 390.5c0 106 20.333 206.833 61 302.5
s95.334 178 164.001 247s150.834 123.833 246.501 164.5s196.5 61 302.5 61s206.833 -20.333 302.5 -61s178 -95.5 247 -164.5s123.833 -151.333 164.5 -247s61 -196.5 61 -302.5s-20.333 -206.833 -61 -302.5s-95.5 -178.167 -164.5 -247.5s-151.333 -124.333 -247 -165
s-196.5 -61 -302.5 -61z" />
    <glyph glyph-name="uni24C0" unicode="K&#x20dd;" 
d="M1185 1075l-229 -313l235 -379h-225l-158 259l-64 -75v-184h-182v692h182v-293h6l221 293h214zM851 121c108.667 0 208.331 26.833 298.998 80.5s162 126.334 214 218.001s78 191.834 78 300.501s-26 209 -78 301s-123.333 164.667 -214 218s-190.334 80 -299.001 80
c-81.333 0 -158.666 -15.833 -231.999 -47.5s-136 -74.167 -188 -127.5s-93.333 -117 -124 -191s-46 -151.667 -46 -233c0 -108.667 25.833 -208.834 77.5 -300.501s122.834 -164.334 213.501 -218.001s190.334 -80.5 299.001 -80.5zM850.997 -55
c-141.333 0 -271.334 34.5 -390.001 103.5s-212.334 163 -281.001 282s-103 249.167 -103 390.5c0 106 20.333 206.833 61 302.5s95.334 178 164.001 247s150.834 123.833 246.501 164.5s196.5 61 302.5 61s206.833 -20.333 302.5 -61s178 -95.5 247 -164.5
s123.833 -151.333 164.5 -247s61 -196.5 61 -302.5s-20.333 -206.833 -61 -302.5s-95.5 -178.167 -164.5 -247.5s-151.333 -124.333 -247 -165s-196.5 -61 -302.5 -61z" />
    <glyph glyph-name="uni24C1" unicode="L&#x20dd;" 
d="M1133 557v-164h-488v692h204v-528h284zM851 121c108.667 0 208.331 26.833 298.998 80.5s162 126.334 214 218.001s78 191.834 78 300.501s-26 209 -78 301s-123.333 164.667 -214 218s-190.334 80 -299.001 80c-81.333 0 -158.666 -15.833 -231.999 -47.5
s-136 -74.167 -188 -127.5s-93.333 -117 -124 -191s-46 -151.667 -46 -233c0 -108.667 25.833 -208.834 77.5 -300.501s122.834 -164.334 213.501 -218.001s190.334 -80.5 299.001 -80.5zM850.997 -55c-141.333 0 -271.334 34.5 -390.001 103.5s-212.334 163 -281.001 282
s-103 249.167 -103 390.5c0 106 20.333 206.833 61 302.5s95.334 178 164.001 247s150.834 123.833 246.501 164.5s196.5 61 302.5 61s206.833 -20.333 302.5 -61s178 -95.5 247 -164.5s123.833 -151.333 164.5 -247s61 -196.5 61 -302.5s-20.333 -206.833 -61 -302.5
s-95.5 -178.167 -164.5 -247.5s-151.333 -124.333 -247 -165s-196.5 -61 -302.5 -61z" />
    <glyph glyph-name="uni24C2" unicode="M&#x20dd;" 
d="M649 383h-151v692h190l162 -456h5l162 456h189v-692h-152v424h-7l-140 -387h-112l-139 387h-7v-424zM851 121c108.667 0 208.331 26.833 298.998 80.5s162 126.334 214 218.001s78 191.834 78 300.501s-26 209 -78 301s-123.333 164.667 -214 218
s-190.334 80 -299.001 80c-81.333 0 -158.666 -15.833 -231.999 -47.5s-136 -74.167 -188 -127.5s-93.333 -117 -124 -191s-46 -151.667 -46 -233c0 -108.667 25.833 -208.834 77.5 -300.501s122.834 -164.334 213.501 -218.001s190.334 -80.5 299.001 -80.5zM850.997 -55
c-141.333 0 -271.334 34.5 -390.001 103.5s-212.334 163 -281.001 282s-103 249.167 -103 390.5c0 106 20.333 206.833 61 302.5s95.334 178 164.001 247s150.834 123.833 246.501 164.5s196.5 61 302.5 61s206.833 -20.333 302.5 -61s178 -95.5 247 -164.5
s123.833 -151.333 164.5 -247s61 -196.5 61 -302.5s-20.333 -206.833 -61 -302.5s-95.5 -178.167 -164.5 -247.5s-151.333 -124.333 -247 -165s-196.5 -61 -302.5 -61z" />
    <glyph glyph-name="uni24C3" unicode="N&#x20dd;" 
d="M723 383h-174v692h144l279 -391h7v391h174v-692h-142l-281 396h-7v-396zM851 121c108.667 0 208.331 26.833 298.998 80.5s162 126.334 214 218.001s78 191.834 78 300.501s-26 209 -78 301s-123.333 164.667 -214 218s-190.334 80 -299.001 80
c-81.333 0 -158.666 -15.833 -231.999 -47.5s-136 -74.167 -188 -127.5s-93.333 -117 -124 -191s-46 -151.667 -46 -233c0 -108.667 25.833 -208.834 77.5 -300.501s122.834 -164.334 213.501 -218.001s190.334 -80.5 299.001 -80.5zM850.997 -55
c-141.333 0 -271.334 34.5 -390.001 103.5s-212.334 163 -281.001 282s-103 249.167 -103 390.5c0 106 20.333 206.833 61 302.5s95.334 178 164.001 247s150.834 123.833 246.501 164.5s196.5 61 302.5 61s206.833 -20.333 302.5 -61s178 -95.5 247 -164.5
s123.833 -151.333 164.5 -247s61 -196.5 61 -302.5s-20.333 -206.833 -61 -302.5s-95.5 -178.167 -164.5 -247.5s-151.333 -124.333 -247 -165s-196.5 -61 -302.5 -61z" />
    <glyph glyph-name="uni24C4" unicode="O&#x20dd;" 
d="M851 530c40.667 0 74.3301 17.167 100.997 51.5s40 83.166 40 146.499c0 64 -13.167 113.167 -39.5 147.5s-60.166 51.5 -101.499 51.5s-75.166 -17.167 -101.499 -51.5s-39.5 -83.5 -39.5 -147.5c0 -63.333 13.333 -112.166 40 -146.499s60.334 -51.5 101.001 -51.5z
M850.996 371c-98 0 -179 31.833 -243 95.5s-96 150.834 -96 261.501c0 111.333 32 198.833 96 262.5s145 95.5 243 95.5s179 -31.833 243 -95.5s96 -151.167 96 -262.5c0 -110.667 -32 -197.834 -96 -261.501s-145 -95.5 -243 -95.5zM850.996 121
c108.667 0 208.331 26.833 298.998 80.5s162 126.334 214 218.001s78 191.834 78 300.501s-26 209 -78 301s-123.333 164.667 -214 218s-190.334 80 -299.001 80c-81.333 0 -158.666 -15.833 -231.999 -47.5s-136 -74.167 -188 -127.5s-93.333 -117 -124 -191
s-46 -151.667 -46 -233c0 -108.667 25.833 -208.834 77.5 -300.501s122.834 -164.334 213.501 -218.001s190.334 -80.5 299.001 -80.5zM850.993 -55c-141.333 0 -271.334 34.5 -390.001 103.5s-212.334 163 -281.001 282s-103 249.167 -103 390.5
c0 106 20.333 206.833 61 302.5s95.334 178 164.001 247s150.834 123.833 246.501 164.5s196.5 61 302.5 61s206.833 -20.333 302.5 -61s178 -95.5 247 -164.5s123.833 -151.333 164.5 -247s61 -196.5 61 -302.5s-20.333 -206.833 -61 -302.5s-95.5 -178.167 -164.5 -247.5
s-151.333 -124.333 -247 -165s-196.5 -61 -302.5 -61z" />
    <glyph glyph-name="uni24C5" unicode="P&#x20dd;" 
d="M923 1075c78.667 0 141.333 -23.167 188 -69.5s70 -106.833 70 -181.5c0 -74 -23.333 -133.5 -70 -178.5s-110 -67.5 -190 -67.5h-111v-195h-202v692h315zM985.999 824c0 68 -32.667 102 -98 102h-89v-203h89c65.333 0 98 33.667 98 101zM850.999 121
c108.667 0 208.331 26.833 298.998 80.5s162 126.334 214 218.001s78 191.834 78 300.501s-26 209 -78 301s-123.333 164.667 -214 218s-190.334 80 -299.001 80c-81.333 0 -158.666 -15.833 -231.999 -47.5s-136 -74.167 -188 -127.5s-93.333 -117 -124 -191
s-46 -151.667 -46 -233c0 -108.667 25.833 -208.834 77.5 -300.501s122.834 -164.334 213.501 -218.001s190.334 -80.5 299.001 -80.5zM850.996 -55c-141.333 0 -271.334 34.5 -390.001 103.5s-212.334 163 -281.001 282s-103 249.167 -103 390.5
c0 106 20.333 206.833 61 302.5s95.334 178 164.001 247s150.834 123.833 246.501 164.5s196.5 61 302.5 61s206.833 -20.333 302.5 -61s178 -95.5 247 -164.5s123.833 -151.333 164.5 -247s61 -196.5 61 -302.5s-20.333 -206.833 -61 -302.5s-95.5 -178.167 -164.5 -247.5
s-151.333 -124.333 -247 -165s-196.5 -61 -302.5 -61z" />
    <glyph glyph-name="uni24C6" unicode="Q&#x20dd;" 
d="M1170 322l-190 -0.000976562l-35 62c-28 -8.66699 -59.333 -13 -94 -13c-98 0 -179 31.833 -243 95.5s-96 150.834 -96 261.501c0 111.333 32 198.833 96 262.5s145 95.5 243 95.5s179 -31.833 243 -95.5s96 -151.167 96 -262.5c0 -118.667 -37 -210.667 -111 -276z
M851 529.999c12 0 22.3301 1.33203 30.9971 3.99902l-54 98h110l22 -30c21.333 32 32 74 32 126c0 64 -13.167 113.167 -39.5 147.5s-60.166 51.5 -101.499 51.5s-75.166 -17.167 -101.499 -51.5s-39.5 -83.5 -39.5 -147.5c0 -63.333 13.333 -112.166 40 -146.499
s60.334 -51.5 101.001 -51.5zM850.997 120.998c108.667 0 208.331 26.833 298.998 80.5s162 126.334 214 218.001s78 191.834 78 300.501s-26 209 -78 301s-123.333 164.667 -214 218s-190.334 80 -299.001 80c-81.333 0 -158.666 -15.833 -231.999 -47.5
s-136 -74.167 -188 -127.5s-93.333 -117 -124 -191s-46 -151.667 -46 -233c0 -108.667 25.833 -208.834 77.5 -300.501s122.834 -164.334 213.501 -218.001s190.334 -80.5 299.001 -80.5zM850.994 -55.002c-141.333 0 -271.334 34.5 -390.001 103.5
s-212.334 163 -281.001 282s-103 249.167 -103 390.5c0 106 20.333 206.833 61 302.5s95.334 178 164.001 247s150.834 123.833 246.501 164.5s196.5 61 302.5 61s206.833 -20.333 302.5 -61s178 -95.5 247 -164.5s123.833 -151.333 164.5 -247s61 -196.5 61 -302.5
s-20.333 -206.833 -61 -302.5s-95.5 -178.167 -164.5 -247.5s-151.333 -124.333 -247 -165s-196.5 -61 -302.5 -61z" />
    <glyph glyph-name="uni24C7" unicode="R&#x20dd;" 
d="M887 1075c87.333 0 155.001 -19.833 203.001 -59.5s72 -94.5 72 -164.5c0 -48 -12.333 -88.833 -37 -122.5s-57.334 -57.167 -98.001 -70.5l149 -275h-208l-117 240h-93v-240h-183v692h312zM758.001 753l105 0.000976562c31.333 0 55.833 7.5 73.5 22.5
s26.5 36.5 26.5 64.5c0 29.333 -8.66699 51.666 -26 66.999s-41.333 23 -72 23h-107v-177zM851.001 121.001c108.667 0 208.331 26.833 298.998 80.5s162 126.334 214 218.001s78 191.834 78 300.501s-26 209 -78 301s-123.333 164.667 -214 218s-190.334 80 -299.001 80
c-81.333 0 -158.666 -15.833 -231.999 -47.5s-136 -74.167 -188 -127.5s-93.333 -117 -124 -191s-46 -151.667 -46 -233c0 -108.667 25.833 -208.834 77.5 -300.501s122.834 -164.334 213.501 -218.001s190.334 -80.5 299.001 -80.5zM850.998 -54.999
c-141.333 0 -271.334 34.5 -390.001 103.5s-212.334 163 -281.001 282s-103 249.167 -103 390.5c0 106 20.333 206.833 61 302.5s95.334 178 164.001 247s150.834 123.833 246.501 164.5s196.5 61 302.5 61s206.833 -20.333 302.5 -61s178 -95.5 247 -164.5
s123.833 -151.333 164.5 -247s61 -196.5 61 -302.5s-20.333 -206.833 -61 -302.5s-95.5 -178.167 -164.5 -247.5s-151.333 -124.333 -247 -165s-196.5 -61 -302.5 -61z" />
    <glyph glyph-name="uni24C8" unicode="S&#x20dd;" 
d="M552 585h190.002c3.33301 -22 15.166 -39.5 35.499 -52.5s46.5 -19.5 78.5 -19.5c32.667 0 58.667 6.33301 78 19s29 29.667 29 51c0 17.333 -7.83301 31 -23.5 41s-44.167 19 -85.5 27l-90 17c-64.667 11.333 -114 33.833 -148 67.5s-51 76.834 -51 129.501
c0 66.667 26.167 120.167 78.5 160.5s121.833 60.5 208.5 60.5c81.333 0 148 -19 200 -57s80.333 -88.333 85 -151h-184c-3.33301 21.333 -13.833 38.166 -31.5 50.499s-40.834 18.5 -69.501 18.5s-51.667 -6.16699 -69 -18.5s-26 -28.5 -26 -48.5c0 -32 33 -53.333 99 -64
l97 -18c132 -22.667 198 -88.667 198 -198c0 -70 -27.333 -125.667 -82 -167s-128 -62 -220 -62c-89.333 0 -160.333 19 -213 57s-80.667 90.333 -84 157zM851.002 121c108.667 0 208.331 26.833 298.998 80.5s162 126.334 214 218.001s78 191.834 78 300.501
s-26 209 -78 301s-123.333 164.667 -214 218s-190.334 80 -299.001 80c-81.333 0 -158.666 -15.833 -231.999 -47.5s-136 -74.167 -188 -127.5s-93.333 -117 -124 -191s-46 -151.667 -46 -233c0 -108.667 25.833 -208.834 77.5 -300.501s122.834 -164.334 213.501 -218.001
s190.334 -80.5 299.001 -80.5zM850.999 -55c-141.333 0 -271.334 34.5 -390.001 103.5s-212.334 163 -281.001 282s-103 249.167 -103 390.5c0 106 20.333 206.833 61 302.5s95.334 178 164.001 247s150.834 123.833 246.501 164.5s196.5 61 302.5 61
s206.833 -20.333 302.5 -61s178 -95.5 247 -164.5s123.833 -151.333 164.5 -247s61 -196.5 61 -302.5s-20.333 -206.833 -61 -302.5s-95.5 -178.167 -164.5 -247.5s-151.333 -124.333 -247 -165s-196.5 -61 -302.5 -61z" />
    <glyph glyph-name="uni24C9" unicode="T&#x20dd;" 
d="M953 360h-204v532h-195v161h594v-161h-195v-532zM851 121c108.667 0 208.331 26.833 298.998 80.5s162 126.334 214 218.001s78 191.834 78 300.501s-26 209 -78 301s-123.333 164.667 -214 218s-190.334 80 -299.001 80c-81.333 0 -158.666 -15.833 -231.999 -47.5
s-136 -74.167 -188 -127.5s-93.333 -117 -124 -191s-46 -151.667 -46 -233c0 -108.667 25.833 -208.834 77.5 -300.501s122.834 -164.334 213.501 -218.001s190.334 -80.5 299.001 -80.5zM850.997 -55c-141.333 0 -271.334 34.5 -390.001 103.5s-212.334 163 -281.001 282
s-103 249.167 -103 390.5c0 106 20.333 206.833 61 302.5s95.334 178 164.001 247s150.834 123.833 246.501 164.5s196.5 61 302.5 61s206.833 -20.333 302.5 -61s178 -95.5 247 -164.5s123.833 -151.333 164.5 -247s61 -196.5 61 -302.5s-20.333 -206.833 -61 -302.5
s-95.5 -178.167 -164.5 -247.5s-151.333 -124.333 -247 -165s-196.5 -61 -302.5 -61z" />
    <glyph glyph-name="uni24CA" unicode="U&#x20dd;" 
d="M851 508c34 0 61 9.66699 81 29s30 46 30 80v436h196v-454c0 -73.333 -28.167 -133.5 -84.5 -180.5s-130.5 -70.5 -222.5 -70.5c-91.333 0 -165.166 23.5 -221.499 70.5s-84.5 107.167 -84.5 180.5v454h195v-436c0 -34 10.167 -60.667 30.5 -80s47.166 -29 80.499 -29z
M851 121c108.667 0 208.331 26.833 298.998 80.5s162 126.334 214 218.001s78 191.834 78 300.501s-26 209 -78 301s-123.333 164.667 -214 218s-190.334 80 -299.001 80c-81.333 0 -158.666 -15.833 -231.999 -47.5s-136 -74.167 -188 -127.5s-93.333 -117 -124 -191
s-46 -151.667 -46 -233c0 -108.667 25.833 -208.834 77.5 -300.501s122.834 -164.334 213.501 -218.001s190.334 -80.5 299.001 -80.5zM850.997 -55c-141.333 0 -271.334 34.5 -390.001 103.5s-212.334 163 -281.001 282s-103 249.167 -103 390.5
c0 106 20.333 206.833 61 302.5s95.334 178 164.001 247s150.834 123.833 246.501 164.5s196.5 61 302.5 61s206.833 -20.333 302.5 -61s178 -95.5 247 -164.5s123.833 -151.333 164.5 -247s61 -196.5 61 -302.5s-20.333 -206.833 -61 -302.5s-95.5 -178.167 -164.5 -247.5
s-151.333 -124.333 -247 -165s-196.5 -61 -302.5 -61z" />
    <glyph glyph-name="uni24CB" unicode="V&#x20dd;" 
d="M718 355l-213 693h220l123 -515h7l123 515h219l-213 -693h-266zM851 121c108.667 0 208.331 26.833 298.998 80.5s162 126.334 214 218.001s78 191.834 78 300.501s-26 209 -78 301s-123.333 164.667 -214 218s-190.334 80 -299.001 80
c-81.333 0 -158.666 -15.833 -231.999 -47.5s-136 -74.167 -188 -127.5s-93.333 -117 -124 -191s-46 -151.667 -46 -233c0 -108.667 25.833 -208.834 77.5 -300.501s122.834 -164.334 213.501 -218.001s190.334 -80.5 299.001 -80.5zM850.997 -55
c-141.333 0 -271.334 34.5 -390.001 103.5s-212.334 163 -281.001 282s-103 249.167 -103 390.5c0 106 20.333 206.833 61 302.5s95.334 178 164.001 247s150.834 123.833 246.501 164.5s196.5 61 302.5 61s206.833 -20.333 302.5 -61s178 -95.5 247 -164.5
s123.833 -151.333 164.5 -247s61 -196.5 61 -302.5s-20.333 -206.833 -61 -302.5s-95.5 -178.167 -164.5 -247.5s-151.333 -124.333 -247 -165s-196.5 -61 -302.5 -61z" />
    <glyph glyph-name="uni24CC" unicode="W&#x20dd;" 
d="M848 794l-104 -434h-169l-162 693h179l81 -467h7l101 467h141l101 -467h7l81 467h178l-161 -693h-169l-105 434h-6zM851 121c108.667 0 208.331 26.833 298.998 80.5s162 126.334 214 218.001s78 191.834 78 300.501s-26 209 -78 301s-123.333 164.667 -214 218
s-190.334 80 -299.001 80c-81.333 0 -158.666 -15.833 -231.999 -47.5s-136 -74.167 -188 -127.5s-93.333 -117 -124 -191s-46 -151.667 -46 -233c0 -108.667 25.833 -208.834 77.5 -300.501s122.834 -164.334 213.501 -218.001s190.334 -80.5 299.001 -80.5zM850.997 -55
c-141.333 0 -271.334 34.5 -390.001 103.5s-212.334 163 -281.001 282s-103 249.167 -103 390.5c0 106 20.333 206.833 61 302.5s95.334 178 164.001 247s150.834 123.833 246.501 164.5s196.5 61 302.5 61s206.833 -20.333 302.5 -61s178 -95.5 247 -164.5
s123.833 -151.333 164.5 -247s61 -196.5 61 -302.5s-20.333 -206.833 -61 -302.5s-95.5 -178.167 -164.5 -247.5s-151.333 -124.333 -247 -165s-196.5 -61 -302.5 -61z" />
    <glyph glyph-name="uni24CD" unicode="X&#x20dd;" 
d="M1185 1075l-216 -347l215 -345h-212l-121 228h-7l-121 -228h-216l219 347l-218 345h222l119 -229h7l119 229h210zM851 121c108.667 0 208.331 26.833 298.998 80.5s162 126.334 214 218.001s78 191.834 78 300.501s-26 209 -78 301s-123.333 164.667 -214 218
s-190.334 80 -299.001 80c-81.333 0 -158.666 -15.833 -231.999 -47.5s-136 -74.167 -188 -127.5s-93.333 -117 -124 -191s-46 -151.667 -46 -233c0 -108.667 25.833 -208.834 77.5 -300.501s122.834 -164.334 213.501 -218.001s190.334 -80.5 299.001 -80.5zM850.997 -55
c-141.333 0 -271.334 34.5 -390.001 103.5s-212.334 163 -281.001 282s-103 249.167 -103 390.5c0 106 20.333 206.833 61 302.5s95.334 178 164.001 247s150.834 123.833 246.501 164.5s196.5 61 302.5 61s206.833 -20.333 302.5 -61s178 -95.5 247 -164.5
s123.833 -151.333 164.5 -247s61 -196.5 61 -302.5s-20.333 -206.833 -61 -302.5s-95.5 -178.167 -164.5 -247.5s-151.333 -124.333 -247 -165s-196.5 -61 -302.5 -61z" />
    <glyph glyph-name="uni24CE" unicode="Y&#x20dd;" 
d="M956 368h-209v228l-238 464h220l120 -276h6l120 276h218l-237 -463v-229zM851 121c108.667 0 208.331 26.833 298.998 80.5s162 126.334 214 218.001s78 191.834 78 300.501s-26 209 -78 301s-123.333 164.667 -214 218s-190.334 80 -299.001 80
c-81.333 0 -158.666 -15.833 -231.999 -47.5s-136 -74.167 -188 -127.5s-93.333 -117 -124 -191s-46 -151.667 -46 -233c0 -108.667 25.833 -208.834 77.5 -300.501s122.834 -164.334 213.501 -218.001s190.334 -80.5 299.001 -80.5zM850.997 -55
c-141.333 0 -271.334 34.5 -390.001 103.5s-212.334 163 -281.001 282s-103 249.167 -103 390.5c0 106 20.333 206.833 61 302.5s95.334 178 164.001 247s150.834 123.833 246.501 164.5s196.5 61 302.5 61s206.833 -20.333 302.5 -61s178 -95.5 247 -164.5
s123.833 -151.333 164.5 -247s61 -196.5 61 -302.5s-20.333 -206.833 -61 -302.5s-95.5 -178.167 -164.5 -247.5s-151.333 -124.333 -247 -165s-196.5 -61 -302.5 -61z" />
    <glyph glyph-name="uni24CF" unicode="Z&#x20dd;" 
d="M578 383v125l300 403v8h-299v156h540v-126l-300 -402v-8h311v-156h-552zM851 121c108.667 0 208.331 26.833 298.998 80.5s162 126.334 214 218.001s78 191.834 78 300.501s-26 209 -78 301s-123.333 164.667 -214 218s-190.334 80 -299.001 80
c-81.333 0 -158.666 -15.833 -231.999 -47.5s-136 -74.167 -188 -127.5s-93.333 -117 -124 -191s-46 -151.667 -46 -233c0 -108.667 25.833 -208.834 77.5 -300.501s122.834 -164.334 213.501 -218.001s190.334 -80.5 299.001 -80.5zM850.997 -55
c-141.333 0 -271.334 34.5 -390.001 103.5s-212.334 163 -281.001 282s-103 249.167 -103 390.5c0 106 20.333 206.833 61 302.5s95.334 178 164.001 247s150.834 123.833 246.501 164.5s196.5 61 302.5 61s206.833 -20.333 302.5 -61s178 -95.5 247 -164.5
s123.833 -151.333 164.5 -247s61 -196.5 61 -302.5s-20.333 -206.833 -61 -302.5s-95.5 -178.167 -164.5 -247.5s-151.333 -124.333 -247 -165s-196.5 -61 -302.5 -61z" />
    <glyph glyph-name="uni24EA" unicode="&#x23;&#x20dd;" 
d="M851 526c32 0 57.167 16.667 75.5 50s27.5 84 27.5 152s-9.16699 118.667 -27.5 152s-43.5 50 -75.5 50c-68 0 -102 -67.333 -102 -202s34 -202 102 -202zM849 371c-88 0 -158.332 31.6689 -210.999 95.002s-79 150.666 -79 261.999c0 110.667 26.333 197.834 79 261.501
s123 95.5 211 95.5s159 -31.833 213 -95.5s81 -150.834 81 -261.501s-26.833 -197.834 -80.5 -261.501s-124.834 -95.5 -213.501 -95.5zM851.001 121.002c108.667 0 208.331 26.833 298.998 80.5s162 126.334 214 218.001s78 191.834 78 300.501s-26 209 -78 301
s-123.333 164.667 -214 218s-190.334 80 -299.001 80c-81.333 0 -158.666 -15.833 -231.999 -47.5s-136 -74.167 -188 -127.5s-93.333 -117 -124 -191s-46 -151.667 -46 -233c0 -108.667 25.833 -208.834 77.5 -300.501s122.834 -164.334 213.501 -218.001
s190.334 -80.5 299.001 -80.5zM850.998 -54.998c-141.333 0 -271.334 34.5 -390.001 103.5s-212.334 163 -281.001 282s-103 249.167 -103 390.5c0 106 20.333 206.833 61 302.5s95.334 178 164.001 247s150.834 123.833 246.501 164.5s196.5 61 302.5 61
s206.833 -20.333 302.5 -61s178 -95.5 247 -164.5s123.833 -151.333 164.5 -247s61 -196.5 61 -302.5s-20.333 -206.833 -61 -302.5s-95.5 -178.167 -164.5 -247.5s-151.333 -124.333 -247 -165s-196.5 -61 -302.5 -61z" />
    <glyph glyph-name="uni24FF" unicode="&#x30;&#x20dd;&#x25cf;" 
d="M849 502c-70 0 -105 75.333 -105 226c0 150 35 225 105 225s105 -75 105 -225c0 -150.667 -35 -226 -105 -226zM847 338c98 0 176.167 34.667 234.5 104s87.5 164.666 87.5 285.999c0 120.667 -29.167 215.667 -87.5 285s-136.5 104 -234.5 104
c-97.333 0 -174.5 -34.667 -231.5 -104s-85.5 -164.333 -85.5 -285c0 -121.333 28.5 -216.666 85.5 -285.999s134.167 -104 231.5 -104zM851 -53c-104.667 0 -204.668 20.499 -300.001 61.499s-177.666 96.167 -246.999 165.5s-124.5 151.833 -165.5 247.5
s-61.5 195.834 -61.5 300.501c0 139.333 34.667 268.5 104 387.5s163.5 213.167 282.5 282.5s248.167 104 387.5 104c104.667 0 204.834 -20.5 300.501 -61.5s178.167 -96.167 247.5 -165.5s124.5 -151.666 165.5 -246.999s61.5 -195.333 61.5 -300
s-20.5 -204.834 -61.5 -300.501s-96.167 -178.167 -165.5 -247.5s-151.833 -124.5 -247.5 -165.5s-195.834 -61.5 -300.501 -61.5z" />
    <glyph glyph-name="uni278A" unicode="&#x31;&#x20dd;&#x25cf;" 
d="M1000 352v753h-221l-183 -122v-195l176 118h5v-554h223zM851 -53c-104.667 0 -204.668 20.499 -300.001 61.499s-177.666 96.167 -246.999 165.5s-124.5 151.833 -165.5 247.5s-61.5 195.834 -61.5 300.501c0 139.333 34.667 268.5 104 387.5s163.5 213.167 282.5 282.5
s248.167 104 387.5 104c104.667 0 204.834 -20.5 300.501 -61.5s178.167 -96.167 247.5 -165.5s124.5 -151.666 165.5 -246.999s61.5 -195.333 61.5 -300s-20.5 -204.834 -61.5 -300.501s-96.167 -178.167 -165.5 -247.5s-151.833 -124.5 -247.5 -165.5
s-195.834 -61.5 -300.501 -61.5z" />
    <glyph glyph-name="uni278B" unicode="&#x32;&#x20dd;&#x25cf;" 
d="M753 852l0.00195312 5.99902c0 28.667 7.66699 51.834 23 69.501s37 26.5 65 26.5c24 0 43.833 -6.83301 59.5 -20.5s23.5 -31.5 23.5 -53.5c0 -24 -7.33301 -46.5 -22 -67.5s-39.334 -47.5 -74.001 -79.5l-263 -246v-137h583v175h-294v3l139 135
c48 43.333 83.167 82.5 105.5 117.5s33.5 73.833 33.5 116.5c0 62.667 -26.333 114.834 -79 156.501s-119.334 62.5 -200.001 62.5c-92.667 0 -166 -24.333 -220 -73s-81 -110.334 -81 -185.001v-6h201zM851.002 -53.001c-104.667 0 -204.668 20.499 -300.001 61.499
s-177.666 96.167 -246.999 165.5s-124.5 151.833 -165.5 247.5s-61.5 195.834 -61.5 300.501c0 139.333 34.667 268.5 104 387.5s163.5 213.167 282.5 282.5s248.167 104 387.5 104c104.667 0 204.834 -20.5 300.501 -61.5s178.167 -96.167 247.5 -165.5
s124.5 -151.666 165.5 -246.999s61.5 -195.333 61.5 -300s-20.5 -204.834 -61.5 -300.501s-96.167 -178.167 -165.5 -247.5s-151.833 -124.5 -247.5 -165.5s-195.834 -61.5 -300.501 -61.5z" />
    <glyph glyph-name="uni278C" unicode="&#x33;&#x20dd;&#x25cf;" 
d="M763 660l82.001 0.000976562c31.333 0 56.5 -7.33301 75.5 -22s28.833 -34 29.5 -58c0 -24 -9.66699 -43.5 -29 -58.5s-45 -22.5 -77 -22.5c-31.333 0.666992 -56.833 8.5 -76.5 23.5s-30.5 34.5 -32.5 58.5h-201c1.33301 -70.667 30.166 -128.667 86.499 -174
s130.833 -68 223.5 -68c94 0 170.667 20.667 230 62s88.666 96.666 87.999 165.999c-0.666992 50 -17 91.167 -49 123.5s-69.333 50.5 -112 54.5v5c36 6 68.5 24.333 97.5 55s43.167 67 42.5 109c-1.33301 60.667 -28.833 109.667 -82.5 147s-124.5 56 -212.5 56
c-95.333 0 -169 -21.167 -221 -63.5s-79.667 -101.166 -83 -176.499h203c1.33301 24 10.5 43.667 27.5 59s40.167 23 69.5 23c26 0 47.333 -6.83301 64 -20.5s25.334 -31.167 26.001 -52.5c0 -22.667 -8.5 -40.834 -25.5 -54.501s-39.167 -20.5 -66.5 -20.5h-77v-151z
M851.001 -52.999c-104.667 0 -204.668 20.499 -300.001 61.499s-177.666 96.167 -246.999 165.5s-124.5 151.833 -165.5 247.5s-61.5 195.834 -61.5 300.501c0 139.333 34.667 268.5 104 387.5s163.5 213.167 282.5 282.5s248.167 104 387.5 104
c104.667 0 204.834 -20.5 300.501 -61.5s178.167 -96.167 247.5 -165.5s124.5 -151.666 165.5 -246.999s61.5 -195.333 61.5 -300s-20.5 -204.834 -61.5 -300.501s-96.167 -178.167 -165.5 -247.5s-151.833 -124.5 -247.5 -165.5s-195.834 -61.5 -300.501 -61.5z" />
    <glyph glyph-name="uni278D" unicode="&#x34;&#x20dd;&#x25cf;" 
d="M764 1105c-120 -199.333 -207.667 -354.333 -263 -465v-166h372v-122h189v122h102v166h-102v465h-298zM694 640v1.00098c50 101.333 108.333 206.666 175 315.999h4v-317h-179zM851 -52.999c-104.667 0 -204.668 20.499 -300.001 61.499s-177.666 96.167 -246.999 165.5
s-124.5 151.833 -165.5 247.5s-61.5 195.834 -61.5 300.501c0 139.333 34.667 268.5 104 387.5s163.5 213.167 282.5 282.5s248.167 104 387.5 104c104.667 0 204.834 -20.5 300.501 -61.5s178.167 -96.167 247.5 -165.5s124.5 -151.666 165.5 -246.999
s61.5 -195.333 61.5 -300s-20.5 -204.834 -61.5 -300.501s-96.167 -178.167 -165.5 -247.5s-151.833 -124.5 -247.5 -165.5s-195.834 -61.5 -300.501 -61.5z" />
    <glyph glyph-name="uni278E" unicode="&#x35;&#x20dd;&#x25cf;" 
d="M553 579c1.33301 -69.333 29.833 -125.835 85.5 -169.502s128.167 -65.5 217.5 -65.5c96 0 172.667 24.833 230 74.5s86 116.834 86 201.501c0 74.667 -23.5 133.834 -70.5 177.501s-107.167 65.5 -180.5 65.5c-38 0 -71.5 -6.66699 -100.5 -20s-49.5 -29.333 -61.5 -48
h-5l12 160h356v155h-525l-29 -450h189c8.66699 16 21.834 29.833 39.501 41.5s38.167 17.5 61.5 17.5c31.333 0 57.166 -9.66699 77.499 -29s30.5 -45 30.5 -77c0 -33.333 -10.5 -60 -31.5 -80s-46.167 -30 -75.5 -30c-27.333 0 -51 6.66699 -71 20s-32.333 32 -37 56h-198z
M851 -53.002c-104.667 0 -204.668 20.499 -300.001 61.499s-177.666 96.167 -246.999 165.5s-124.5 151.833 -165.5 247.5s-61.5 195.834 -61.5 300.501c0 139.333 34.667 268.5 104 387.5s163.5 213.167 282.5 282.5s248.167 104 387.5 104
c104.667 0 204.834 -20.5 300.501 -61.5s178.167 -96.167 247.5 -165.5s124.5 -151.666 165.5 -246.999s61.5 -195.333 61.5 -300s-20.5 -204.834 -61.5 -300.501s-96.167 -178.167 -165.5 -247.5s-151.833 -124.5 -247.5 -165.5s-195.834 -61.5 -300.501 -61.5z" />
    <glyph glyph-name="uni278F" unicode="&#x36;&#x20dd;&#x25cf;" 
d="M1163 610c0 73.333 -22.3311 130.334 -66.998 171.001s-102.667 61 -174 61c-44.667 0 -83 -9 -115 -27s-56.333 -41.333 -73 -70l-5 -1c-2 12 -3 19 -3 21c-0.666992 59.333 11 106.666 35 141.999s55.667 53 95 53c45.333 0 76.666 -18 93.999 -54h197
c-6 58.667 -35.5 108.667 -88.5 150s-119.833 62 -200.5 62c-104 0 -186 -34.333 -246 -103s-90 -166 -90 -292c0 -101.333 20.333 -184.333 61 -249c60 -90.667 150.333 -136 271 -136c91.333 0 165.666 24.667 222.999 74s86 115.333 86 198zM744.002 604.001
c0 31.333 9.99902 56.833 29.999 76.5s46.333 29.5 79 29.5c30.667 0 56.334 -9.5 77.001 -28.5s31 -44.833 31 -77.5c0 -34.667 -10 -61.5 -30 -80.5s-46 -28.5 -78 -28.5s-58.167 9.83301 -78.5 29.5s-30.5 46.167 -30.5 79.5zM851.001 -52.999
c-104.667 0 -204.668 20.499 -300.001 61.499s-177.666 96.167 -246.999 165.5s-124.5 151.833 -165.5 247.5s-61.5 195.834 -61.5 300.501c0 139.333 34.667 268.5 104 387.5s163.5 213.167 282.5 282.5s248.167 104 387.5 104c104.667 0 204.834 -20.5 300.501 -61.5
s178.167 -96.167 247.5 -165.5s124.5 -151.666 165.5 -246.999s61.5 -195.333 61.5 -300s-20.5 -204.834 -61.5 -300.501s-96.167 -178.167 -165.5 -247.5s-151.833 -124.5 -247.5 -165.5s-195.834 -61.5 -300.501 -61.5z" />
    <glyph glyph-name="uni2790" unicode="&#x37;&#x20dd;&#x25cf;" 
d="M561 1100v-175h366v-3l-309 -575h237l297 579v174h-591zM851 -53c-104.667 0 -204.668 20.499 -300.001 61.499s-177.666 96.167 -246.999 165.5s-124.5 151.833 -165.5 247.5s-61.5 195.834 -61.5 300.501c0 139.333 34.667 268.5 104 387.5s163.5 213.167 282.5 282.5
s248.167 104 387.5 104c104.667 0 204.834 -20.5 300.501 -61.5s178.167 -96.167 247.5 -165.5s124.5 -151.666 165.5 -246.999s61.5 -195.333 61.5 -300s-20.5 -204.834 -61.5 -300.501s-96.167 -178.167 -165.5 -247.5s-151.833 -124.5 -247.5 -165.5
s-195.834 -61.5 -300.501 -61.5z" />
    <glyph glyph-name="uni2791" unicode="&#x38;&#x20dd;&#x25cf;" 
d="M849 802c-27.333 0 -49.833 7.99902 -67.5 23.999s-26.5 37 -26.5 63s8.66699 47.167 26 63.5s40 24.5 68 24.5c28.667 0 51.667 -8.16699 69 -24.5s26 -37.5 26 -63.5c0 -25.333 -8.83301 -46.166 -26.5 -62.499s-40.5 -24.5 -68.5 -24.5zM849 478.999
c-33.333 0 -60.666 9.5 -81.999 28.5s-32 43.167 -32 72.5s10.667 53.666 32 72.999s48.666 29 81.999 29s60.833 -9.66699 82.5 -29s32.5 -43.666 32.5 -72.999s-10.833 -53.5 -32.5 -72.5s-49.167 -28.5 -82.5 -28.5zM849 337.999
c101.333 0 181.999 20.501 241.999 61.501s90 96.167 90 165.5c0 47.333 -14.833 87.166 -44.5 119.499s-70.5 52.833 -122.5 61.5v3c90 27.333 135 82 135 164c0 62 -27.167 111.5 -81.5 148.5s-127.166 55.5 -218.499 55.5c-90.667 0 -163.167 -18.5 -217.5 -55.5
s-81.5 -86.5 -81.5 -148.5c0 -82.667 45 -137.334 135 -164.001v-3c-52 -8.66699 -92.833 -29.167 -122.5 -61.5s-44.5 -72.166 -44.5 -119.499c0 -69.333 29.833 -124.5 89.5 -165.5s140.167 -61.5 241.5 -61.5zM850.999 -53c-104.667 0 -204.668 20.499 -300.001 61.499
s-177.666 96.167 -246.999 165.5s-124.5 151.833 -165.5 247.5s-61.5 195.834 -61.5 300.501c0 139.333 34.667 268.5 104 387.5s163.5 213.167 282.5 282.5s248.167 104 387.5 104c104.667 0 204.834 -20.5 300.501 -61.5s178.167 -96.167 247.5 -165.5
s124.5 -151.666 165.5 -246.999s61.5 -195.333 61.5 -300s-20.5 -204.834 -61.5 -300.501s-96.167 -178.167 -165.5 -247.5s-151.833 -124.5 -247.5 -165.5s-195.834 -61.5 -300.501 -61.5z" />
    <glyph glyph-name="uni2792" unicode="&#x39;&#x20dd;&#x25cf;" 
d="M949 851c0 -33.333 -10.166 -59.499 -30.499 -78.499s-45.833 -28.5 -76.5 -28.5c-31.333 0 -57.333 9.66699 -78 29s-31 45.666 -31 78.999s10.167 60 30.5 80s46.166 30 77.499 30c32 0 58 -10 78 -30s30 -47 30 -81zM549.001 546.001
c6.66699 -58.667 36.001 -107.833 88.001 -147.5s118.333 -59.5 199 -59.5c107.333 0 190.166 33.833 248.499 101.5s87.5 163.5 87.5 287.5c0 130 -30.333 227.5 -91 292.5s-140.334 97.5 -239.001 97.5c-91.333 0 -166 -24.5 -224 -73.5s-87 -114.167 -87 -195.5
c0 -74.667 22.5 -133 67.5 -175s104.167 -63 177.5 -63c43.333 0 81 9 113 27s55.667 41.333 71 70h4c5.33301 -61.333 -3.16699 -112 -25.5 -152s-56.166 -60 -101.499 -60c-44.667 0 -74.667 16.667 -90 50h-198zM851.002 -52.998
c-104.667 0 -204.668 20.499 -300.001 61.499s-177.666 96.167 -246.999 165.5s-124.5 151.833 -165.5 247.5s-61.5 195.834 -61.5 300.501c0 139.333 34.667 268.5 104 387.5s163.5 213.167 282.5 282.5s248.167 104 387.5 104c104.667 0 204.834 -20.5 300.501 -61.5
s178.167 -96.167 247.5 -165.5s124.5 -151.666 165.5 -246.999s61.5 -195.333 61.5 -300s-20.5 -204.834 -61.5 -300.501s-96.167 -178.167 -165.5 -247.5s-151.833 -124.5 -247.5 -165.5s-195.834 -61.5 -300.501 -61.5z" />
    <glyph glyph-name="uni1F130" unicode="A&#x20de;" 
d="M778 678h147l-69 246h-9zM705 398h-200l226 692h241l225 -692h-199l-40 139h-214zM364 1471h975c72 0 133.333 -25 184 -75s76 -110.333 76 -181v-985c0 -71.333 -25.333 -132 -76 -182s-112 -75 -184 -75h-975c-72 0 -133.5 25.167 -184.5 75.5
s-76.5 110.833 -76.5 181.5v985c0 70.667 25.5 131 76.5 181s112.5 75 184.5 75zM1419 1178c0 35.333 -13 65.5 -39 90.5s-57.333 37.5 -94 37.5h-870c-36.667 0 -68 -12.5 -94 -37.5s-39 -55.167 -39 -90.5v-911c0 -34.667 13.167 -64.667 39.5 -90s57.5 -38 93.5 -38h870
c36.667 0 68 12.5 94 37.5s39 55.167 39 90.5v911z" />
    <glyph glyph-name="uni1F131" unicode="B&#x20de;" 
d="M582 383l-0.00292969 691.998h343c66.667 0 119.334 -15.167 158.001 -45.5s58 -71.833 58 -124.5c0 -39.333 -12.167 -72.5 -36.5 -99.5s-56.166 -44.167 -95.499 -51.5v-7c50 -5.33301 89.667 -23.166 119 -53.499s44 -70.166 44 -119.499
c0 -57.333 -22.167 -103.5 -66.5 -138.5s-102.166 -52.5 -173.499 -52.5h-350zM767.997 947.998v-152h79c72.667 0 109 26 109 78c0 22.667 -8 40.667 -24 54s-37.667 20 -65 20h-99zM767.997 684.998v-169h87c81.333 0 122 28 122 84c0 26 -9.16699 46.667 -27.5 62
s-43.833 23 -76.5 23h-105zM363.997 1471h975c72 0 133.333 -25 184 -75s76 -110.333 76 -181v-985c0 -71.333 -25.333 -132 -76 -182s-112 -75 -184 -75h-975c-72 0 -133.5 25.167 -184.5 75.5s-76.5 110.833 -76.5 181.5v985c0 70.667 25.5 131 76.5 181
s112.5 75 184.5 75zM1419 1178c0 35.333 -13 65.5 -39 90.5s-57.333 37.5 -94 37.5h-870c-36.667 0 -68 -12.5 -94 -37.5s-39 -55.167 -39 -90.5v-911c0 -34.667 13.167 -64.667 39.5 -90s57.5 -38 93.5 -38h870c36.667 0 68 12.5 94 37.5s39 55.167 39 90.5v911z" />
    <glyph glyph-name="uni1F132" unicode="C&#x20de;" 
d="M981 633h186c-6 -78 -37.833 -141.167 -95.5 -189.5s-131.167 -72.5 -220.5 -72.5c-98.667 0 -179.667 32.167 -243 96.5s-95 151.166 -95 260.499s31.667 196.333 95 261s144.333 97 243 97c90.667 0 164.834 -24.667 222.501 -74s89.167 -113.666 94.5 -192.999h-185
c-2.66699 31.333 -16.167 57.166 -40.5 77.499s-53.833 30.5 -88.5 30.5c-43.333 0 -78 -17.667 -104 -53s-39 -84 -39 -146c0 -61.333 13 -109.666 39 -144.999s60.667 -53 104 -53c33.333 0 62.166 9.83301 86.499 29.5s37.833 44.167 40.5 73.5zM364 1471h975
c72 0 133.333 -25 184 -75s76 -110.333 76 -181v-985c0 -71.333 -25.333 -132 -76 -182s-112 -75 -184 -75h-975c-72 0 -133.5 25.167 -184.5 75.5s-76.5 110.833 -76.5 181.5v985c0 70.667 25.5 131 76.5 181s112.5 75 184.5 75zM1419 1178c0 35.333 -13 65.5 -39 90.5
s-57.333 37.5 -94 37.5h-870c-36.667 0 -68 -12.5 -94 -37.5s-39 -55.167 -39 -90.5v-911c0 -34.667 13.167 -64.667 39.5 -90s57.5 -38 93.5 -38h870c36.667 0 68 12.5 94 37.5s39 55.167 39 90.5v911z" />
    <glyph glyph-name="uni1F133" unicode="D&#x20de;" 
d="M569 1075h297.999c106.667 0 187.334 -29.667 242.001 -89s82 -145 82 -257s-27.5 -197.667 -82.5 -257s-135.5 -89 -241.5 -89h-298v692zM760.999 923v-388.999h75c53.333 0 92.333 15.667 117 47s37 80.333 37 147c0 67.333 -12.333 116.666 -37 147.999
s-63.667 47 -117 47h-75zM363.999 1471h975c72 0 133.333 -25 184 -75s76 -110.333 76 -181v-985c0 -71.333 -25.333 -132 -76 -182s-112 -75 -184 -75h-975c-72 0 -133.5 25.167 -184.5 75.5s-76.5 110.833 -76.5 181.5v985c0 70.667 25.5 131 76.5 181s112.5 75 184.5 75z
M1419 1178c0 35.333 -13 65.5 -39 90.5s-57.333 37.5 -94 37.5h-870c-36.667 0 -68 -12.5 -94 -37.5s-39 -55.167 -39 -90.5v-911c0 -34.667 13.167 -64.667 39.5 -90s57.5 -38 93.5 -38h870c36.667 0 68 12.5 94 37.5s39 55.167 39 90.5v911z" />
    <glyph glyph-name="uni1F134" unicode="E&#x20de;" 
d="M1109 532v-149h-495v692h495v-149h-306v-130h287v-130h-287v-134h306zM364 1471h975c72 0 133.333 -25 184 -75s76 -110.333 76 -181v-985c0 -71.333 -25.333 -132 -76 -182s-112 -75 -184 -75h-975c-72 0 -133.5 25.167 -184.5 75.5s-76.5 110.833 -76.5 181.5v985
c0 70.667 25.5 131 76.5 181s112.5 75 184.5 75zM1419 1178c0 35.333 -13 65.5 -39 90.5s-57.333 37.5 -94 37.5h-870c-36.667 0 -68 -12.5 -94 -37.5s-39 -55.167 -39 -90.5v-911c0 -34.667 13.167 -64.667 39.5 -90s57.5 -38 93.5 -38h870c36.667 0 68 12.5 94 37.5
s39 55.167 39 90.5v911z" />
    <glyph glyph-name="uni1F135" unicode="F&#x20de;" 
d="M829 383h-198v692h493v-152h-295v-139h268v-151h-268v-250zM364 1471h975c72 0 133.333 -25 184 -75s76 -110.333 76 -181v-985c0 -71.333 -25.333 -132 -76 -182s-112 -75 -184 -75h-975c-72 0 -133.5 25.167 -184.5 75.5s-76.5 110.833 -76.5 181.5v985
c0 70.667 25.5 131 76.5 181s112.5 75 184.5 75zM1419 1178c0 35.333 -13 65.5 -39 90.5s-57.333 37.5 -94 37.5h-870c-36.667 0 -68 -12.5 -94 -37.5s-39 -55.167 -39 -90.5v-911c0 -34.667 13.167 -64.667 39.5 -90s57.5 -38 93.5 -38h870c36.667 0 68 12.5 94 37.5
s39 55.167 39 90.5v911z" />
    <glyph glyph-name="uni1F136" unicode="G&#x20de;" 
d="M984 612l-0.00292969 30.998h-127v122h309v-121c0 -80 -28.167 -145.5 -84.5 -196.5s-132.833 -76.5 -229.5 -76.5c-101.333 0 -183.166 32.833 -245.499 98.5s-93.5 151.834 -93.5 258.501s31.167 193 93.5 259s144.166 99 245.499 99c85.333 0 157 -22.333 215 -67
s91.667 -103.667 101 -177h-190c-3.33301 28 -16.333 50.833 -39 68.5s-50.667 26.5 -84 26.5c-43.333 0 -78.166 -19 -104.499 -57s-39.5 -88.667 -39.5 -152s13.333 -114.666 40 -153.999s61.334 -59 104.001 -59c40.667 0 72.334 9 95.001 27s34 41.333 34 70z
M363.997 1471h975c72 0 133.333 -25 184 -75s76 -110.333 76 -181v-985c0 -71.333 -25.333 -132 -76 -182s-112 -75 -184 -75h-975c-72 0 -133.5 25.167 -184.5 75.5s-76.5 110.833 -76.5 181.5v985c0 70.667 25.5 131 76.5 181s112.5 75 184.5 75zM1419 1178
c0 35.333 -13 65.5 -39 90.5s-57.333 37.5 -94 37.5h-870c-36.667 0 -68 -12.5 -94 -37.5s-39 -55.167 -39 -90.5v-911c0 -34.667 13.167 -64.667 39.5 -90s57.5 -38 93.5 -38h870c36.667 0 68 12.5 94 37.5s39 55.167 39 90.5v911z" />
    <glyph glyph-name="uni1F137" unicode="H&#x20de;" 
d="M1161 383h-187v268h-245v-268h-187v692h187v-265h245v265h187v-692zM364 1471h975c72 0 133.333 -25 184 -75s76 -110.333 76 -181v-985c0 -71.333 -25.333 -132 -76 -182s-112 -75 -184 -75h-975c-72 0 -133.5 25.167 -184.5 75.5s-76.5 110.833 -76.5 181.5v985
c0 70.667 25.5 131 76.5 181s112.5 75 184.5 75zM1419 1178c0 35.333 -13 65.5 -39 90.5s-57.333 37.5 -94 37.5h-870c-36.667 0 -68 -12.5 -94 -37.5s-39 -55.167 -39 -90.5v-911c0 -34.667 13.167 -64.667 39.5 -90s57.5 -38 93.5 -38h870c36.667 0 68 12.5 94 37.5
s39 55.167 39 90.5v911z" />
    <glyph glyph-name="uni1F138" unicode="I&#x20de;" 
d="M958 383h-214v692h214v-692zM364 1471h975c72 0 133.333 -25 184 -75s76 -110.333 76 -181v-985c0 -71.333 -25.333 -132 -76 -182s-112 -75 -184 -75h-975c-72 0 -133.5 25.167 -184.5 75.5s-76.5 110.833 -76.5 181.5v985c0 70.667 25.5 131 76.5 181
s112.5 75 184.5 75zM1419 1178c0 35.333 -13 65.5 -39 90.5s-57.333 37.5 -94 37.5h-870c-36.667 0 -68 -12.5 -94 -37.5s-39 -55.167 -39 -90.5v-911c0 -34.667 13.167 -64.667 39.5 -90s57.5 -38 93.5 -38h870c36.667 0 68 12.5 94 37.5s39 55.167 39 90.5v911z" />
    <glyph glyph-name="uni1F139" unicode="J&#x20de;" 
d="M553 617h194c0 -26 6.5 -46 19.5 -60s31.167 -21 54.5 -21c48.667 0 73 30.333 73 91v438h201v-441c0 -82 -24 -146.333 -72 -193s-114 -70 -198 -70s-150.333 23.5 -199 70.5s-73 108.833 -73 185.5zM364 1471h975c72 0 133.333 -25 184 -75s76 -110.333 76 -181v-985
c0 -71.333 -25.333 -132 -76 -182s-112 -75 -184 -75h-975c-72 0 -133.5 25.167 -184.5 75.5s-76.5 110.833 -76.5 181.5v985c0 70.667 25.5 131 76.5 181s112.5 75 184.5 75zM1419 1178c0 35.333 -13 65.5 -39 90.5s-57.333 37.5 -94 37.5h-870
c-36.667 0 -68 -12.5 -94 -37.5s-39 -55.167 -39 -90.5v-911c0 -34.667 13.167 -64.667 39.5 -90s57.5 -38 93.5 -38h870c36.667 0 68 12.5 94 37.5s39 55.167 39 90.5v911z" />
    <glyph glyph-name="uni1F13A" unicode="K&#x20de;" 
d="M1185 1075l-229 -313l235 -379h-225l-158 259l-64 -75v-184h-182v692h182v-293h6l221 293h214zM364 1471h975c72 0 133.333 -25 184 -75s76 -110.333 76 -181v-985c0 -71.333 -25.333 -132 -76 -182s-112 -75 -184 -75h-975c-72 0 -133.5 25.167 -184.5 75.5
s-76.5 110.833 -76.5 181.5v985c0 70.667 25.5 131 76.5 181s112.5 75 184.5 75zM1419 1178c0 35.333 -13 65.5 -39 90.5s-57.333 37.5 -94 37.5h-870c-36.667 0 -68 -12.5 -94 -37.5s-39 -55.167 -39 -90.5v-911c0 -34.667 13.167 -64.667 39.5 -90s57.5 -38 93.5 -38h870
c36.667 0 68 12.5 94 37.5s39 55.167 39 90.5v911z" />
    <glyph glyph-name="uni1F13B" unicode="L&#x20de;" 
d="M1138 557v-164h-488v692h204v-528h284zM364 1471h975c72 0 133.333 -25 184 -75s76 -110.333 76 -181v-985c0 -71.333 -25.333 -132 -76 -182s-112 -75 -184 -75h-975c-72 0 -133.5 25.167 -184.5 75.5s-76.5 110.833 -76.5 181.5v985c0 70.667 25.5 131 76.5 181
s112.5 75 184.5 75zM1419 1178c0 35.333 -13 65.5 -39 90.5s-57.333 37.5 -94 37.5h-870c-36.667 0 -68 -12.5 -94 -37.5s-39 -55.167 -39 -90.5v-911c0 -34.667 13.167 -64.667 39.5 -90s57.5 -38 93.5 -38h870c36.667 0 68 12.5 94 37.5s39 55.167 39 90.5v911z" />
    <glyph glyph-name="uni1F13C" unicode="M&#x20de;" 
d="M649 383h-151v692h190l162 -456h5l162 456h189v-692h-152v439h-7l-140 -402h-112l-139 402h-7v-439zM364 1471h975c72 0 133.333 -25 184 -75s76 -110.333 76 -181v-985c0 -71.333 -25.333 -132 -76 -182s-112 -75 -184 -75h-975c-72 0 -133.5 25.167 -184.5 75.5
s-76.5 110.833 -76.5 181.5v985c0 70.667 25.5 131 76.5 181s112.5 75 184.5 75zM1419 1178c0 35.333 -13 65.5 -39 90.5s-57.333 37.5 -94 37.5h-870c-36.667 0 -68 -12.5 -94 -37.5s-39 -55.167 -39 -90.5v-911c0 -34.667 13.167 -64.667 39.5 -90s57.5 -38 93.5 -38h870
c36.667 0 68 12.5 94 37.5s39 55.167 39 90.5v911z" />
    <glyph glyph-name="uni1F13D" unicode="N&#x20de;" 
d="M723 383h-174v692h144l280 -391h6v391h174v-692h-142l-281 396h-7v-396zM364 1471h975c72 0 133.333 -25 184 -75s76 -110.333 76 -181v-985c0 -71.333 -25.333 -132 -76 -182s-112 -75 -184 -75h-975c-72 0 -133.5 25.167 -184.5 75.5s-76.5 110.833 -76.5 181.5v985
c0 70.667 25.5 131 76.5 181s112.5 75 184.5 75zM1419 1178c0 35.333 -13 65.5 -39 90.5s-57.333 37.5 -94 37.5h-870c-36.667 0 -68 -12.5 -94 -37.5s-39 -55.167 -39 -90.5v-911c0 -34.667 13.167 -64.667 39.5 -90s57.5 -38 93.5 -38h870c36.667 0 68 12.5 94 37.5
s39 55.167 39 90.5v911z" />
    <glyph glyph-name="uni1F13E" unicode="O&#x20de;" 
d="M851 530c40.667 0 74.3301 17.167 100.997 51.5s40 83.166 40 146.499c0 64 -13.167 113.167 -39.5 147.5s-60.166 51.5 -101.499 51.5s-75.166 -17.167 -101.499 -51.5s-39.5 -83.5 -39.5 -147.5c0 -63.333 13.333 -112.166 40 -146.499s60.334 -51.5 101.001 -51.5z
M850.996 371c-98 0 -179 31.833 -243 95.5s-96 150.834 -96 261.501c0 111.333 32 198.833 96 262.5s145 95.5 243 95.5s179 -31.833 243 -95.5s96 -151.167 96 -262.5c0 -110.667 -32 -197.834 -96 -261.501s-145 -95.5 -243 -95.5zM363.996 1471h975
c72 0 133.333 -25 184 -75s76 -110.333 76 -181v-985c0 -71.333 -25.333 -132 -76 -182s-112 -75 -184 -75h-975c-72 0 -133.5 25.167 -184.5 75.5s-76.5 110.833 -76.5 181.5v985c0 70.667 25.5 131 76.5 181s112.5 75 184.5 75zM1419 1178c0 35.333 -13 65.5 -39 90.5
s-57.333 37.5 -94 37.5h-870c-36.667 0 -68 -12.5 -94 -37.5s-39 -55.167 -39 -90.5v-911c0 -34.667 13.167 -64.667 39.5 -90s57.5 -38 93.5 -38h870c36.667 0 68 12.5 94 37.5s39 55.167 39 90.5v911z" />
    <glyph glyph-name="uni1F13F" unicode="P&#x20de;" 
d="M923 1075c78.667 0 141.333 -23.167 188 -69.5s70 -106.833 70 -181.5c0 -74 -23.333 -133.5 -70 -178.5s-110 -67.5 -190 -67.5h-111v-195h-202v692h315zM985.999 824c0 68 -32.667 102 -98 102h-89v-203h89c65.333 0 98 33.667 98 101zM363.999 1471h975
c72 0 133.333 -25 184 -75s76 -110.333 76 -181v-985c0 -71.333 -25.333 -132 -76 -182s-112 -75 -184 -75h-975c-72 0 -133.5 25.167 -184.5 75.5s-76.5 110.833 -76.5 181.5v985c0 70.667 25.5 131 76.5 181s112.5 75 184.5 75zM1419 1178c0 35.333 -13 65.5 -39 90.5
s-57.333 37.5 -94 37.5h-870c-36.667 0 -68 -12.5 -94 -37.5s-39 -55.167 -39 -90.5v-911c0 -34.667 13.167 -64.667 39.5 -90s57.5 -38 93.5 -38h870c36.667 0 68 12.5 94 37.5s39 55.167 39 90.5v911z" />
    <glyph glyph-name="uni1F140" unicode="Q&#x20de;" 
d="M1170 322l-190 -0.000976562l-35 62c-28 -8.66699 -59.333 -13 -94 -13c-98 0 -179 31.833 -243 95.5s-96 150.834 -96 261.501c0 111.333 32 198.833 96 262.5s145 95.5 243 95.5s179 -31.833 243 -95.5s96 -151.167 96 -262.5c0 -118.667 -37 -210.667 -111 -276z
M851 529.999c12 0 22.3301 1.33203 30.9971 3.99902l-54 98h110l22 -30c21.333 32 32 74 32 126c0 64 -13.167 113.167 -39.5 147.5s-60.166 51.5 -101.499 51.5s-75.166 -17.167 -101.499 -51.5s-39.5 -83.5 -39.5 -147.5c0 -63.333 13.333 -112.166 40 -146.499
s60.334 -51.5 101.001 -51.5zM363.997 1471h975c72 0 133.333 -25 184 -75s76 -110.333 76 -181v-985c0 -71.333 -25.333 -132 -76 -182s-112 -75 -184 -75h-975c-72 0 -133.5 25.167 -184.5 75.5s-76.5 110.833 -76.5 181.5v985c0 70.667 25.5 131 76.5 181
s112.5 75 184.5 75zM1419 1178c0 35.333 -13 65.5 -39 90.5s-57.333 37.5 -94 37.5h-870c-36.667 0 -68 -12.5 -94 -37.5s-39 -55.167 -39 -90.5v-911c0 -34.667 13.167 -64.667 39.5 -90s57.5 -38 93.5 -38h870c36.667 0 68 12.5 94 37.5s39 55.167 39 90.5v911z" />
    <glyph glyph-name="uni1F141" unicode="R&#x20de;" 
d="M887 1075c87.333 0 155.001 -19.833 203.001 -59.5s72 -94.5 72 -164.5c0 -48 -12.333 -88.833 -37 -122.5s-57.334 -57.167 -98.001 -70.5l149 -275h-208l-117 240h-93v-240h-183v692h312zM758.001 753l105 0.000976562c31.333 0 55.833 7.5 73.5 22.5
s26.5 36.5 26.5 64.5c0 29.333 -8.66699 51.666 -26 66.999s-41.333 23 -72 23h-107v-177zM364.001 1471h975c72 0 133.333 -25 184 -75s76 -110.333 76 -181v-985c0 -71.333 -25.333 -132 -76 -182s-112 -75 -184 -75h-975c-72 0 -133.5 25.167 -184.5 75.5
s-76.5 110.833 -76.5 181.5v985c0 70.667 25.5 131 76.5 181s112.5 75 184.5 75zM1419 1178c0 35.333 -13 65.5 -39 90.5s-57.333 37.5 -94 37.5h-870c-36.667 0 -68 -12.5 -94 -37.5s-39 -55.167 -39 -90.5v-911c0 -34.667 13.167 -64.667 39.5 -90s57.5 -38 93.5 -38h870
c36.667 0 68 12.5 94 37.5s39 55.167 39 90.5v911z" />
    <glyph glyph-name="uni1F142" unicode="S&#x20de;" 
d="M552 585h190.002c3.33301 -22 15.166 -39.5 35.499 -52.5s46.5 -19.5 78.5 -19.5c32.667 0 58.667 6.33301 78 19s29 29.667 29 51c0 17.333 -7.83301 31 -23.5 41s-44.167 19 -85.5 27l-90 17c-64.667 11.333 -114 33.833 -148 67.5s-51 76.834 -51 129.501
c0 66.667 26.167 120.167 78.5 160.5s121.833 60.5 208.5 60.5c81.333 0 148 -19 200 -57s80.333 -88.333 85 -151h-184c-3.33301 21.333 -13.833 38.166 -31.5 50.499s-40.834 18.5 -69.501 18.5s-51.667 -6.16699 -69 -18.5s-26 -28.5 -26 -48.5c0 -32 33 -53.333 99 -64
l97 -18c132 -22.667 198 -88.667 198 -198c0 -70 -27.333 -125.667 -82 -167s-128 -62 -220 -62c-89.333 0 -160.333 19 -213 57s-80.667 90.333 -84 157zM364.002 1471h975c72 0 133.333 -25 184 -75s76 -110.333 76 -181v-985c0 -71.333 -25.333 -132 -76 -182
s-112 -75 -184 -75h-975c-72 0 -133.5 25.167 -184.5 75.5s-76.5 110.833 -76.5 181.5v985c0 70.667 25.5 131 76.5 181s112.5 75 184.5 75zM1419 1178c0 35.333 -13 65.5 -39 90.5s-57.333 37.5 -94 37.5h-870c-36.667 0 -68 -12.5 -94 -37.5s-39 -55.167 -39 -90.5v-911
c0 -34.667 13.167 -64.667 39.5 -90s57.5 -38 93.5 -38h870c36.667 0 68 12.5 94 37.5s39 55.167 39 90.5v911z" />
    <glyph glyph-name="uni1F143" unicode="T&#x20de;" 
d="M953 370h-204v532h-195v161h594v-161h-195v-532zM364 1471h975c72 0 133.333 -25 184 -75s76 -110.333 76 -181v-985c0 -71.333 -25.333 -132 -76 -182s-112 -75 -184 -75h-975c-72 0 -133.5 25.167 -184.5 75.5s-76.5 110.833 -76.5 181.5v985
c0 70.667 25.5 131 76.5 181s112.5 75 184.5 75zM1419 1178c0 35.333 -13 65.5 -39 90.5s-57.333 37.5 -94 37.5h-870c-36.667 0 -68 -12.5 -94 -37.5s-39 -55.167 -39 -90.5v-911c0 -34.667 13.167 -64.667 39.5 -90s57.5 -38 93.5 -38h870c36.667 0 68 12.5 94 37.5
s39 55.167 39 90.5v911z" />
    <glyph glyph-name="uni1F144" unicode="U&#x20de;" 
d="M851 518c34 0 61 9.66699 81 29s30 46 30 80v436h196v-454c0 -73.333 -28.167 -133.5 -84.5 -180.5s-130.5 -70.5 -222.5 -70.5c-91.333 0 -165.166 23.5 -221.499 70.5s-84.5 107.167 -84.5 180.5v454h195v-436c0 -34 10.167 -60.667 30.5 -80s47.166 -29 80.499 -29z
M364 1471h975c72 0 133.333 -25 184 -75s76 -110.333 76 -181v-985c0 -71.333 -25.333 -132 -76 -182s-112 -75 -184 -75h-975c-72 0 -133.5 25.167 -184.5 75.5s-76.5 110.833 -76.5 181.5v985c0 70.667 25.5 131 76.5 181s112.5 75 184.5 75zM1419 1178
c0 35.333 -13 65.5 -39 90.5s-57.333 37.5 -94 37.5h-870c-36.667 0 -68 -12.5 -94 -37.5s-39 -55.167 -39 -90.5v-911c0 -34.667 13.167 -64.667 39.5 -90s57.5 -38 93.5 -38h870c36.667 0 68 12.5 94 37.5s39 55.167 39 90.5v911z" />
    <glyph glyph-name="uni1F145" unicode="V&#x20de;" 
d="M718 365l-213 693h220l123 -515h7l123 515h219l-213 -693h-266zM364 1471h975c72 0 133.333 -25 184 -75s76 -110.333 76 -181v-985c0 -71.333 -25.333 -132 -76 -182s-112 -75 -184 -75h-975c-72 0 -133.5 25.167 -184.5 75.5s-76.5 110.833 -76.5 181.5v985
c0 70.667 25.5 131 76.5 181s112.5 75 184.5 75zM1419 1178c0 35.333 -13 65.5 -39 90.5s-57.333 37.5 -94 37.5h-870c-36.667 0 -68 -12.5 -94 -37.5s-39 -55.167 -39 -90.5v-911c0 -34.667 13.167 -64.667 39.5 -90s57.5 -38 93.5 -38h870c36.667 0 68 12.5 94 37.5
s39 55.167 39 90.5v911z" />
    <glyph glyph-name="uni1F146" unicode="W&#x20de;" 
d="M848 804l-104 -434h-169l-162 693h179l81 -467h7l101 467h141l101 -467h7l81 467h178l-161 -693h-169l-105 434h-6zM364 1471h975c72 0 133.333 -25 184 -75s76 -110.333 76 -181v-985c0 -71.333 -25.333 -132 -76 -182s-112 -75 -184 -75h-975
c-72 0 -133.5 25.167 -184.5 75.5s-76.5 110.833 -76.5 181.5v985c0 70.667 25.5 131 76.5 181s112.5 75 184.5 75zM1419 1178c0 35.333 -13 65.5 -39 90.5s-57.333 37.5 -94 37.5h-870c-36.667 0 -68 -12.5 -94 -37.5s-39 -55.167 -39 -90.5v-911
c0 -34.667 13.167 -64.667 39.5 -90s57.5 -38 93.5 -38h870c36.667 0 68 12.5 94 37.5s39 55.167 39 90.5v911z" />
    <glyph glyph-name="uni1F147" unicode="X&#x20de;" 
d="M1185 1075l-216 -347l215 -345h-212l-121 228h-7l-121 -228h-216l219 347l-218 345h222l119 -229h7l119 229h210zM364 1471h975c72 0 133.333 -25 184 -75s76 -110.333 76 -181v-985c0 -71.333 -25.333 -132 -76 -182s-112 -75 -184 -75h-975
c-72 0 -133.5 25.167 -184.5 75.5s-76.5 110.833 -76.5 181.5v985c0 70.667 25.5 131 76.5 181s112.5 75 184.5 75zM1419 1178c0 35.333 -13 65.5 -39 90.5s-57.333 37.5 -94 37.5h-870c-36.667 0 -68 -12.5 -94 -37.5s-39 -55.167 -39 -90.5v-911
c0 -34.667 13.167 -64.667 39.5 -90s57.5 -38 93.5 -38h870c36.667 0 68 12.5 94 37.5s39 55.167 39 90.5v911z" />
    <glyph glyph-name="uni1F148" unicode="Y&#x20de;" 
d="M956 370h-209v229l-238 464h220l120 -276h6l120 276h218l-237 -463v-230zM364 1471h975c72 0 133.333 -25 184 -75s76 -110.333 76 -181v-985c0 -71.333 -25.333 -132 -76 -182s-112 -75 -184 -75h-975c-72 0 -133.5 25.167 -184.5 75.5s-76.5 110.833 -76.5 181.5v985
c0 70.667 25.5 131 76.5 181s112.5 75 184.5 75zM1419 1178c0 35.333 -13 65.5 -39 90.5s-57.333 37.5 -94 37.5h-870c-36.667 0 -68 -12.5 -94 -37.5s-39 -55.167 -39 -90.5v-911c0 -34.667 13.167 -64.667 39.5 -90s57.5 -38 93.5 -38h870c36.667 0 68 12.5 94 37.5
s39 55.167 39 90.5v911z" />
    <glyph glyph-name="uni1F149" unicode="Z&#x20de;" 
d="M578 383v125l300 403v8h-299v156h540v-126l-300 -402v-8h311v-156h-552zM364 1471h975c72 0 133.333 -25 184 -75s76 -110.333 76 -181v-985c0 -71.333 -25.333 -132 -76 -182s-112 -75 -184 -75h-975c-72 0 -133.5 25.167 -184.5 75.5s-76.5 110.833 -76.5 181.5v985
c0 70.667 25.5 131 76.5 181s112.5 75 184.5 75zM1419 1178c0 35.333 -13 65.5 -39 90.5s-57.333 37.5 -94 37.5h-870c-36.667 0 -68 -12.5 -94 -37.5s-39 -55.167 -39 -90.5v-911c0 -34.667 13.167 -64.667 39.5 -90s57.5 -38 93.5 -38h870c36.667 0 68 12.5 94 37.5
s39 55.167 39 90.5v911z" />
    <glyph glyph-name="uni1F150" unicode="A&#x20dd;&#x25cf;" 
d="M936 671h-169l81 291h6zM694 377l43 150h229l43 -150h220l-245 754h-265l-245 -754h220zM851 -53c-104.667 0 -204.668 20.499 -300.001 61.499s-177.666 96.167 -246.999 165.5s-124.5 151.833 -165.5 247.5s-61.5 195.834 -61.5 300.501
c0 139.333 34.667 268.5 104 387.5s163.5 213.167 282.5 282.5s248.167 104 387.5 104c104.667 0 204.834 -20.5 300.501 -61.5s178.167 -96.167 247.5 -165.5s124.5 -151.666 165.5 -246.999s61.5 -195.333 61.5 -300s-20.5 -204.834 -61.5 -300.501
s-96.167 -178.167 -165.5 -247.5s-151.833 -124.5 -247.5 -165.5s-195.834 -61.5 -300.501 -61.5z" />
    <glyph glyph-name="uni1F151" unicode="B&#x20dd;&#x25cf;" 
d="M552 352l380.001 0.000976562c78 0 141.5 19.5 190.5 58.5s73.5 89.833 73.5 152.5c0 51.333 -15.167 93.5 -45.5 126.5s-72.833 53.5 -127.5 61.5v3c43.333 9.33301 77.166 28.666 101.499 57.999s36.5 65 36.5 107c0 58 -21 103.667 -63 137s-99.667 50 -173 50h-373
v-754zM756.001 964.001h106.001c29.333 0 52.666 -7 69.999 -21s26 -33.333 26 -58c0 -55.333 -39 -83 -117 -83h-85v162zM755.002 680.001h113c36 0 63.833 -8 83.5 -24s29.5 -38.333 29.5 -67c0 -59.333 -44 -89 -132 -89h-94v180zM851.002 -52.999
c-104.667 0 -204.668 20.499 -300.001 61.499s-177.666 96.167 -246.999 165.5s-124.5 151.833 -165.5 247.5s-61.5 195.834 -61.5 300.501c0 139.333 34.667 268.5 104 387.5s163.5 213.167 282.5 282.5s248.167 104 387.5 104c104.667 0 204.834 -20.5 300.501 -61.5
s178.167 -96.167 247.5 -165.5s124.5 -151.666 165.5 -246.999s61.5 -195.333 61.5 -300s-20.5 -204.834 -61.5 -300.501s-96.167 -178.167 -165.5 -247.5s-151.833 -124.5 -247.5 -165.5s-195.834 -61.5 -300.501 -61.5z" />
    <glyph glyph-name="uni1F152" unicode="C&#x20dd;&#x25cf;" 
d="M988 623c-3.33301 -29.333 -17.6689 -54.001 -43.002 -74.001s-55.333 -30 -90 -30c-45.333 0 -81.666 18.5 -108.999 55.5s-41 87.833 -41 152.5s13.667 115.5 41 152.5s63.666 55.5 108.999 55.5c35.333 0 65.833 -10.5 91.5 -31.5s40.167 -46.833 43.5 -77.5h206
c-5.33301 86 -39.5 155.833 -102.5 209.5s-143.5 80.5 -241.5 80.5c-107.333 0 -195.333 -35.167 -264 -105.5s-103 -164.833 -103 -283.5s34.333 -213.167 103 -283.5s156.667 -105.5 264 -105.5c96.667 0 176.334 26.333 239.001 79s97.334 121.334 104.001 206.001h-207z
M850.997 -53.001c-104.667 0 -204.668 20.499 -300.001 61.499s-177.666 96.167 -246.999 165.5s-124.5 151.833 -165.5 247.5s-61.5 195.834 -61.5 300.501c0 139.333 34.667 268.5 104 387.5s163.5 213.167 282.5 282.5s248.167 104 387.5 104
c104.667 0 204.834 -20.5 300.501 -61.5s178.167 -96.167 247.5 -165.5s124.5 -151.666 165.5 -246.999s61.5 -195.333 61.5 -300s-20.5 -204.834 -61.5 -300.501s-96.167 -178.167 -165.5 -247.5s-151.833 -124.5 -247.5 -165.5s-195.834 -61.5 -300.501 -61.5z" />
    <glyph glyph-name="uni1F153" unicode="D&#x20dd;&#x25cf;" 
d="M549 1106v-754h325c115.333 0 203 32 263 96s90 157.667 90 281s-30 217 -90 281s-147.667 96 -263 96h-325zM759 944l79 -0.000976562c58.667 0 101.5 -17.167 128.5 -51.5s40.5 -89.166 40.5 -164.499c0 -74.667 -13.333 -129 -40 -163s-69.667 -51 -129 -51h-79v430z
M851 -53.001c-104.667 0 -204.668 20.499 -300.001 61.499s-177.666 96.167 -246.999 165.5s-124.5 151.833 -165.5 247.5s-61.5 195.834 -61.5 300.501c0 139.333 34.667 268.5 104 387.5s163.5 213.167 282.5 282.5s248.167 104 387.5 104
c104.667 0 204.834 -20.5 300.501 -61.5s178.167 -96.167 247.5 -165.5s124.5 -151.666 165.5 -246.999s61.5 -195.333 61.5 -300s-20.5 -204.834 -61.5 -300.501s-96.167 -178.167 -165.5 -247.5s-151.833 -124.5 -247.5 -165.5s-195.834 -61.5 -300.501 -61.5z" />
    <glyph glyph-name="uni1F154" unicode="E&#x20dd;&#x25cf;" 
d="M1130 510h-336v149h314v144h-314v144h336v159h-544v-754h544v158zM851 -53c-104.667 0 -204.668 20.499 -300.001 61.499s-177.666 96.167 -246.999 165.5s-124.5 151.833 -165.5 247.5s-61.5 195.834 -61.5 300.501c0 139.333 34.667 268.5 104 387.5
s163.5 213.167 282.5 282.5s248.167 104 387.5 104c104.667 0 204.834 -20.5 300.501 -61.5s178.167 -96.167 247.5 -165.5s124.5 -151.666 165.5 -246.999s61.5 -195.333 61.5 -300s-20.5 -204.834 -61.5 -300.501s-96.167 -178.167 -165.5 -247.5
s-151.833 -124.5 -247.5 -165.5s-195.834 -61.5 -300.501 -61.5z" />
    <glyph glyph-name="uni1F155" unicode="F&#x20dd;&#x25cf;" 
d="M824 352v270h290v167h-290v151h320v166h-540v-754h220zM851 -53c-104.667 0 -204.668 20.499 -300.001 61.499s-177.666 96.167 -246.999 165.5s-124.5 151.833 -165.5 247.5s-61.5 195.834 -61.5 300.501c0 139.333 34.667 268.5 104 387.5s163.5 213.167 282.5 282.5
s248.167 104 387.5 104c104.667 0 204.834 -20.5 300.501 -61.5s178.167 -96.167 247.5 -165.5s124.5 -151.666 165.5 -246.999s61.5 -195.333 61.5 -300s-20.5 -204.834 -61.5 -300.501s-96.167 -178.167 -165.5 -247.5s-151.833 -124.5 -247.5 -165.5
s-195.834 -61.5 -300.501 -61.5z" />
    <glyph glyph-name="uni1F156" unicode="G&#x20dd;&#x25cf;" 
d="M990 615c0 -30.667 -11.833 -56.333 -35.5 -77s-56.5 -31 -98.5 -31c-45.333 0 -81.833 20 -109.5 60s-41.5 93.333 -41.5 160c0 66 13.667 118.333 41 157s64 58 110 58c36.667 0 66.334 -8 89.001 -24s35.667 -36.667 39 -62h212
c-10.667 77.333 -47.334 139.833 -110.001 187.5s-140 71.5 -232 71.5c-110 0 -199 -35.667 -267 -107s-102 -165 -102 -281c0 -116.667 33.833 -210.5 101.5 -281.5s156.5 -106.5 266.5 -106.5c102 0 184.333 29 247 87s94 130.333 94 217v132h-335v-144h131v-16z
M851 -52.999c-104.667 0 -204.668 20.499 -300.001 61.499s-177.666 96.167 -246.999 165.5s-124.5 151.833 -165.5 247.5s-61.5 195.834 -61.5 300.501c0 139.333 34.667 268.5 104 387.5s163.5 213.167 282.5 282.5s248.167 104 387.5 104
c104.667 0 204.834 -20.5 300.501 -61.5s178.167 -96.167 247.5 -165.5s124.5 -151.666 165.5 -246.999s61.5 -195.333 61.5 -300s-20.5 -204.834 -61.5 -300.501s-96.167 -178.167 -165.5 -247.5s-151.833 -124.5 -247.5 -165.5s-195.834 -61.5 -300.501 -61.5z" />
    <glyph glyph-name="uni1F157" unicode="H&#x20dd;&#x25cf;" 
d="M1188 352v754h-208v-286h-257v286h-208v-754h208v289h257v-289h208zM851 -53c-104.667 0 -204.668 20.499 -300.001 61.499s-177.666 96.167 -246.999 165.5s-124.5 151.833 -165.5 247.5s-61.5 195.834 -61.5 300.501c0 139.333 34.667 268.5 104 387.5
s163.5 213.167 282.5 282.5s248.167 104 387.5 104c104.667 0 204.834 -20.5 300.501 -61.5s178.167 -96.167 247.5 -165.5s124.5 -151.666 165.5 -246.999s61.5 -195.333 61.5 -300s-20.5 -204.834 -61.5 -300.501s-96.167 -178.167 -165.5 -247.5
s-151.833 -124.5 -247.5 -165.5s-195.834 -61.5 -300.501 -61.5z" />
    <glyph glyph-name="uni1F158" unicode="I&#x20dd;&#x25cf;" 
d="M970 352v754h-237v-754h237zM851 -53c-104.667 0 -204.668 20.499 -300.001 61.499s-177.666 96.167 -246.999 165.5s-124.5 151.833 -165.5 247.5s-61.5 195.834 -61.5 300.501c0 139.333 34.667 268.5 104 387.5s163.5 213.167 282.5 282.5s248.167 104 387.5 104
c104.667 0 204.834 -20.5 300.501 -61.5s178.167 -96.167 247.5 -165.5s124.5 -151.666 165.5 -246.999s61.5 -195.333 61.5 -300s-20.5 -204.834 -61.5 -300.501s-96.167 -178.167 -165.5 -247.5s-151.833 -124.5 -247.5 -165.5s-195.834 -61.5 -300.501 -61.5z" />
    <glyph glyph-name="uni1F159" unicode="J&#x20dd;&#x25cf;" 
d="M524 613c0 -86.667 27 -155.5 81 -206.5s126.333 -76.5 217 -76.5c92 0 164.167 25.5 216.5 76.5s78.5 121.167 78.5 210.5v479h-224v-476c0 -62.667 -25.333 -94 -76 -94c-50 0 -75 29 -75 87h-218zM851 -53c-104.667 0 -204.668 20.499 -300.001 61.499
s-177.666 96.167 -246.999 165.5s-124.5 151.833 -165.5 247.5s-61.5 195.834 -61.5 300.501c0 139.333 34.667 268.5 104 387.5s163.5 213.167 282.5 282.5s248.167 104 387.5 104c104.667 0 204.834 -20.5 300.501 -61.5s178.167 -96.167 247.5 -165.5
s124.5 -151.666 165.5 -246.999s61.5 -195.333 61.5 -300s-20.5 -204.834 -61.5 -300.501s-96.167 -178.167 -165.5 -247.5s-151.833 -124.5 -247.5 -165.5s-195.834 -61.5 -300.501 -61.5z" />
    <glyph glyph-name="uni1F15A" unicode="K&#x20dd;&#x25cf;" 
d="M1213 1106h-239l-236 -307h-4v307h-203v-754h203v202l64 75l170 -277h251l-257 412zM851 -53c-104.667 0 -204.668 20.499 -300.001 61.499s-177.666 96.167 -246.999 165.5s-124.5 151.833 -165.5 247.5s-61.5 195.834 -61.5 300.501c0 139.333 34.667 268.5 104 387.5
s163.5 213.167 282.5 282.5s248.167 104 387.5 104c104.667 0 204.834 -20.5 300.501 -61.5s178.167 -96.167 247.5 -165.5s124.5 -151.666 165.5 -246.999s61.5 -195.333 61.5 -300s-20.5 -204.834 -61.5 -300.501s-96.167 -178.167 -165.5 -247.5
s-151.833 -124.5 -247.5 -165.5s-195.834 -61.5 -300.501 -61.5z" />
    <glyph glyph-name="uni1F15B" unicode="L&#x20dd;&#x25cf;" 
d="M1152 546h-307v570h-226v-754h533v184zM851 -53c-104.667 0 -204.668 20.499 -300.001 61.499s-177.666 96.167 -246.999 165.5s-124.5 151.833 -165.5 247.5s-61.5 195.834 -61.5 300.501c0 139.333 34.667 268.5 104 387.5s163.5 213.167 282.5 282.5
s248.167 104 387.5 104c104.667 0 204.834 -20.5 300.501 -61.5s178.167 -96.167 247.5 -165.5s124.5 -151.666 165.5 -246.999s61.5 -195.333 61.5 -300s-20.5 -204.834 -61.5 -300.501s-96.167 -178.167 -165.5 -247.5s-151.833 -124.5 -247.5 -165.5
s-195.834 -61.5 -300.501 -61.5z" />
    <glyph glyph-name="uni1F15C" unicode="M&#x20dd;&#x25cf;" 
d="M634 352v477h6l151 -434h119l153 432h6v-475h169v754h-208l-177 -496h-3l-176 496h-209v-754h169zM851 -53c-104.667 0 -204.668 20.499 -300.001 61.499s-177.666 96.167 -246.999 165.5s-124.5 151.833 -165.5 247.5s-61.5 195.834 -61.5 300.501
c0 139.333 34.667 268.5 104 387.5s163.5 213.167 282.5 282.5s248.167 104 387.5 104c104.667 0 204.834 -20.5 300.501 -61.5s178.167 -96.167 247.5 -165.5s124.5 -151.666 165.5 -246.999s61.5 -195.333 61.5 -300s-20.5 -204.834 -61.5 -300.501
s-96.167 -178.167 -165.5 -247.5s-151.833 -124.5 -247.5 -165.5s-195.834 -61.5 -300.501 -61.5z" />
    <glyph glyph-name="uni1F15D" unicode="N&#x20dd;&#x25cf;" 
d="M716 352v426h4l299 -426h162v754h-194v-423h-4l-299 423h-162v-754h194zM851 -53c-104.667 0 -204.668 20.499 -300.001 61.499s-177.666 96.167 -246.999 165.5s-124.5 151.833 -165.5 247.5s-61.5 195.834 -61.5 300.501c0 139.333 34.667 268.5 104 387.5
s163.5 213.167 282.5 282.5s248.167 104 387.5 104c104.667 0 204.834 -20.5 300.501 -61.5s178.167 -96.167 247.5 -165.5s124.5 -151.666 165.5 -246.999s61.5 -195.333 61.5 -300s-20.5 -204.834 -61.5 -300.501s-96.167 -178.167 -165.5 -247.5
s-151.833 -124.5 -247.5 -165.5s-195.834 -61.5 -300.501 -61.5z" />
    <glyph glyph-name="uni1F15E" unicode="O&#x20dd;&#x25cf;" 
d="M851 516c-43.333 0 -79.166 18.333 -107.499 55s-42.5 88.667 -42.5 156s14.167 119.333 42.5 156s64.166 55 107.499 55s79.166 -18.167 107.499 -54.5s42.5 -88.5 42.5 -156.5s-14.167 -120.167 -42.5 -156.5s-64.166 -54.5 -107.499 -54.5zM851 338
c107.333 0 195.666 34.667 264.999 104s104 164.333 104 285s-34.667 215.667 -104 285s-157.666 104 -264.999 104c-106.667 0 -194.667 -34.667 -264 -104s-104 -164.333 -104 -285s34.667 -215.667 104 -285s157.333 -104 264 -104zM851 -53
c-104.667 0 -204.668 20.499 -300.001 61.499s-177.666 96.167 -246.999 165.5s-124.5 151.833 -165.5 247.5s-61.5 195.834 -61.5 300.501c0 139.333 34.667 268.5 104 387.5s163.5 213.167 282.5 282.5s248.167 104 387.5 104c104.667 0 204.834 -20.5 300.501 -61.5
s178.167 -96.167 247.5 -165.5s124.5 -151.666 165.5 -246.999s61.5 -195.333 61.5 -300s-20.5 -204.834 -61.5 -300.501s-96.167 -178.167 -165.5 -247.5s-151.833 -124.5 -247.5 -165.5s-195.834 -61.5 -300.501 -61.5z" />
    <glyph glyph-name="uni1F15F" unicode="P&#x20dd;&#x25cf;" 
d="M922 1106h-344.002v-754h225v211h116c86.667 0 155.834 24.333 207.501 73s77.5 113.667 77.5 195c0 82.667 -25.667 149.167 -77 199.5s-119.666 75.5 -204.999 75.5zM990.998 831c0 -35.333 -9.33301 -62.5 -28 -81.5s-45.334 -28.5 -80.001 -28.5h-96v222h96
c34.667 0 61.334 -9.83301 80.001 -29.5s28 -47.167 28 -82.5zM850.998 -53c-104.667 0 -204.668 20.499 -300.001 61.499s-177.666 96.167 -246.999 165.5s-124.5 151.833 -165.5 247.5s-61.5 195.834 -61.5 300.501c0 139.333 34.667 268.5 104 387.5
s163.5 213.167 282.5 282.5s248.167 104 387.5 104c104.667 0 204.834 -20.5 300.501 -61.5s178.167 -96.167 247.5 -165.5s124.5 -151.666 165.5 -246.999s61.5 -195.333 61.5 -300s-20.5 -204.834 -61.5 -300.501s-96.167 -178.167 -165.5 -247.5
s-151.833 -124.5 -247.5 -165.5s-195.834 -61.5 -300.501 -61.5z" />
    <glyph glyph-name="uni1F160" unicode="Q&#x20dd;&#x25cf;" 
d="M1202 288l-100.001 141.001c78.667 71.333 118 170.666 118 297.999c0 120.667 -34.667 215.667 -104 285s-157.666 104 -264.999 104c-106.667 0 -194.667 -34.667 -264 -104s-104 -164.333 -104 -285s34.667 -215.667 104 -285s157.333 -104 264 -104
c34.667 0 68.667 4.66699 102 14l35 -64h214zM850.999 516.001c-43.333 0 -79.165 18.332 -107.498 54.999s-42.5 88.667 -42.5 156s14.167 119.333 42.5 156s64.166 55 107.499 55s79.166 -18.167 107.499 -54.5s42.5 -88.5 42.5 -156.5
c0 -53.333 -10.667 -96.666 -32 -129.999l-23 31h-126l59 -109c-8.66699 -2 -18 -3 -28 -3zM851 -53c-104.667 0 -204.668 20.499 -300.001 61.499s-177.666 96.167 -246.999 165.5s-124.5 151.833 -165.5 247.5s-61.5 195.834 -61.5 300.501
c0 139.333 34.667 268.5 104 387.5s163.5 213.167 282.5 282.5s248.167 104 387.5 104c104.667 0 204.834 -20.5 300.501 -61.5s178.167 -96.167 247.5 -165.5s124.5 -151.666 165.5 -246.999s61.5 -195.333 61.5 -300s-20.5 -204.834 -61.5 -300.501
s-96.167 -178.167 -165.5 -247.5s-151.833 -124.5 -247.5 -165.5s-195.834 -61.5 -300.501 -61.5z" />
    <glyph glyph-name="uni1F161" unicode="R&#x20dd;&#x25cf;" 
d="M743 755v191h118c34.667 0 61.167 -8.33301 79.5 -25s27.5 -40.667 27.5 -72c0 -29.333 -9.5 -52.333 -28.5 -69s-45.833 -25 -80.5 -25h-116zM884 1106h-340.001v-754h205v259h95l125 -259h234l-162 297c45.333 16 80.5 42.5 105.5 79.5s37.5 80.833 37.5 131.5
c0 78 -26.167 138.5 -78.5 181.5s-126.166 64.5 -221.499 64.5zM850.999 -53c-104.667 0 -204.668 20.499 -300.001 61.499s-177.666 96.167 -246.999 165.5s-124.5 151.833 -165.5 247.5s-61.5 195.834 -61.5 300.501c0 139.333 34.667 268.5 104 387.5
s163.5 213.167 282.5 282.5s248.167 104 387.5 104c104.667 0 204.834 -20.5 300.501 -61.5s178.167 -96.167 247.5 -165.5s124.5 -151.666 165.5 -246.999s61.5 -195.333 61.5 -300s-20.5 -204.834 -61.5 -300.501s-96.167 -178.167 -165.5 -247.5
s-151.833 -124.5 -247.5 -165.5s-195.834 -61.5 -300.501 -61.5z" />
    <glyph glyph-name="uni1F162" unicode="S&#x20dd;&#x25cf;" 
d="M525 577c3.33301 -73.333 33.832 -131.001 91.499 -173.001s135.167 -63 232.5 -63c100 0 179.833 22.5 239.5 67.5s89.5 105.5 89.5 181.5c0 120.667 -72.333 193.334 -217 218.001l-105 19c-37.333 6 -64.166 14.333 -80.499 25s-24.5 24.667 -24.5 42
c0 21.333 9 38.333 27 51s42.667 19 74 19c30 0 54.5 -6.66699 73.5 -20s30.167 -31.666 33.5 -54.999h203c-4.66699 69.333 -35.167 125 -91.5 167s-129.166 63 -218.499 63c-94 0 -169.667 -22 -227 -66s-86 -102.333 -86 -175c0 -58 18.667 -105.5 56 -142.5
s91 -61.5 161 -73.5l98 -19c43.333 -8 73.333 -17.167 90 -27.5s25 -24.833 25 -43.5c0 -22 -10.167 -39.667 -30.5 -53s-47.833 -20 -82.5 -20c-34 0 -61.833 7.16699 -83.5 21.5s-33.834 33.166 -36.501 56.499h-211zM850.999 -53.001
c-104.667 0 -204.668 20.499 -300.001 61.499s-177.666 96.167 -246.999 165.5s-124.5 151.833 -165.5 247.5s-61.5 195.834 -61.5 300.501c0 139.333 34.667 268.5 104 387.5s163.5 213.167 282.5 282.5s248.167 104 387.5 104c104.667 0 204.834 -20.5 300.501 -61.5
s178.167 -96.167 247.5 -165.5s124.5 -151.666 165.5 -246.999s61.5 -195.333 61.5 -300s-20.5 -204.834 -61.5 -300.501s-96.167 -178.167 -165.5 -247.5s-151.833 -124.5 -247.5 -165.5s-195.834 -61.5 -300.501 -61.5z" />
    <glyph glyph-name="uni1F163" unicode="T&#x20dd;&#x25cf;" 
d="M964 330v573h211v180h-647v-180h211v-573h225zM851 -53c-104.667 0 -204.668 20.499 -300.001 61.499s-177.666 96.167 -246.999 165.5s-124.5 151.833 -165.5 247.5s-61.5 195.834 -61.5 300.501c0 139.333 34.667 268.5 104 387.5s163.5 213.167 282.5 282.5
s248.167 104 387.5 104c104.667 0 204.834 -20.5 300.501 -61.5s178.167 -96.167 247.5 -165.5s124.5 -151.666 165.5 -246.999s61.5 -195.333 61.5 -300s-20.5 -204.834 -61.5 -300.501s-96.167 -178.167 -165.5 -247.5s-151.833 -124.5 -247.5 -165.5
s-195.834 -61.5 -300.501 -61.5z" />
    <glyph glyph-name="uni1F164" unicode="U&#x20dd;&#x25cf;" 
d="M851 497c-35.333 0 -63.333 10 -84 30s-31 47.333 -31 82v475h-219v-504c0 -79.333 30.5 -143 91.5 -191s141.833 -72 242.5 -72s181.667 24.167 243 72.5s92 111.833 92 190.5v504h-219v-475c0 -34.667 -10.5 -62 -31.5 -82s-49.167 -30 -84.5 -30zM851 -53
c-104.667 0 -204.668 20.499 -300.001 61.499s-177.666 96.167 -246.999 165.5s-124.5 151.833 -165.5 247.5s-61.5 195.834 -61.5 300.501c0 139.333 34.667 268.5 104 387.5s163.5 213.167 282.5 282.5s248.167 104 387.5 104c104.667 0 204.834 -20.5 300.501 -61.5
s178.167 -96.167 247.5 -165.5s124.5 -151.666 165.5 -246.999s61.5 -195.333 61.5 -300s-20.5 -204.834 -61.5 -300.501s-96.167 -178.167 -165.5 -247.5s-151.833 -124.5 -247.5 -165.5s-195.834 -61.5 -300.501 -61.5z" />
    <glyph glyph-name="uni1F165" unicode="V&#x20dd;&#x25cf;" 
d="M995 325l232 753h-241l-132 -553h-6l-132 553h-241l233 -753h287zM851 -53c-104.667 0 -204.668 20.499 -300.001 61.499s-177.666 96.167 -246.999 165.5s-124.5 151.833 -165.5 247.5s-61.5 195.834 -61.5 300.501c0 139.333 34.667 268.5 104 387.5
s163.5 213.167 282.5 282.5s248.167 104 387.5 104c104.667 0 204.834 -20.5 300.501 -61.5s178.167 -96.167 247.5 -165.5s124.5 -151.666 165.5 -246.999s61.5 -195.333 61.5 -300s-20.5 -204.834 -61.5 -300.501s-96.167 -178.167 -165.5 -247.5
s-151.833 -124.5 -247.5 -165.5s-195.834 -61.5 -300.501 -61.5z" />
    <glyph glyph-name="uni1F166" unicode="W&#x20dd;&#x25cf;" 
d="M850 792h3l112 -462h189l177 753h-202l-85 -503h-5l-109 503h-157l-109 -503h-5l-85 503h-202l178 -753h188zM851 -53c-104.667 0 -204.668 20.499 -300.001 61.499s-177.666 96.167 -246.999 165.5s-124.5 151.833 -165.5 247.5s-61.5 195.834 -61.5 300.501
c0 139.333 34.667 268.5 104 387.5s163.5 213.167 282.5 282.5s248.167 104 387.5 104c104.667 0 204.834 -20.5 300.501 -61.5s178.167 -96.167 247.5 -165.5s124.5 -151.666 165.5 -246.999s61.5 -195.333 61.5 -300s-20.5 -204.834 -61.5 -300.501
s-96.167 -178.167 -165.5 -247.5s-151.833 -124.5 -247.5 -165.5s-195.834 -61.5 -300.501 -61.5z" />
    <glyph glyph-name="uni1F167" unicode="X&#x20dd;&#x25cf;" 
d="M1217 1106h-233l-127 -247h-6l-128 247h-246l236 -375l-237 -379h239l129 246h6l131 -246h234l-233 376zM851 -53c-104.667 0 -204.668 20.499 -300.001 61.499s-177.666 96.167 -246.999 165.5s-124.5 151.833 -165.5 247.5s-61.5 195.834 -61.5 300.501
c0 139.333 34.667 268.5 104 387.5s163.5 213.167 282.5 282.5s248.167 104 387.5 104c104.667 0 204.834 -20.5 300.501 -61.5s178.167 -96.167 247.5 -165.5s124.5 -151.666 165.5 -246.999s61.5 -195.333 61.5 -300s-20.5 -204.834 -61.5 -300.501
s-96.167 -178.167 -165.5 -247.5s-151.833 -124.5 -247.5 -165.5s-195.834 -61.5 -300.501 -61.5z" />
    <glyph glyph-name="uni1F168" unicode="Y&#x20dd;&#x25cf;" 
d="M735 337h233v250l260 504h-245l-130 -297h-4l-129 297h-245l260 -504v-250zM851 -53c-104.667 0 -204.668 20.499 -300.001 61.499s-177.666 96.167 -246.999 165.5s-124.5 151.833 -165.5 247.5s-61.5 195.834 -61.5 300.501c0 139.333 34.667 268.5 104 387.5
s163.5 213.167 282.5 282.5s248.167 104 387.5 104c104.667 0 204.834 -20.5 300.501 -61.5s178.167 -96.167 247.5 -165.5s124.5 -151.666 165.5 -246.999s61.5 -195.333 61.5 -300s-20.5 -204.834 -61.5 -300.501s-96.167 -178.167 -165.5 -247.5
s-151.833 -124.5 -247.5 -165.5s-195.834 -61.5 -300.501 -61.5z" />
    <glyph glyph-name="uni1F169" unicode="Z&#x20dd;&#x25cf;" 
d="M553 352h602v176h-328v5l317 433v140h-590v-177h316v-3l-317 -434v-140zM851 -53c-104.667 0 -204.668 20.499 -300.001 61.499s-177.666 96.167 -246.999 165.5s-124.5 151.833 -165.5 247.5s-61.5 195.834 -61.5 300.501c0 139.333 34.667 268.5 104 387.5
s163.5 213.167 282.5 282.5s248.167 104 387.5 104c104.667 0 204.834 -20.5 300.501 -61.5s178.167 -96.167 247.5 -165.5s124.5 -151.666 165.5 -246.999s61.5 -195.333 61.5 -300s-20.5 -204.834 -61.5 -300.501s-96.167 -178.167 -165.5 -247.5
s-151.833 -124.5 -247.5 -165.5s-195.834 -61.5 -300.501 -61.5z" />
    <glyph glyph-name="uni1F170" unicode="A&#x20de;&#x25a0;" 
d="M936 661h-169l81 291h6zM694 367l43 150h229l43 -150h220l-245 754h-265l-245 -754h220zM364 1471h975c72 0 133.333 -25 184 -75s76 -110.333 76 -181v-985c0 -71.333 -25.333 -132 -76 -182s-112 -75 -184 -75h-975c-72 0 -133.5 25.167 -184.5 75.5
s-76.5 110.833 -76.5 181.5v985c0 70.667 25.5 131 76.5 181s112.5 75 184.5 75z" />
    <glyph glyph-name="uni1F171" unicode="B&#x20de;&#x25a0;" 
d="M552 352h380.001c77.333 0 140.666 19.5 189.999 58.5s74 89.833 74 152.5c0 52.667 -15.333 95.167 -46 127.5s-73 52.5 -127 60.5v3c42 9.33301 75.5 28.5 100.5 57.5s37.5 64.833 37.5 107.5c0 58.667 -21 104.5 -63 137.5s-99.667 49.5 -173 49.5h-373v-754z
M756.001 964h106c30 0 53.5 -7.16699 70.5 -21.5s25.5 -33.5 25.5 -57.5c0 -55.333 -39 -83 -117 -83h-85v162zM755.001 680h113c36 0 63.833 -8 83.5 -24s29.5 -38.333 29.5 -67c0 -59.333 -44 -89 -132 -89h-94v180zM364.001 1471h975c72 0 133.333 -25 184 -75
s76 -110.333 76 -181v-985c0 -71.333 -25.333 -132 -76 -182s-112 -75 -184 -75h-975c-72 0 -133.5 25.167 -184.5 75.5s-76.5 110.833 -76.5 181.5v985c0 70.667 25.5 131 76.5 181s112.5 75 184.5 75z" />
    <glyph glyph-name="uni1F172" unicode="C&#x20de;&#x25a0;" 
d="M988 623c-3.33301 -29.333 -17.6689 -54.001 -43.002 -74.001s-55.333 -30 -90 -30c-45.333 0 -81.666 18.5 -108.999 55.5s-41 87.833 -41 152.5s13.667 115.5 41 152.5s63.666 55.5 108.999 55.5c35.333 0 65.833 -10.5 91.5 -31.5s40.167 -46.833 43.5 -77.5h206
c-5.33301 86 -39.5 155.833 -102.5 209.5s-143.5 80.5 -241.5 80.5c-107.333 0 -195.333 -35.167 -264 -105.5s-103 -164.833 -103 -283.5s34.333 -213.167 103 -283.5s156.667 -105.5 264 -105.5c96.667 0 176.334 26.333 239.001 79s97.334 121.334 104.001 206.001h-207z
M363.997 1471h975c72 0 133.333 -25 184 -75s76 -110.333 76 -181v-985c0 -71.333 -25.333 -132 -76 -182s-112 -75 -184 -75h-975c-72 0 -133.5 25.167 -184.5 75.5s-76.5 110.833 -76.5 181.5v985c0 70.667 25.5 131 76.5 181s112.5 75 184.5 75z" />
    <glyph glyph-name="uni1F173" unicode="D&#x20de;&#x25a0;" 
d="M538 1106v-754h324c116.667 0 204.834 32.167 264.501 96.5s89.5 157.833 89.5 280.5s-29.833 216.167 -89.5 280.5s-147.834 96.5 -264.501 96.5h-324zM747 944l80 0.000976562c58.667 0 101.334 -17.333 128.001 -52s40 -89.334 40 -164.001
c0 -74 -13.333 -128.167 -40 -162.5s-69.334 -51.5 -128.001 -51.5h-80v430zM364 1471h975c72 0 133.333 -25 184 -75s76 -110.333 76 -181v-985c0 -71.333 -25.333 -132 -76 -182s-112 -75 -184 -75h-975c-72 0 -133.5 25.167 -184.5 75.5s-76.5 110.833 -76.5 181.5v985
c0 70.667 25.5 131 76.5 181s112.5 75 184.5 75z" />
    <glyph glyph-name="uni1F174" unicode="E&#x20de;&#x25a0;" 
d="M1130 510h-336v149h314v144h-314v144h336v159h-544v-754h544v158zM364 1471h975c72 0 133.333 -25 184 -75s76 -110.333 76 -181v-985c0 -71.333 -25.333 -132 -76 -182s-112 -75 -184 -75h-975c-72 0 -133.5 25.167 -184.5 75.5s-76.5 110.833 -76.5 181.5v985
c0 70.667 25.5 131 76.5 181s112.5 75 184.5 75z" />
    <glyph glyph-name="uni1F175" unicode="F&#x20de;&#x25a0;" 
d="M824 352v270h290v167h-290v151h320v166h-540v-754h220zM364 1471h975c72 0 133.333 -25 184 -75s76 -110.333 76 -181v-985c0 -71.333 -25.333 -132 -76 -182s-112 -75 -184 -75h-975c-72 0 -133.5 25.167 -184.5 75.5s-76.5 110.833 -76.5 181.5v985
c0 70.667 25.5 131 76.5 181s112.5 75 184.5 75z" />
    <glyph glyph-name="uni1F176" unicode="G&#x20de;&#x25a0;" 
d="M990 615c0 -30.667 -11.833 -56.333 -35.5 -77s-56.5 -31 -98.5 -31c-45.333 0 -81.833 20 -109.5 60s-41.5 93.333 -41.5 160c0 66 13.667 118.333 41 157s64 58 110 58c36.667 0 66.334 -8 89.001 -24s35.667 -36.667 39 -62h212
c-10.667 77.333 -47.334 139.833 -110.001 187.5s-140 71.5 -232 71.5c-110 0 -199 -35.667 -267 -107s-102 -165 -102 -281c0 -116.667 33.833 -210.5 101.5 -281.5s156.5 -106.5 266.5 -106.5c102 0 184.333 29 247 87s94 130.333 94 217v132h-335v-144h131v-16zM364 1471
h975c72 0 133.333 -25 184 -75s76 -110.333 76 -181v-985c0 -71.333 -25.333 -132 -76 -182s-112 -75 -184 -75h-975c-72 0 -133.5 25.167 -184.5 75.5s-76.5 110.833 -76.5 181.5v985c0 70.667 25.5 131 76.5 181s112.5 75 184.5 75z" />
    <glyph glyph-name="uni1F177" unicode="H&#x20de;&#x25a0;" 
d="M1188 352v754h-208v-286h-257v286h-208v-754h208v289h257v-289h208zM364 1471h975c72 0 133.333 -25 184 -75s76 -110.333 76 -181v-985c0 -71.333 -25.333 -132 -76 -182s-112 -75 -184 -75h-975c-72 0 -133.5 25.167 -184.5 75.5s-76.5 110.833 -76.5 181.5v985
c0 70.667 25.5 131 76.5 181s112.5 75 184.5 75z" />
    <glyph glyph-name="uni1F178" unicode="I&#x20de;&#x25a0;" 
d="M970 352v754h-237v-754h237zM364 1471h975c72 0 133.333 -25 184 -75s76 -110.333 76 -181v-985c0 -71.333 -25.333 -132 -76 -182s-112 -75 -184 -75h-975c-72 0 -133.5 25.167 -184.5 75.5s-76.5 110.833 -76.5 181.5v985c0 70.667 25.5 131 76.5 181
s112.5 75 184.5 75z" />
    <glyph glyph-name="uni1F179" unicode="J&#x20de;&#x25a0;" 
d="M524 613c0 -85.333 26.667 -153.833 80 -205.5s126 -77.5 218 -77.5c91.333 0 163.333 25.333 216 76s79 121 79 211v479h-224v-476c0 -62.667 -25.333 -94 -76 -94c-50 0 -75 29 -75 87h-218zM364 1471h975c72 0 133.333 -25 184 -75s76 -110.333 76 -181v-985
c0 -71.333 -25.333 -132 -76 -182s-112 -75 -184 -75h-975c-72 0 -133.5 25.167 -184.5 75.5s-76.5 110.833 -76.5 181.5v985c0 70.667 25.5 131 76.5 181s112.5 75 184.5 75z" />
    <glyph glyph-name="uni1F17A" unicode="K&#x20de;&#x25a0;" 
d="M1213 1106l-239.002 -0.00195312l-236 -307h-4v307h-203v-754h203v202l64 75l170 -277h251c-15.333 22.667 -57.666 90.834 -126.999 204.501s-112.666 182.834 -129.999 207.501zM363.998 1471h975c72 0 133.333 -25 184 -75s76 -110.333 76 -181v-985
c0 -71.333 -25.333 -132 -76 -182s-112 -75 -184 -75h-975c-72 0 -133.5 25.167 -184.5 75.5s-76.5 110.833 -76.5 181.5v985c0 70.667 25.5 131 76.5 181s112.5 75 184.5 75z" />
    <glyph glyph-name="uni1F17B" unicode="L&#x20de;&#x25a0;" 
d="M1157 546h-307v570h-226v-754h533v184zM364 1471h975c72 0 133.333 -25 184 -75s76 -110.333 76 -181v-985c0 -71.333 -25.333 -132 -76 -182s-112 -75 -184 -75h-975c-72 0 -133.5 25.167 -184.5 75.5s-76.5 110.833 -76.5 181.5v985c0 70.667 25.5 131 76.5 181
s112.5 75 184.5 75z" />
    <glyph glyph-name="uni1F17C" unicode="M&#x20de;&#x25a0;" 
d="M634 352v477h6l151 -434h119l153 432h6v-475h169v754h-208l-177 -496h-3l-176 496h-209v-754h169zM364 1471h975c72 0 133.333 -25 184 -75s76 -110.333 76 -181v-985c0 -71.333 -25.333 -132 -76 -182s-112 -75 -184 -75h-975c-72 0 -133.5 25.167 -184.5 75.5
s-76.5 110.833 -76.5 181.5v985c0 70.667 25.5 131 76.5 181s112.5 75 184.5 75z" />
    <glyph glyph-name="uni1F17D" unicode="N&#x20de;&#x25a0;" 
d="M716 352v426h4l299 -426h162v754h-194v-423h-4l-299 423h-162v-754h194zM364 1471h975c72 0 133.333 -25 184 -75s76 -110.333 76 -181v-985c0 -71.333 -25.333 -132 -76 -182s-112 -75 -184 -75h-975c-72 0 -133.5 25.167 -184.5 75.5s-76.5 110.833 -76.5 181.5v985
c0 70.667 25.5 131 76.5 181s112.5 75 184.5 75z" />
    <glyph glyph-name="uni1F17E" unicode="O&#x20de;&#x25a0;" 
d="M851 516c-43.333 0 -79.166 18.333 -107.499 55s-42.5 88.667 -42.5 156s14.167 119.333 42.5 156s64.166 55 107.499 55s79.166 -18.167 107.499 -54.5s42.5 -88.5 42.5 -156.5s-14.167 -120.167 -42.5 -156.5s-64.166 -54.5 -107.499 -54.5zM851 338
c107.333 0 195.666 34.667 264.999 104s104 164.333 104 285s-34.667 215.667 -104 285s-157.666 104 -264.999 104c-106.667 0 -194.667 -34.667 -264 -104s-104 -164.333 -104 -285s34.667 -215.667 104 -285s157.333 -104 264 -104zM364 1471h975
c72 0 133.333 -25 184 -75s76 -110.333 76 -181v-985c0 -71.333 -25.333 -132 -76 -182s-112 -75 -184 -75h-975c-72 0 -133.5 25.167 -184.5 75.5s-76.5 110.833 -76.5 181.5v985c0 70.667 25.5 131 76.5 181s112.5 75 184.5 75z" />
    <glyph glyph-name="uni1F17F" unicode="P&#x20de;&#x25a0;" 
d="M922 1106h-343.999v-754h225v211h116c87.333 0 156.666 24.667 207.999 74s77 114 77 194c0 82 -25.5 148.333 -76.5 199s-119.5 76 -205.5 76zM991.001 831c0 -35.333 -9.33203 -62.5 -27.999 -81.5s-45.334 -28.5 -80.001 -28.5h-96v222h96
c34 0 60.5 -9.66699 79.5 -29s28.5 -47 28.5 -83zM364.002 1471h975c72 0 133.333 -25 184 -75s76 -110.333 76 -181v-985c0 -71.333 -25.333 -132 -76 -182s-112 -75 -184 -75h-975c-72 0 -133.5 25.167 -184.5 75.5s-76.5 110.833 -76.5 181.5v985
c0 70.667 25.5 131 76.5 181s112.5 75 184.5 75z" />
    <glyph glyph-name="uni1F180" unicode="Q&#x20de;&#x25a0;" 
d="M1202 288l-100.001 141.001c78.667 71.333 118 170.666 118 297.999c0 120.667 -34.667 215.667 -104 285s-157.666 104 -264.999 104c-106.667 0 -194.667 -34.667 -264 -104s-104 -164.333 -104 -285s34.667 -215.667 104 -285s157.333 -104 264 -104
c34.667 0 68.667 4.66699 102 14l35 -64h214zM850.999 516.001c-43.333 0 -79.165 18.332 -107.498 54.999s-42.5 88.667 -42.5 156s14.167 119.333 42.5 156s64.166 55 107.499 55s79.166 -18.167 107.499 -54.5s42.5 -88.5 42.5 -156.5
c0 -53.333 -10.667 -96.666 -32 -129.999l-23 31h-126l59 -109c-8.66699 -2 -18 -3 -28 -3zM364 1471h975c72 0 133.333 -25 184 -75s76 -110.333 76 -181v-985c0 -71.333 -25.333 -132 -76 -182s-112 -75 -184 -75h-975c-72 0 -133.5 25.167 -184.5 75.5
s-76.5 110.833 -76.5 181.5v985c0 70.667 25.5 131 76.5 181s112.5 75 184.5 75z" />
    <glyph glyph-name="uni1F181" unicode="R&#x20de;&#x25a0;" 
d="M743 755v191h118c34 0 60.333 -8.33301 79 -25s28 -40.667 28 -72c0 -30 -9.66699 -53.167 -29 -69.5s-46 -24.5 -80 -24.5h-116zM884 1106h-340.001v-754h205v259h95l125 -259h234l-162 297c44 16 78.833 42.167 104.5 78.5s38.5 80.5 38.5 132.5
c0 78 -26.167 138.5 -78.5 181.5s-126.166 64.5 -221.499 64.5zM363.999 1471h975c72 0 133.333 -25 184 -75s76 -110.333 76 -181v-985c0 -71.333 -25.333 -132 -76 -182s-112 -75 -184 -75h-975c-72 0 -133.5 25.167 -184.5 75.5s-76.5 110.833 -76.5 181.5v985
c0 70.667 25.5 131 76.5 181s112.5 75 184.5 75z" />
    <glyph glyph-name="uni1F182" unicode="S&#x20de;&#x25a0;" 
d="M525 577c3.33301 -73.333 33.832 -131.001 91.499 -173.001s135.167 -63 232.5 -63c100 0 179.833 22.5 239.5 67.5s89.5 105.5 89.5 181.5c0 120.667 -72.333 193.334 -217 218.001l-105 19c-37.333 6 -64.166 14.333 -80.499 25s-24.5 24.667 -24.5 42
c0 21.333 9 38.333 27 51s42.667 19 74 19c30 0 54.5 -6.66699 73.5 -20s30.167 -31.666 33.5 -54.999h203c-4.66699 69.333 -35.167 125 -91.5 167s-129.166 63 -218.499 63c-94 0 -169.667 -22 -227 -66s-86 -102.333 -86 -175c0 -58 18.667 -105.5 56 -142.5
s91 -61.5 161 -73.5l98 -19c43.333 -8 73.333 -17.167 90 -27.5s25 -24.833 25 -43.5c0 -22 -10.167 -39.667 -30.5 -53s-47.833 -20 -82.5 -20c-34 0 -61.833 7.16699 -83.5 21.5s-33.834 33.166 -36.501 56.499h-211zM363.999 1471h975c72 0 133.333 -25 184 -75
s76 -110.333 76 -181v-985c0 -71.333 -25.333 -132 -76 -182s-112 -75 -184 -75h-975c-72 0 -133.5 25.167 -184.5 75.5s-76.5 110.833 -76.5 181.5v985c0 70.667 25.5 131 76.5 181s112.5 75 184.5 75z" />
    <glyph glyph-name="uni1F183" unicode="T&#x20de;&#x25a0;" 
d="M964 340v573h211v180h-647v-180h211v-573h225zM364 1471h975c72 0 133.333 -25 184 -75s76 -110.333 76 -181v-985c0 -71.333 -25.333 -132 -76 -182s-112 -75 -184 -75h-975c-72 0 -133.5 25.167 -184.5 75.5s-76.5 110.833 -76.5 181.5v985c0 70.667 25.5 131 76.5 181
s112.5 75 184.5 75z" />
    <glyph glyph-name="uni1F184" unicode="U&#x20de;&#x25a0;" 
d="M851 507c-35.333 0 -63.333 10 -84 30s-31 47.333 -31 82v475h-219v-504c0 -79.333 30.5 -143 91.5 -191s141.833 -72 242.5 -72s181.667 24.167 243 72.5s92 111.833 92 190.5v504h-219v-475c0 -34.667 -10.5 -62 -31.5 -82s-49.167 -30 -84.5 -30zM364 1471h975
c72 0 133.333 -25 184 -75s76 -110.333 76 -181v-985c0 -71.333 -25.333 -132 -76 -182s-112 -75 -184 -75h-975c-72 0 -133.5 25.167 -184.5 75.5s-76.5 110.833 -76.5 181.5v985c0 70.667 25.5 131 76.5 181s112.5 75 184.5 75z" />
    <glyph glyph-name="uni1F185" unicode="V&#x20de;&#x25a0;" 
d="M995 335l232 753h-241l-132 -553h-6l-132 553h-241l233 -753h287zM364 1471h975c72 0 133.333 -25 184 -75s76 -110.333 76 -181v-985c0 -71.333 -25.333 -132 -76 -182s-112 -75 -184 -75h-975c-72 0 -133.5 25.167 -184.5 75.5s-76.5 110.833 -76.5 181.5v985
c0 70.667 25.5 131 76.5 181s112.5 75 184.5 75z" />
    <glyph glyph-name="uni1F186" unicode="W&#x20de;&#x25a0;" 
d="M850 802h3l112 -462h189l177 753h-202l-85 -503h-5l-109 503h-157l-109 -503h-5l-85 503h-202l178 -753h188zM364 1471h975c72 0 133.333 -25 184 -75s76 -110.333 76 -181v-985c0 -71.333 -25.333 -132 -76 -182s-112 -75 -184 -75h-975
c-72 0 -133.5 25.167 -184.5 75.5s-76.5 110.833 -76.5 181.5v985c0 70.667 25.5 131 76.5 181s112.5 75 184.5 75z" />
    <glyph glyph-name="uni1F187" unicode="X&#x20de;&#x25a0;" 
d="M1217 1106h-233l-127 -247h-6l-128 247h-246l236 -375l-237 -379h239l129 246h6l131 -246h234l-233 376zM364 1471h975c72 0 133.333 -25 184 -75s76 -110.333 76 -181v-985c0 -71.333 -25.333 -132 -76 -182s-112 -75 -184 -75h-975c-72 0 -133.5 25.167 -184.5 75.5
s-76.5 110.833 -76.5 181.5v985c0 70.667 25.5 131 76.5 181s112.5 75 184.5 75z" />
    <glyph glyph-name="uni1F188" unicode="Y&#x20de;&#x25a0;" 
d="M735 340h233v250l260 503h-245l-130 -297h-4l-129 297h-245l260 -503v-250zM364 1471h975c72 0 133.333 -25 184 -75s76 -110.333 76 -181v-985c0 -71.333 -25.333 -132 -76 -182s-112 -75 -184 -75h-975c-72 0 -133.5 25.167 -184.5 75.5s-76.5 110.833 -76.5 181.5v985
c0 70.667 25.5 131 76.5 181s112.5 75 184.5 75z" />
    <glyph glyph-name="uni1F189" unicode="Z&#x20de;&#x25a0;" 
d="M553 352h602v176h-328v5l317 433v140h-590v-177h316v-3l-317 -434v-140zM364 1471h975c72 0 133.333 -25 184 -75s76 -110.333 76 -181v-985c0 -71.333 -25.333 -132 -76 -182s-112 -75 -184 -75h-975c-72 0 -133.5 25.167 -184.5 75.5s-76.5 110.833 -76.5 181.5v985
c0 70.667 25.5 131 76.5 181s112.5 75 184.5 75z" />
    <glyph glyph-name="plus.uc.whitecircle" unicode="&#x2b;&#x20dd;" 
d="M938 645v-210h-173v210h-206v165h206v207h173v-207h205v-165h-205zM851 121c108.667 0 208.331 26.833 298.998 80.5s162 126.334 214 218.001s78 191.834 78 300.501s-26 209 -78 301s-123.333 164.667 -214 218s-190.334 80 -299.001 80
c-81.333 0 -158.666 -15.833 -231.999 -47.5s-136 -74.167 -188 -127.5s-93.333 -117 -124 -191s-46 -151.667 -46 -233c0 -108.667 25.833 -208.834 77.5 -300.501s122.834 -164.334 213.501 -218.001s190.334 -80.5 299.001 -80.5zM850.997 -55
c-141.333 0 -271.334 34.5 -390.001 103.5s-212.334 163 -281.001 282s-103 249.167 -103 390.5c0 106 20.333 206.833 61 302.5s95.334 178 164.001 247s150.834 123.833 246.501 164.5s196.5 61 302.5 61s206.833 -20.333 302.5 -61s178 -95.5 247 -164.5
s123.833 -151.333 164.5 -247s61 -196.5 61 -302.5s-20.333 -206.833 -61 -302.5s-95.5 -178.167 -164.5 -247.5s-151.333 -124.333 -247 -165s-196.5 -61 -302.5 -61z" />
    <glyph glyph-name="minus.uc.whitecircle" unicode="&#x2212;&#x20dd;" 
d="M1116 640h-530v171h530v-171zM851 121c108.667 0 208.331 26.833 298.998 80.5s162 126.334 214 218.001s78 191.834 78 300.501s-26 209 -78 301s-123.333 164.667 -214 218s-190.334 80 -299.001 80c-81.333 0 -158.666 -15.833 -231.999 -47.5
s-136 -74.167 -188 -127.5s-93.333 -117 -124 -191s-46 -151.667 -46 -233c0 -108.667 25.833 -208.834 77.5 -300.501s122.834 -164.334 213.501 -218.001s190.334 -80.5 299.001 -80.5zM850.997 -55c-141.333 0 -271.334 34.5 -390.001 103.5s-212.334 163 -281.001 282
s-103 249.167 -103 390.5c0 106 20.333 206.833 61 302.5s95.334 178 164.001 247s150.834 123.833 246.501 164.5s196.5 61 302.5 61s206.833 -20.333 302.5 -61s178 -95.5 247 -164.5s123.833 -151.333 164.5 -247s61 -196.5 61 -302.5s-20.333 -206.833 -61 -302.5
s-95.5 -178.167 -164.5 -247.5s-151.333 -124.333 -247 -165s-196.5 -61 -302.5 -61z" />
    <glyph glyph-name="multiply.uc.whitecircle" unicode="&#xd7;&#x20dd;" 
d="M851 847l159 155l123 -121l-159 -156l159 -155l-123 -120l-159 155l-160 -155l-121 120l159 155l-160 157l122 120zM851 121c108.667 0 208.331 26.833 298.998 80.5s162 126.334 214 218.001s78 191.834 78 300.501s-26 209 -78 301s-123.333 164.667 -214 218
s-190.334 80 -299.001 80c-81.333 0 -158.666 -15.833 -231.999 -47.5s-136 -74.167 -188 -127.5s-93.333 -117 -124 -191s-46 -151.667 -46 -233c0 -108.667 25.833 -208.834 77.5 -300.501s122.834 -164.334 213.501 -218.001s190.334 -80.5 299.001 -80.5zM850.997 -55
c-141.333 0 -271.334 34.5 -390.001 103.5s-212.334 163 -281.001 282s-103 249.167 -103 390.5c0 106 20.333 206.833 61 302.5s95.334 178 164.001 247s150.834 123.833 246.501 164.5s196.5 61 302.5 61s206.833 -20.333 302.5 -61s178 -95.5 247 -164.5
s123.833 -151.333 164.5 -247s61 -196.5 61 -302.5s-20.333 -206.833 -61 -302.5s-95.5 -178.167 -164.5 -247.5s-151.333 -124.333 -247 -165s-196.5 -61 -302.5 -61z" />
    <glyph glyph-name="divide.uc.whitecircle" unicode="&#xf7;&#x20dd;" 
d="M1116 659h-530v133h530v-133zM754 948c0 26 9.16699 47.167 27.5 63.5s41.5 24.5 69.5 24.5s51.5 -8.16699 70.5 -24.5s28.5 -37.5 28.5 -63.5c0 -24.667 -9.5 -45.167 -28.5 -61.5s-42.5 -24.5 -70.5 -24.5c-27.333 0 -50.333 8.16699 -69 24.5s-28 36.833 -28 61.5z
M754 505c0 25.333 9.33301 46.333 28 63s41.667 25 69 25c28 0 51.5 -8.33301 70.5 -25s28.5 -37.667 28.5 -63c0 -24.667 -9.5 -45.334 -28.5 -62.001s-42.5 -25 -70.5 -25c-27.333 0 -50.333 8.33301 -69 25s-28 37.334 -28 62.001zM851 121
c108.667 0 208.331 26.833 298.998 80.5s162 126.334 214 218.001s78 191.834 78 300.501s-26 209 -78 301s-123.333 164.667 -214 218s-190.334 80 -299.001 80c-81.333 0 -158.666 -15.833 -231.999 -47.5s-136 -74.167 -188 -127.5s-93.333 -117 -124 -191
s-46 -151.667 -46 -233c0 -108.667 25.833 -208.834 77.5 -300.501s122.834 -164.334 213.501 -218.001s190.334 -80.5 299.001 -80.5zM850.997 -55c-141.333 0 -271.334 34.5 -390.001 103.5s-212.334 163 -281.001 282s-103 249.167 -103 390.5
c0 106 20.333 206.833 61 302.5s95.334 178 164.001 247s150.834 123.833 246.501 164.5s196.5 61 302.5 61s206.833 -20.333 302.5 -61s178 -95.5 247 -164.5s123.833 -151.333 164.5 -247s61 -196.5 61 -302.5s-20.333 -206.833 -61 -302.5s-95.5 -178.167 -164.5 -247.5
s-151.333 -124.333 -247 -165s-196.5 -61 -302.5 -61z" />
    <glyph glyph-name="equal.uc.whitecircle" unicode="&#x3d;&#x20dd;" 
d="M1124 519h-545v150h545v-150zM1124 780h-545v150h545v-150zM851 121c108.667 0 208.331 26.833 298.998 80.5s162 126.334 214 218.001s78 191.834 78 300.501s-26 209 -78 301s-123.333 164.667 -214 218s-190.334 80 -299.001 80
c-81.333 0 -158.666 -15.833 -231.999 -47.5s-136 -74.167 -188 -127.5s-93.333 -117 -124 -191s-46 -151.667 -46 -233c0 -108.667 25.833 -208.834 77.5 -300.501s122.834 -164.334 213.501 -218.001s190.334 -80.5 299.001 -80.5zM850.997 -55
c-141.333 0 -271.334 34.5 -390.001 103.5s-212.334 163 -281.001 282s-103 249.167 -103 390.5c0 106 20.333 206.833 61 302.5s95.334 178 164.001 247s150.834 123.833 246.501 164.5s196.5 61 302.5 61s206.833 -20.333 302.5 -61s178 -95.5 247 -164.5
s123.833 -151.333 164.5 -247s61 -196.5 61 -302.5s-20.333 -206.833 -61 -302.5s-95.5 -178.167 -164.5 -247.5s-151.333 -124.333 -247 -165s-196.5 -61 -302.5 -61z" />
    <glyph glyph-name="greater.uc.whitecircle" unicode="&#x3e;&#x20dd;" 
d="M1138 777v-109l-521 -252v183l284 123v7l-284 119v188zM851 121c108.667 0 208.331 26.833 298.998 80.5s162 126.334 214 218.001s78 191.834 78 300.501s-26 209 -78 301s-123.333 164.667 -214 218s-190.334 80 -299.001 80
c-81.333 0 -158.666 -15.833 -231.999 -47.5s-136 -74.167 -188 -127.5s-93.333 -117 -124 -191s-46 -151.667 -46 -233c0 -108.667 25.833 -208.834 77.5 -300.501s122.834 -164.334 213.501 -218.001s190.334 -80.5 299.001 -80.5zM850.997 -55
c-141.333 0 -271.334 34.5 -390.001 103.5s-212.334 163 -281.001 282s-103 249.167 -103 390.5c0 106 20.333 206.833 61 302.5s95.334 178 164.001 247s150.834 123.833 246.501 164.5s196.5 61 302.5 61s206.833 -20.333 302.5 -61s178 -95.5 247 -164.5
s123.833 -151.333 164.5 -247s61 -196.5 61 -302.5s-20.333 -206.833 -61 -302.5s-95.5 -178.167 -164.5 -247.5s-151.333 -124.333 -247 -165s-196.5 -61 -302.5 -61z" />
    <glyph glyph-name="less.uc.whitecircle" unicode="&#x3c;&#x20dd;" 
d="M565 668v109l521 259v-188l-285 -119v-7l285 -123v-183zM851 121c108.667 0 208.331 26.833 298.998 80.5s162 126.334 214 218.001s78 191.834 78 300.501s-26 209 -78 301s-123.333 164.667 -214 218s-190.334 80 -299.001 80
c-81.333 0 -158.666 -15.833 -231.999 -47.5s-136 -74.167 -188 -127.5s-93.333 -117 -124 -191s-46 -151.667 -46 -233c0 -108.667 25.833 -208.834 77.5 -300.501s122.834 -164.334 213.501 -218.001s190.334 -80.5 299.001 -80.5zM850.997 -55
c-141.333 0 -271.334 34.5 -390.001 103.5s-212.334 163 -281.001 282s-103 249.167 -103 390.5c0 106 20.333 206.833 61 302.5s95.334 178 164.001 247s150.834 123.833 246.501 164.5s196.5 61 302.5 61s206.833 -20.333 302.5 -61s178 -95.5 247 -164.5
s123.833 -151.333 164.5 -247s61 -196.5 61 -302.5s-20.333 -206.833 -61 -302.5s-95.5 -178.167 -164.5 -247.5s-151.333 -124.333 -247 -165s-196.5 -61 -302.5 -61z" />
    <glyph glyph-name="numbersign.whitecircle" unicode="&#x30;&#x20dd;" 
d="M1145 779h-99l-20 -97h99l-26 -130h-100l-35 -172h-139l35 172h-93l-35 -172h-139l36 172h-97l26 130h97l20 97h-97l25 130h97l33 164h139l-34 -164h94l32 164h139l-32 -164h99zM804 790l-26 -127h119l25 127h-118zM851 121c108.667 0 208.331 26.833 298.998 80.5
s162 126.334 214 218.001s78 191.834 78 300.501s-26 209 -78 301s-123.333 164.667 -214 218s-190.334 80 -299.001 80c-81.333 0 -158.666 -15.833 -231.999 -47.5s-136 -74.167 -188 -127.5s-93.333 -117 -124 -191s-46 -151.667 -46 -233
c0 -108.667 25.833 -208.834 77.5 -300.501s122.834 -164.334 213.501 -218.001s190.334 -80.5 299.001 -80.5zM850.997 -55c-141.333 0 -271.334 34.5 -390.001 103.5s-212.334 163 -281.001 282s-103 249.167 -103 390.5c0 106 20.333 206.833 61 302.5
s95.334 178 164.001 247s150.834 123.833 246.501 164.5s196.5 61 302.5 61s206.833 -20.333 302.5 -61s178 -95.5 247 -164.5s123.833 -151.333 164.5 -247s61 -196.5 61 -302.5s-20.333 -206.833 -61 -302.5s-95.5 -178.167 -164.5 -247.5s-151.333 -124.333 -247 -165
s-196.5 -61 -302.5 -61z" />
    <glyph glyph-name="uni25BC.whitecircle" unicode="&#x25bc;&#x20dd;" 
d="M1179 947l-328 -568l-327 568h655zM851 121c108.667 0 208.331 26.833 298.998 80.5s162 126.334 214 218.001s78 191.834 78 300.501s-26 209 -78 301s-123.333 164.667 -214 218s-190.334 80 -299.001 80c-81.333 0 -158.666 -15.833 -231.999 -47.5
s-136 -74.167 -188 -127.5s-93.333 -117 -124 -191s-46 -151.667 -46 -233c0 -108.667 25.833 -208.834 77.5 -300.501s122.834 -164.334 213.501 -218.001s190.334 -80.5 299.001 -80.5zM850.997 -55c-141.333 0 -271.334 34.5 -390.001 103.5s-212.334 163 -281.001 282
s-103 249.167 -103 390.5c0 106 20.333 206.833 61 302.5s95.334 178 164.001 247s150.834 123.833 246.501 164.5s196.5 61 302.5 61s206.833 -20.333 302.5 -61s178 -95.5 247 -164.5s123.833 -151.333 164.5 -247s61 -196.5 61 -302.5s-20.333 -206.833 -61 -302.5
s-95.5 -178.167 -164.5 -247.5s-151.333 -124.333 -247 -165s-196.5 -61 -302.5 -61z" />
    <glyph glyph-name="uni25B2.whitecircle" unicode="&#x25b2;&#x20dd;" 
d="M1179 505h-655l327 568zM851 121c108.667 0 208.331 26.833 298.998 80.5s162 126.334 214 218.001s78 191.834 78 300.501s-26 209 -78 301s-123.333 164.667 -214 218s-190.334 80 -299.001 80c-81.333 0 -158.666 -15.833 -231.999 -47.5s-136 -74.167 -188 -127.5
s-93.333 -117 -124 -191s-46 -151.667 -46 -233c0 -108.667 25.833 -208.834 77.5 -300.501s122.834 -164.334 213.501 -218.001s190.334 -80.5 299.001 -80.5zM850.997 -55c-141.333 0 -271.334 34.5 -390.001 103.5s-212.334 163 -281.001 282s-103 249.167 -103 390.5
c0 106 20.333 206.833 61 302.5s95.334 178 164.001 247s150.834 123.833 246.501 164.5s196.5 61 302.5 61s206.833 -20.333 302.5 -61s178 -95.5 247 -164.5s123.833 -151.333 164.5 -247s61 -196.5 61 -302.5s-20.333 -206.833 -61 -302.5s-95.5 -178.167 -164.5 -247.5
s-151.333 -124.333 -247 -165s-196.5 -61 -302.5 -61z" />
    <glyph glyph-name="uni25C0.whitecircle" unicode="&#x25c0;&#x20dd;" 
d="M1070 400l-568 328l568 327v-655zM851 121c108.667 0 208.331 26.833 298.998 80.5s162 126.334 214 218.001s78 191.834 78 300.501s-26 209 -78 301s-123.333 164.667 -214 218s-190.334 80 -299.001 80c-81.333 0 -158.666 -15.833 -231.999 -47.5
s-136 -74.167 -188 -127.5s-93.333 -117 -124 -191s-46 -151.667 -46 -233c0 -108.667 25.833 -208.834 77.5 -300.501s122.834 -164.334 213.501 -218.001s190.334 -80.5 299.001 -80.5zM850.997 -55c-141.333 0 -271.334 34.5 -390.001 103.5s-212.334 163 -281.001 282
s-103 249.167 -103 390.5c0 106 20.333 206.833 61 302.5s95.334 178 164.001 247s150.834 123.833 246.501 164.5s196.5 61 302.5 61s206.833 -20.333 302.5 -61s178 -95.5 247 -164.5s123.833 -151.333 164.5 -247s61 -196.5 61 -302.5s-20.333 -206.833 -61 -302.5
s-95.5 -178.167 -164.5 -247.5s-151.333 -124.333 -247 -165s-196.5 -61 -302.5 -61z" />
    <glyph glyph-name="uni25B6.whitecircle" unicode="&#x25b6;&#x20dd;" 
d="M633 400v655l568 -327zM851 121c108.667 0 208.331 26.833 298.998 80.5s162 126.334 214 218.001s78 191.834 78 300.501s-26 209 -78 301s-123.333 164.667 -214 218s-190.334 80 -299.001 80c-81.333 0 -158.666 -15.833 -231.999 -47.5s-136 -74.167 -188 -127.5
s-93.333 -117 -124 -191s-46 -151.667 -46 -233c0 -108.667 25.833 -208.834 77.5 -300.501s122.834 -164.334 213.501 -218.001s190.334 -80.5 299.001 -80.5zM850.997 -55c-141.333 0 -271.334 34.5 -390.001 103.5s-212.334 163 -281.001 282s-103 249.167 -103 390.5
c0 106 20.333 206.833 61 302.5s95.334 178 164.001 247s150.834 123.833 246.501 164.5s196.5 61 302.5 61s206.833 -20.333 302.5 -61s178 -95.5 247 -164.5s123.833 -151.333 164.5 -247s61 -196.5 61 -302.5s-20.333 -206.833 -61 -302.5s-95.5 -178.167 -164.5 -247.5
s-151.333 -124.333 -247 -165s-196.5 -61 -302.5 -61z" />
    <glyph glyph-name="question.whitecircle" unicode="&#x3f;&#x20dd;" 
d="M728 461c0 28 10.3311 49.999 30.998 65.999s48.667 24 84 24c34.667 0 62.334 -8.16699 83.001 -24.5s31 -38.166 31 -65.499s-10.167 -49 -30.5 -65s-48.166 -24 -83.499 -24s-63.333 8 -84 24s-31 37.667 -31 65zM750.998 604.999
c-1.33301 3.33301 -2 14.001 -2 32.001c-2 60.667 27 110.667 87 150c30 19.333 51.167 35.5 63.5 48.5s18.5 27.833 18.5 44.5c0 20 -6.5 35.333 -19.5 46s-29.5 16 -49.5 16c-21.333 0 -38.5 -6.83301 -51.5 -20.5s-19.833 -30.834 -20.5 -51.501h-175
c-0.666992 72 23 126 71 162s112 54 192 54c73.333 0 133.166 -17.667 179.499 -53s69.5 -83.666 69.5 -144.999c0 -38 -8.66699 -69.333 -26 -94s-42.666 -48 -75.999 -70c-39.333 -26.667 -64.5 -45.834 -75.5 -57.501s-16.5 -27.5 -16.5 -47.5v-14h-169zM850.998 121
c108.667 0 208.331 26.833 298.998 80.5s162 126.334 214 218.001s78 191.834 78 300.501s-26 209 -78 301s-123.333 164.667 -214 218s-190.334 80 -299.001 80c-81.333 0 -158.666 -15.833 -231.999 -47.5s-136 -74.167 -188 -127.5s-93.333 -117 -124 -191
s-46 -151.667 -46 -233c0 -108.667 25.833 -208.834 77.5 -300.501s122.834 -164.334 213.501 -218.001s190.334 -80.5 299.001 -80.5zM850.995 -55c-141.333 0 -271.334 34.5 -390.001 103.5s-212.334 163 -281.001 282s-103 249.167 -103 390.5
c0 106 20.333 206.833 61 302.5s95.334 178 164.001 247s150.834 123.833 246.501 164.5s196.5 61 302.5 61s206.833 -20.333 302.5 -61s178 -95.5 247 -164.5s123.833 -151.333 164.5 -247s61 -196.5 61 -302.5s-20.333 -206.833 -61 -302.5s-95.5 -178.167 -164.5 -247.5
s-151.333 -124.333 -247 -165s-196.5 -61 -302.5 -61z" />
    <glyph glyph-name="exclam.whitecircle" unicode="&#x21;&#x20dd;" 
d="M740 461c0 28 10.333 49.999 31 65.999s48.667 24 84 24s63.166 -8.16699 83.499 -24.5s30.5 -38.166 30.5 -65.499s-10.167 -49 -30.5 -65s-48.166 -24 -83.499 -24s-63.333 8 -84 24s-31 37.667 -31 65zM749 1075h213l-23 -456h-168zM851 120.999
c108.667 0 208.331 26.833 298.998 80.5s162 126.334 214 218.001s78 191.834 78 300.501s-26 209 -78 301s-123.333 164.667 -214 218s-190.334 80 -299.001 80c-81.333 0 -158.666 -15.833 -231.999 -47.5s-136 -74.167 -188 -127.5s-93.333 -117 -124 -191
s-46 -151.667 -46 -233c0 -108.667 25.833 -208.834 77.5 -300.501s122.834 -164.334 213.501 -218.001s190.334 -80.5 299.001 -80.5zM850.997 -55.001c-141.333 0 -271.334 34.5 -390.001 103.5s-212.334 163 -281.001 282s-103 249.167 -103 390.5
c0 106 20.333 206.833 61 302.5s95.334 178 164.001 247s150.834 123.833 246.501 164.5s196.5 61 302.5 61s206.833 -20.333 302.5 -61s178 -95.5 247 -164.5s123.833 -151.333 164.5 -247s61 -196.5 61 -302.5s-20.333 -206.833 -61 -302.5s-95.5 -178.167 -164.5 -247.5
s-151.333 -124.333 -247 -165s-196.5 -61 -302.5 -61z" />
    <glyph glyph-name="uni2717.whitecircle" unicode="&#x2717;&#x20dd;" 
d="M855 843l226 225l119 -119l-225 -225l225 -226l-119 -120l-226 225l-227 -225l-119 119l226 227l-225 226l118 119zM851 121c108.667 0 208.331 26.833 298.998 80.5s162 126.334 214 218.001s78 191.834 78 300.501s-26 209 -78 301s-123.333 164.667 -214 218
s-190.334 80 -299.001 80c-81.333 0 -158.666 -15.833 -231.999 -47.5s-136 -74.167 -188 -127.5s-93.333 -117 -124 -191s-46 -151.667 -46 -233c0 -108.667 25.833 -208.834 77.5 -300.501s122.834 -164.334 213.501 -218.001s190.334 -80.5 299.001 -80.5zM850.997 -55
c-141.333 0 -271.334 34.5 -390.001 103.5s-212.334 163 -281.001 282s-103 249.167 -103 390.5c0 106 20.333 206.833 61 302.5s95.334 178 164.001 247s150.834 123.833 246.501 164.5s196.5 61 302.5 61s206.833 -20.333 302.5 -61s178 -95.5 247 -164.5
s123.833 -151.333 164.5 -247s61 -196.5 61 -302.5s-20.333 -206.833 -61 -302.5s-95.5 -178.167 -164.5 -247.5s-151.333 -124.333 -247 -165s-196.5 -61 -302.5 -61z" />
    <glyph glyph-name="uni2713.whitecircle" unicode="&#x2713;&#x20dd;" 
d="M1279 911l-543 -533l-311 306l125 122l188 -187l419 418zM851 121c108.667 0 208.331 26.833 298.998 80.5s162 126.334 214 218.001s78 191.834 78 300.501s-26 209 -78 301s-123.333 164.667 -214 218s-190.334 80 -299.001 80
c-81.333 0 -158.666 -15.833 -231.999 -47.5s-136 -74.167 -188 -127.5s-93.333 -117 -124 -191s-46 -151.667 -46 -233c0 -108.667 25.833 -208.834 77.5 -300.501s122.834 -164.334 213.501 -218.001s190.334 -80.5 299.001 -80.5zM850.997 -55
c-141.333 0 -271.334 34.5 -390.001 103.5s-212.334 163 -281.001 282s-103 249.167 -103 390.5c0 106 20.333 206.833 61 302.5s95.334 178 164.001 247s150.834 123.833 246.501 164.5s196.5 61 302.5 61s206.833 -20.333 302.5 -61s178 -95.5 247 -164.5
s123.833 -151.333 164.5 -247s61 -196.5 61 -302.5s-20.333 -206.833 -61 -302.5s-95.5 -178.167 -164.5 -247.5s-151.333 -124.333 -247 -165s-196.5 -61 -302.5 -61z" />
    <glyph glyph-name="zero.whitesquare" unicode="&#x30;&#x20de;" 
d="M851 526c32 0 57.167 16.667 75.5 50s27.5 84 27.5 152s-9.16699 118.667 -27.5 152s-43.5 50 -75.5 50c-68 0 -102 -67.333 -102 -202s34 -202 102 -202zM849 371c-88 0 -158.332 31.6689 -210.999 95.002s-79 150.666 -79 261.999c0 110.667 26.333 197.834 79 261.501
s123 95.5 211 95.5s159 -31.833 213 -95.5s81 -150.834 81 -261.501s-26.833 -197.834 -80.5 -261.501s-124.834 -95.5 -213.501 -95.5zM364.001 1471h975c72 0 133.333 -25 184 -75s76 -110.333 76 -181v-985c0 -71.333 -25.333 -132 -76 -182s-112 -75 -184 -75h-975
c-72 0 -133.5 25.167 -184.5 75.5s-76.5 110.833 -76.5 181.5v985c0 70.667 25.5 131 76.5 181s112.5 75 184.5 75zM1419 1178c0 35.333 -13 65.5 -39 90.5s-57.333 37.5 -94 37.5h-870c-36.667 0 -68 -12.5 -94 -37.5s-39 -55.167 -39 -90.5v-911
c0 -34.667 13.167 -64.667 39.5 -90s57.5 -38 93.5 -38h870c36.667 0 68 12.5 94 37.5s39 55.167 39 90.5v911z" />
    <glyph glyph-name="one.whitesquare" unicode="&#x31;&#x20de;" 
d="M991 383h-201v517h-7l-160 -108v171l167 112h201v-692zM364 1471h975c72 0 133.333 -25 184 -75s76 -110.333 76 -181v-985c0 -71.333 -25.333 -132 -76 -182s-112 -75 -184 -75h-975c-72 0 -133.5 25.167 -184.5 75.5s-76.5 110.833 -76.5 181.5v985
c0 70.667 25.5 131 76.5 181s112.5 75 184.5 75zM1419 1178c0 35.333 -13 65.5 -39 90.5s-57.333 37.5 -94 37.5h-870c-36.667 0 -68 -12.5 -94 -37.5s-39 -55.167 -39 -90.5v-911c0 -34.667 13.167 -64.667 39.5 -90s57.5 -38 93.5 -38h870c36.667 0 68 12.5 94 37.5
s39 55.167 39 90.5v911z" />
    <glyph glyph-name="two.whitesquare" unicode="&#x32;&#x20de;" 
d="M767 848l-186 -0.00292969v3c0 68 24.167 124.167 72.5 168.5s114.833 66.5 199.5 66.5c78.667 0 142.167 -19.167 190.5 -57.5s72.5 -87.5 72.5 -147.5c0 -37.333 -10.667 -72.166 -32 -104.499s-54.333 -69.166 -99 -110.499l-122 -121v-7h264v-156h-534v123l249 239
c26.667 25.333 46.167 46.833 58.5 64.5s18.5 36.167 18.5 55.5c0 20 -6.83301 36.333 -20.5 49s-31.5 19 -53.5 19c-24.667 0 -44 -7.66699 -58 -23s-20.667 -34.666 -20 -57.999v-3zM364 1471h975c72 0 133.333 -25 184 -75s76 -110.333 76 -181v-985
c0 -71.333 -25.333 -132 -76 -182s-112 -75 -184 -75h-975c-72 0 -133.5 25.167 -184.5 75.5s-76.5 110.833 -76.5 181.5v985c0 70.667 25.5 131 76.5 181s112.5 75 184.5 75zM1419 1178c0 35.333 -13 65.5 -39 90.5s-57.333 37.5 -94 37.5h-870
c-36.667 0 -68 -12.5 -94 -37.5s-39 -55.167 -39 -90.5v-911c0 -34.667 13.167 -64.667 39.5 -90s57.5 -38 93.5 -38h870c36.667 0 68 12.5 94 37.5s39 55.167 39 90.5v911z" />
    <glyph glyph-name="three.whitesquare" unicode="&#x33;&#x20de;" 
d="M776 662l-0.00488281 145.001h70c24.667 0 44.834 6.66699 60.501 20s23.5 30.666 23.5 51.999c0 19.333 -7.83301 35.166 -23.5 47.499s-35.834 18.5 -60.501 18.5c-26.667 0 -48.167 -7.33301 -64.5 -22s-25.166 -33 -26.499 -55h-183
c2.66699 68 27.834 121.333 75.501 160s114.834 58 201.501 58c82 0 147.5 -17 196.5 -51s74.167 -78.667 75.5 -134c0.666992 -38 -12.833 -71.167 -40.5 -99.5s-58.167 -44.833 -91.5 -49.5v-10c40 -3.33301 74.833 -19.666 104.5 -48.999s44.834 -67.333 45.501 -114
c0.666992 -63.333 -26 -113.833 -80 -151.5s-124.667 -56.5 -212 -56.5c-85.333 0 -153.5 20.333 -204.5 61s-77.167 93.334 -78.5 158.001h183c1.33301 -21.333 11 -38.833 29 -52.5s41.333 -20.834 70 -21.501c30 0 54 6.83301 72 20.5s27 31.5 27 53.5
c-0.666992 22 -9.66699 39.5 -27 52.5s-40.666 19.5 -69.999 19.5h-72zM363.995 1471h975c72 0 133.333 -25 184 -75s76 -110.333 76 -181v-985c0 -71.333 -25.333 -132 -76 -182s-112 -75 -184 -75h-975c-72 0 -133.5 25.167 -184.5 75.5s-76.5 110.833 -76.5 181.5v985
c0 70.667 25.5 131 76.5 181s112.5 75 184.5 75zM1419 1178c0 35.333 -13 65.5 -39 90.5s-57.333 37.5 -94 37.5h-870c-36.667 0 -68 -12.5 -94 -37.5s-39 -55.167 -39 -90.5v-911c0 -34.667 13.167 -64.667 39.5 -90s57.5 -38 93.5 -38h870c36.667 0 68 12.5 94 37.5
s39 55.167 39 90.5v911z" />
    <glyph glyph-name="four.whitesquare" unicode="&#x34;&#x20de;" 
d="M785 1075h271v-431h95v-148h-95v-113h-168v113h-346v151c50 98 131 240.667 243 428zM714 644h174.001v308h-7c-62.667 -103.333 -118.334 -205.333 -167.001 -306v-2zM364.001 1471h975c72 0 133.333 -25 184 -75s76 -110.333 76 -181v-985
c0 -71.333 -25.333 -132 -76 -182s-112 -75 -184 -75h-975c-72 0 -133.5 25.167 -184.5 75.5s-76.5 110.833 -76.5 181.5v985c0 70.667 25.5 131 76.5 181s112.5 75 184.5 75zM1419 1178c0 35.333 -13 65.5 -39 90.5s-57.333 37.5 -94 37.5h-870
c-36.667 0 -68 -12.5 -94 -37.5s-39 -55.167 -39 -90.5v-911c0 -34.667 13.167 -64.667 39.5 -90s57.5 -38 93.5 -38h870c36.667 0 68 12.5 94 37.5s39 55.167 39 90.5v911z" />
    <glyph glyph-name="five.whitesquare" unicode="&#x35;&#x20de;" 
d="M582 589l184.998 0.000976562c4 -20.667 15 -36.834 33 -48.501s38.667 -17.5 62 -17.5c26.667 0 49.5 9.33301 68.5 28s28.5 42.667 28.5 72c0 27.333 -9.5 49.833 -28.5 67.5s-42.167 26.5 -69.5 26.5c-40.667 0 -70 -16.333 -88 -49h-177l27 412h481v-142h-330
l-12 -152h9c10.667 17.333 29.5 32.5 56.5 45.5s58.167 19.5 93.5 19.5c67.333 0 122.333 -20.167 165 -60.5s64 -94.5 64 -162.5c0 -76.667 -26.167 -137.834 -78.5 -183.501s-122.833 -68.5 -211.5 -68.5c-81.333 0 -147.666 19.833 -198.999 59.5
s-77.666 90.834 -78.999 153.501zM363.998 1471h975c72 0 133.333 -25 184 -75s76 -110.333 76 -181v-985c0 -71.333 -25.333 -132 -76 -182s-112 -75 -184 -75h-975c-72 0 -133.5 25.167 -184.5 75.5s-76.5 110.833 -76.5 181.5v985c0 70.667 25.5 131 76.5 181
s112.5 75 184.5 75zM1419 1178c0 35.333 -13 65.5 -39 90.5s-57.333 37.5 -94 37.5h-870c-36.667 0 -68 -12.5 -94 -37.5s-39 -55.167 -39 -90.5v-911c0 -34.667 13.167 -64.667 39.5 -90s57.5 -38 93.5 -38h870c36.667 0 68 12.5 94 37.5s39 55.167 39 90.5v911z" />
    <glyph glyph-name="six.whitesquare" unicode="&#x36;&#x20de;" 
d="M1131 896l-181 0.000976562c-14 32 -41.667 48 -83 48c-38 0 -67.833 -18.5 -89.5 -55.5s-30.5 -84.833 -26.5 -143.5h8c28 60 82.333 90 163 90c64.667 0 118.167 -19.333 160.5 -58s63.5 -91.334 63.5 -158.001c0 -76 -26 -136.333 -78 -181s-120.667 -67 -206 -67
c-113.333 0 -196.333 41.667 -249 125c-36.667 58 -55 134 -55 228c0 116.667 27.333 206.167 82 268.5s130 93.5 226 93.5c74 0 135.333 -18.5 184 -55.5s75.667 -81.833 81 -134.5zM764 614.001c0 -29.333 9.16797 -52.833 27.501 -70.5s41.5 -26.5 69.5 -26.5
s51 8.5 69 25.5s27 40.5 27 70.5c0 29.333 -9.33301 52.5 -28 69.5s-41.334 25.5 -68.001 25.5c-28.667 0 -52 -8.83301 -70 -26.5s-27 -40.167 -27 -67.5zM364.001 1471h975c72 0 133.333 -25 184 -75s76 -110.333 76 -181v-985c0 -71.333 -25.333 -132 -76 -182
s-112 -75 -184 -75h-975c-72 0 -133.5 25.167 -184.5 75.5s-76.5 110.833 -76.5 181.5v985c0 70.667 25.5 131 76.5 181s112.5 75 184.5 75zM1419 1178c0 35.333 -13 65.5 -39 90.5s-57.333 37.5 -94 37.5h-870c-36.667 0 -68 -12.5 -94 -37.5s-39 -55.167 -39 -90.5v-911
c0 -34.667 13.167 -64.667 39.5 -90s57.5 -38 93.5 -38h870c36.667 0 68 12.5 94 37.5s39 55.167 39 90.5v911z" />
    <glyph glyph-name="seven.whitesquare" unicode="&#x37;&#x20de;" 
d="M584 1075h543v-157l-274 -535h-213l284 529v8h-340v155zM364 1471h975c72 0 133.333 -25 184 -75s76 -110.333 76 -181v-985c0 -71.333 -25.333 -132 -76 -182s-112 -75 -184 -75h-975c-72 0 -133.5 25.167 -184.5 75.5s-76.5 110.833 -76.5 181.5v985
c0 70.667 25.5 131 76.5 181s112.5 75 184.5 75zM1419 1178c0 35.333 -13 65.5 -39 90.5s-57.333 37.5 -94 37.5h-870c-36.667 0 -68 -12.5 -94 -37.5s-39 -55.167 -39 -90.5v-911c0 -34.667 13.167 -64.667 39.5 -90s57.5 -38 93.5 -38h870c36.667 0 68 12.5 94 37.5
s39 55.167 39 90.5v911z" />
    <glyph glyph-name="eight.whitesquare" unicode="&#x38;&#x20de;" 
d="M851 502c29.333 0 53.667 8.49902 73 25.499s29 38.5 29 64.5s-9.5 47.5 -28.5 64.5s-43.5 25.5 -73.5 25.5c-29.333 0 -53.666 -8.66699 -72.999 -26s-29 -38.666 -29 -63.999c0 -26 9.66699 -47.5 29 -64.5s43.666 -25.5 72.999 -25.5zM851.001 801.999
c24.667 0 44.833 7.33301 60.5 22s23.5 33 23.5 55s-8 40.167 -24 54.5s-36 21.5 -60 21.5s-44 -7.16699 -60 -21.5s-24 -32.5 -24 -54.5s8 -40.333 24 -55s36 -22 60 -22zM850 370.999c-92.667 0 -166.497 18.6641 -221.497 55.9971s-82.5 87.333 -82.5 150
c0 44 14.167 81 42.5 111s66.166 48.667 113.499 56v8c-84.667 24.667 -127 74.334 -127 149.001c0 55.333 25.167 100 75.5 134s117.166 51 200.499 51s150.166 -17 200.499 -51s75.5 -78.667 75.5 -134c0 -76 -42.333 -125.667 -127 -149v-8
c47.333 -6.66699 85.166 -25.167 113.499 -55.5s42.5 -67.166 42.5 -110.499c0 -63.333 -27.667 -113.666 -83 -150.999s-129.666 -56 -222.999 -56zM364.003 1471h975c72 0 133.333 -25 184 -75s76 -110.333 76 -181v-985c0 -71.333 -25.333 -132 -76 -182
s-112 -75 -184 -75h-975c-72 0 -133.5 25.167 -184.5 75.5s-76.5 110.833 -76.5 181.5v985c0 70.667 25.5 131 76.5 181s112.5 75 184.5 75zM1419 1178c0 35.333 -13 65.5 -39 90.5s-57.333 37.5 -94 37.5h-870c-36.667 0 -68 -12.5 -94 -37.5s-39 -55.167 -39 -90.5v-911
c0 -34.667 13.167 -64.667 39.5 -90s57.5 -38 93.5 -38h870c36.667 0 68 12.5 94 37.5s39 55.167 39 90.5v911z" />
    <glyph glyph-name="nine.whitesquare" unicode="&#x39;&#x20de;" 
d="M557 841c0 73.333 26.832 132.667 80.499 178s122.167 68 205.5 68c92 0 165.167 -29 219.5 -87s81.5 -146.333 81.5 -265c0 -117.333 -26.5 -207.333 -79.5 -270s-129.167 -94 -228.5 -94c-74 0 -134.833 18.167 -182.5 54.5s-74.5 81.166 -80.5 134.499h183
c13.333 -30.667 40.333 -46 81 -46c42 0 73.333 18.833 94 56.5s28.334 84.834 23.001 141.501h-7c-12 -27.333 -31.833 -49.333 -59.5 -66s-61.5 -25 -101.5 -25c-67.333 0 -122.333 19.667 -165 59s-64 93 -64 161zM938.999 843.001c0 30 -9.00098 53.832 -27.001 71.499
s-41 26.5 -69 26.5c-27.333 0 -50.166 -8.83301 -68.499 -26.5s-27.5 -41.167 -27.5 -70.5s9.16699 -52.666 27.5 -69.999s41.5 -26 69.5 -26c27.333 0 50 8.5 68 25.5s27 40.167 27 69.5zM363.998 1471h975c72 0 133.333 -25 184 -75s76 -110.333 76 -181v-985
c0 -71.333 -25.333 -132 -76 -182s-112 -75 -184 -75h-975c-72 0 -133.5 25.167 -184.5 75.5s-76.5 110.833 -76.5 181.5v985c0 70.667 25.5 131 76.5 181s112.5 75 184.5 75zM1419 1178c0 35.333 -13 65.5 -39 90.5s-57.333 37.5 -94 37.5h-870
c-36.667 0 -68 -12.5 -94 -37.5s-39 -55.167 -39 -90.5v-911c0 -34.667 13.167 -64.667 39.5 -90s57.5 -38 93.5 -38h870c36.667 0 68 12.5 94 37.5s39 55.167 39 90.5v911z" />
    <glyph glyph-name="plus.uc.whitesquare" unicode="&#x2b;&#x20de;" 
d="M938 645v-210h-173v210h-206v165h206v207h173v-207h205v-165h-205zM364 1471h975c72 0 133.333 -25 184 -75s76 -110.333 76 -181v-985c0 -71.333 -25.333 -132 -76 -182s-112 -75 -184 -75h-975c-72 0 -133.5 25.167 -184.5 75.5s-76.5 110.833 -76.5 181.5v985
c0 70.667 25.5 131 76.5 181s112.5 75 184.5 75zM1419 1178c0 35.333 -13 65.5 -39 90.5s-57.333 37.5 -94 37.5h-870c-36.667 0 -68 -12.5 -94 -37.5s-39 -55.167 -39 -90.5v-911c0 -34.667 13.167 -64.667 39.5 -90s57.5 -38 93.5 -38h870c36.667 0 68 12.5 94 37.5
s39 55.167 39 90.5v911z" />
    <glyph glyph-name="minus.uc.whitesquare" unicode="&#x2212;&#x20de;" 
d="M1116 640h-530v171h530v-171zM364 1471h975c72 0 133.333 -25 184 -75s76 -110.333 76 -181v-985c0 -71.333 -25.333 -132 -76 -182s-112 -75 -184 -75h-975c-72 0 -133.5 25.167 -184.5 75.5s-76.5 110.833 -76.5 181.5v985c0 70.667 25.5 131 76.5 181
s112.5 75 184.5 75zM1419 1178c0 35.333 -13 65.5 -39 90.5s-57.333 37.5 -94 37.5h-870c-36.667 0 -68 -12.5 -94 -37.5s-39 -55.167 -39 -90.5v-911c0 -34.667 13.167 -64.667 39.5 -90s57.5 -38 93.5 -38h870c36.667 0 68 12.5 94 37.5s39 55.167 39 90.5v911z" />
    <glyph glyph-name="multiply.uc.whitesquare" unicode="&#xd7;&#x20de;" 
d="M851 847l159 156l123 -121l-160 -156l160 -156l-123 -120l-159 156l-160 -156l-122 120l159 156l-159 156l122 121zM364 1471h975c72 0 133.333 -25 184 -75s76 -110.333 76 -181v-985c0 -71.333 -25.333 -132 -76 -182s-112 -75 -184 -75h-975
c-72 0 -133.5 25.167 -184.5 75.5s-76.5 110.833 -76.5 181.5v985c0 70.667 25.5 131 76.5 181s112.5 75 184.5 75zM1419 1178c0 35.333 -13 65.5 -39 90.5s-57.333 37.5 -94 37.5h-870c-36.667 0 -68 -12.5 -94 -37.5s-39 -55.167 -39 -90.5v-911
c0 -34.667 13.167 -64.667 39.5 -90s57.5 -38 93.5 -38h870c36.667 0 68 12.5 94 37.5s39 55.167 39 90.5v911z" />
    <glyph glyph-name="divide.uc.whitesquare" unicode="&#xf7;&#x20de;" 
d="M1116 659h-530v133h530v-133zM754 948c0 26 9.16699 47.167 27.5 63.5s41.5 24.5 69.5 24.5s51.5 -8.16699 70.5 -24.5s28.5 -37.5 28.5 -63.5c0 -24.667 -9.5 -45.167 -28.5 -61.5s-42.5 -24.5 -70.5 -24.5c-27.333 0 -50.333 8.16699 -69 24.5s-28 36.833 -28 61.5z
M754 505c0 25.333 9.33301 46.333 28 63s41.667 25 69 25c28 0 51.5 -8.33301 70.5 -25s28.5 -37.667 28.5 -63c0 -24.667 -9.5 -45.334 -28.5 -62.001s-42.5 -25 -70.5 -25c-27.333 0 -50.333 8.33301 -69 25s-28 37.334 -28 62.001zM364 1471h975
c72 0 133.333 -25 184 -75s76 -110.333 76 -181v-985c0 -71.333 -25.333 -132 -76 -182s-112 -75 -184 -75h-975c-72 0 -133.5 25.167 -184.5 75.5s-76.5 110.833 -76.5 181.5v985c0 70.667 25.5 131 76.5 181s112.5 75 184.5 75zM1419 1178c0 35.333 -13 65.5 -39 90.5
s-57.333 37.5 -94 37.5h-870c-36.667 0 -68 -12.5 -94 -37.5s-39 -55.167 -39 -90.5v-911c0 -34.667 13.167 -64.667 39.5 -90s57.5 -38 93.5 -38h870c36.667 0 68 12.5 94 37.5s39 55.167 39 90.5v911z" />
    <glyph glyph-name="equal.uc.whitesquare" unicode="&#x3d;&#x20de;" 
d="M1124 519h-545v150h545v-150zM1124 780h-545v150h545v-150zM364 1471h975c72 0 133.333 -25 184 -75s76 -110.333 76 -181v-985c0 -71.333 -25.333 -132 -76 -182s-112 -75 -184 -75h-975c-72 0 -133.5 25.167 -184.5 75.5s-76.5 110.833 -76.5 181.5v985
c0 70.667 25.5 131 76.5 181s112.5 75 184.5 75zM1419 1178c0 35.333 -13 65.5 -39 90.5s-57.333 37.5 -94 37.5h-870c-36.667 0 -68 -12.5 -94 -37.5s-39 -55.167 -39 -90.5v-911c0 -34.667 13.167 -64.667 39.5 -90s57.5 -38 93.5 -38h870c36.667 0 68 12.5 94 37.5
s39 55.167 39 90.5v911z" />
    <glyph glyph-name="greater.uc.whitesquare" unicode="&#x3e;&#x20de;" 
d="M1138 777v-109l-521 -252v183l284 123v7l-284 119v188zM364 1471h975c72 0 133.333 -25 184 -75s76 -110.333 76 -181v-985c0 -71.333 -25.333 -132 -76 -182s-112 -75 -184 -75h-975c-72 0 -133.5 25.167 -184.5 75.5s-76.5 110.833 -76.5 181.5v985
c0 70.667 25.5 131 76.5 181s112.5 75 184.5 75zM1419 1178c0 35.333 -13 65.5 -39 90.5s-57.333 37.5 -94 37.5h-870c-36.667 0 -68 -12.5 -94 -37.5s-39 -55.167 -39 -90.5v-911c0 -34.667 13.167 -64.667 39.5 -90s57.5 -38 93.5 -38h870c36.667 0 68 12.5 94 37.5
s39 55.167 39 90.5v911z" />
    <glyph glyph-name="less.uc.whitesquare" unicode="&#x3c;&#x20de;" 
d="M565 668v109l521 259v-188l-285 -119v-7l285 -123v-183zM364 1471h975c72 0 133.333 -25 184 -75s76 -110.333 76 -181v-985c0 -71.333 -25.333 -132 -76 -182s-112 -75 -184 -75h-975c-72 0 -133.5 25.167 -184.5 75.5s-76.5 110.833 -76.5 181.5v985
c0 70.667 25.5 131 76.5 181s112.5 75 184.5 75zM1419 1178c0 35.333 -13 65.5 -39 90.5s-57.333 37.5 -94 37.5h-870c-36.667 0 -68 -12.5 -94 -37.5s-39 -55.167 -39 -90.5v-911c0 -34.667 13.167 -64.667 39.5 -90s57.5 -38 93.5 -38h870c36.667 0 68 12.5 94 37.5
s39 55.167 39 90.5v911z" />
    <glyph glyph-name="numbersign.whitesquare" unicode="&#x23;&#x20de;" 
d="M1145 779h-99l-20 -97h99l-26 -130h-100l-35 -172h-139l35 172h-93l-35 -172h-139l36 172h-97l26 130h97l20 97h-97l25 130h97l33 164h139l-34 -164h94l32 164h139l-32 -164h99zM804 790l-26 -127h119l25 127h-118zM364 1471h975c72 0 133.333 -25 184 -75
s76 -110.333 76 -181v-985c0 -71.333 -25.333 -132 -76 -182s-112 -75 -184 -75h-975c-72 0 -133.5 25.167 -184.5 75.5s-76.5 110.833 -76.5 181.5v985c0 70.667 25.5 131 76.5 181s112.5 75 184.5 75zM1419 1178c0 35.333 -13 65.5 -39 90.5s-57.333 37.5 -94 37.5h-870
c-36.667 0 -68 -12.5 -94 -37.5s-39 -55.167 -39 -90.5v-911c0 -34.667 13.167 -64.667 39.5 -90s57.5 -38 93.5 -38h870c36.667 0 68 12.5 94 37.5s39 55.167 39 90.5v911z" />
    <glyph glyph-name="uni25BC.whitesquare" unicode="&#x25bc;&#x20de;" 
d="M1180 947l-328 -568l-328 568h656zM364 1471h975c72 0 133.333 -25 184 -75s76 -110.333 76 -181v-985c0 -71.333 -25.333 -132 -76 -182s-112 -75 -184 -75h-975c-72 0 -133.5 25.167 -184.5 75.5s-76.5 110.833 -76.5 181.5v985c0 70.667 25.5 131 76.5 181
s112.5 75 184.5 75zM1419 1178c0 35.333 -13 65.5 -39 90.5s-57.333 37.5 -94 37.5h-870c-36.667 0 -68 -12.5 -94 -37.5s-39 -55.167 -39 -90.5v-911c0 -34.667 13.167 -64.667 39.5 -90s57.5 -38 93.5 -38h870c36.667 0 68 12.5 94 37.5s39 55.167 39 90.5v911z" />
    <glyph glyph-name="uni25B2.whitesquare" unicode="&#x25b2;&#x20de;" 
d="M1179 505h-655l327 568zM364 1471h975c72 0 133.333 -25 184 -75s76 -110.333 76 -181v-985c0 -71.333 -25.333 -132 -76 -182s-112 -75 -184 -75h-975c-72 0 -133.5 25.167 -184.5 75.5s-76.5 110.833 -76.5 181.5v985c0 70.667 25.5 131 76.5 181s112.5 75 184.5 75z
M1419 1178c0 35.333 -13 65.5 -39 90.5s-57.333 37.5 -94 37.5h-870c-36.667 0 -68 -12.5 -94 -37.5s-39 -55.167 -39 -90.5v-911c0 -34.667 13.167 -64.667 39.5 -90s57.5 -38 93.5 -38h870c36.667 0 68 12.5 94 37.5s39 55.167 39 90.5v911z" />
    <glyph glyph-name="uni25C0.whitesquare" unicode="&#x25c0;&#x20de;" 
d="M1070 400l-568 328l568 327v-655zM364 1471h975c72 0 133.333 -25 184 -75s76 -110.333 76 -181v-985c0 -71.333 -25.333 -132 -76 -182s-112 -75 -184 -75h-975c-72 0 -133.5 25.167 -184.5 75.5s-76.5 110.833 -76.5 181.5v985c0 70.667 25.5 131 76.5 181
s112.5 75 184.5 75zM1419 1178c0 35.333 -13 65.5 -39 90.5s-57.333 37.5 -94 37.5h-870c-36.667 0 -68 -12.5 -94 -37.5s-39 -55.167 -39 -90.5v-911c0 -34.667 13.167 -64.667 39.5 -90s57.5 -38 93.5 -38h870c36.667 0 68 12.5 94 37.5s39 55.167 39 90.5v911z" />
    <glyph glyph-name="uni25B6.whitesquare" unicode="&#x25b6;&#x20de;" 
d="M633 400v655l568 -327zM364 1471h975c72 0 133.333 -25 184 -75s76 -110.333 76 -181v-985c0 -71.333 -25.333 -132 -76 -182s-112 -75 -184 -75h-975c-72 0 -133.5 25.167 -184.5 75.5s-76.5 110.833 -76.5 181.5v985c0 70.667 25.5 131 76.5 181s112.5 75 184.5 75z
M1419 1178c0 35.333 -13 65.5 -39 90.5s-57.333 37.5 -94 37.5h-870c-36.667 0 -68 -12.5 -94 -37.5s-39 -55.167 -39 -90.5v-911c0 -34.667 13.167 -64.667 39.5 -90s57.5 -38 93.5 -38h870c36.667 0 68 12.5 94 37.5s39 55.167 39 90.5v911z" />
    <glyph glyph-name="question.whitesquare" unicode="&#x3f;&#x20de;" 
d="M728 461c0 28 10.3311 49.999 30.998 65.999s48.667 24 84 24c34.667 0 62.334 -8.16699 83.001 -24.5s31 -38.166 31 -65.499s-10.167 -49 -30.5 -65s-48.166 -24 -83.499 -24s-63.333 8 -84 24s-31 37.667 -31 65zM601.998 869.999c-0.666992 72 23 126.001 71 162.001
s112 54 192 54c73.333 0 133.166 -17.667 179.499 -53s69.5 -83.666 69.5 -144.999c0 -38 -8.66699 -69.333 -26 -94s-42.666 -48 -75.999 -70c-39.333 -26.667 -64.5 -45.834 -75.5 -57.501s-16.5 -27.5 -16.5 -47.5v-14h-169c-1.33301 3.33301 -2 14 -2 32
c-2 60.667 27 110.667 87 150c30 19.333 51.167 35.5 63.5 48.5s18.5 27.833 18.5 44.5c0 20 -6.5 35.333 -19.5 46s-29.5 16 -49.5 16c-21.333 0 -38.5 -6.83301 -51.5 -20.5s-19.833 -30.834 -20.5 -51.501h-175zM363.998 1471h975c72 0 133.333 -25 184 -75
s76 -110.333 76 -181v-985c0 -71.333 -25.333 -132 -76 -182s-112 -75 -184 -75h-975c-72 0 -133.5 25.167 -184.5 75.5s-76.5 110.833 -76.5 181.5v985c0 70.667 25.5 131 76.5 181s112.5 75 184.5 75zM1419 1178c0 35.333 -13 65.5 -39 90.5s-57.333 37.5 -94 37.5h-870
c-36.667 0 -68 -12.5 -94 -37.5s-39 -55.167 -39 -90.5v-911c0 -34.667 13.167 -64.667 39.5 -90s57.5 -38 93.5 -38h870c36.667 0 68 12.5 94 37.5s39 55.167 39 90.5v911z" />
    <glyph glyph-name="exclam.whitesquare" unicode="&#x21;&#x20de;" 
d="M740 461c0 28 10.333 49.999 31 65.999s48.667 24 84 24s63.166 -8.16699 83.499 -24.5s30.5 -38.166 30.5 -65.499s-10.167 -49 -30.5 -65s-48.166 -24 -83.499 -24s-63.333 8 -84 24s-31 37.667 -31 65zM749 1075h213l-23 -456h-168zM364 1471h975
c72 0 133.333 -25 184 -75s76 -110.333 76 -181v-985c0 -71.333 -25.333 -132 -76 -182s-112 -75 -184 -75h-975c-72 0 -133.5 25.167 -184.5 75.5s-76.5 110.833 -76.5 181.5v985c0 70.667 25.5 131 76.5 181s112.5 75 184.5 75zM1419 1178c0 35.333 -13 65.5 -39 90.5
s-57.333 37.5 -94 37.5h-870c-36.667 0 -68 -12.5 -94 -37.5s-39 -55.167 -39 -90.5v-911c0 -34.667 13.167 -64.667 39.5 -90s57.5 -38 93.5 -38h870c36.667 0 68 12.5 94 37.5s39 55.167 39 90.5v911z" />
    <glyph glyph-name="uni2717.whitesquare" unicode="&#x2717;&#x20de;" 
d="M855 843l226 225l119 -119l-225 -225l225 -226l-119 -120l-226 225l-227 -225l-119 119l226 227l-225 226l118 119zM364 1471h975c72 0 133.333 -25 184 -75s76 -110.333 76 -181v-985c0 -71.333 -25.333 -132 -76 -182s-112 -75 -184 -75h-975
c-72 0 -133.5 25.167 -184.5 75.5s-76.5 110.833 -76.5 181.5v985c0 70.667 25.5 131 76.5 181s112.5 75 184.5 75zM1419 1178c0 35.333 -13 65.5 -39 90.5s-57.333 37.5 -94 37.5h-870c-36.667 0 -68 -12.5 -94 -37.5s-39 -55.167 -39 -90.5v-911
c0 -34.667 13.167 -64.667 39.5 -90s57.5 -38 93.5 -38h870c36.667 0 68 12.5 94 37.5s39 55.167 39 90.5v911z" />
    <glyph glyph-name="uni2713.whitesquare" unicode="&#x2713;&#x20de;" 
d="M1279 911l-543 -533l-311 306l125 122l188 -187l419 418zM364 1471h975c72 0 133.333 -25 184 -75s76 -110.333 76 -181v-985c0 -71.333 -25.333 -132 -76 -182s-112 -75 -184 -75h-975c-72 0 -133.5 25.167 -184.5 75.5s-76.5 110.833 -76.5 181.5v985
c0 70.667 25.5 131 76.5 181s112.5 75 184.5 75zM1419 1178c0 35.333 -13 65.5 -39 90.5s-57.333 37.5 -94 37.5h-870c-36.667 0 -68 -12.5 -94 -37.5s-39 -55.167 -39 -90.5v-911c0 -34.667 13.167 -64.667 39.5 -90s57.5 -38 93.5 -38h870c36.667 0 68 12.5 94 37.5
s39 55.167 39 90.5v911z" />
    <glyph glyph-name="plus.uc.blackcircle" unicode="&#x2b;&#x20dd;&#x25cf;" 
d="M947 636h222v182h-222v224h-192v-224h-222v-182h222v-227h192v227zM851 -53c-104.667 0 -204.668 20.499 -300.001 61.499s-177.666 96.167 -246.999 165.5s-124.5 151.833 -165.5 247.5s-61.5 195.834 -61.5 300.501c0 139.333 34.667 268.5 104 387.5
s163.5 213.167 282.5 282.5s248.167 104 387.5 104c104.667 0 204.834 -20.5 300.501 -61.5s178.167 -96.167 247.5 -165.5s124.5 -151.666 165.5 -246.999s61.5 -195.333 61.5 -300s-20.5 -204.834 -61.5 -300.501s-96.167 -178.167 -165.5 -247.5
s-151.833 -124.5 -247.5 -165.5s-195.834 -61.5 -300.501 -61.5z" />
    <glyph glyph-name="minus.uc.blackcircle" unicode="&#x2212;&#x20dd;&#x25cf;" 
d="M1140 630v189h-578v-189h578zM851 -53c-104.667 0 -204.668 20.499 -300.001 61.499s-177.666 96.167 -246.999 165.5s-124.5 151.833 -165.5 247.5s-61.5 195.834 -61.5 300.501c0 139.333 34.667 268.5 104 387.5s163.5 213.167 282.5 282.5s248.167 104 387.5 104
c104.667 0 204.834 -20.5 300.501 -61.5s178.167 -96.167 247.5 -165.5s124.5 -151.666 165.5 -246.999s61.5 -195.333 61.5 -300s-20.5 -204.834 -61.5 -300.501s-96.167 -178.167 -165.5 -247.5s-151.833 -124.5 -247.5 -165.5s-195.834 -61.5 -300.501 -61.5z" />
    <glyph glyph-name="multiply.uc.blackcircle" unicode="&#xd7;&#x20dd;&#x25cf;" 
d="M851 859l-173 169l-135 -134l172 -169l-172 -168l135 -133l173 168l172 -168l136 133l-173 168l173 169l-136 134zM851 -53c-104.667 0 -204.668 20.499 -300.001 61.499s-177.666 96.167 -246.999 165.5s-124.5 151.833 -165.5 247.5s-61.5 195.834 -61.5 300.501
c0 139.333 34.667 268.5 104 387.5s163.5 213.167 282.5 282.5s248.167 104 387.5 104c104.667 0 204.834 -20.5 300.501 -61.5s178.167 -96.167 247.5 -165.5s124.5 -151.666 165.5 -246.999s61.5 -195.333 61.5 -300s-20.5 -204.834 -61.5 -300.501
s-96.167 -178.167 -165.5 -247.5s-151.833 -124.5 -247.5 -165.5s-195.834 -61.5 -300.501 -61.5z" />
    <glyph glyph-name="divide.uc.blackcircle" unicode="&#xf7;&#x20dd;&#x25cf;" 
d="M743 965c0 -27.333 10.333 -50.166 31 -68.499s46.334 -27.5 77.001 -27.5s56.5 9.16699 77.5 27.5s31.5 41.166 31.5 68.499c0 28.667 -10.333 52.167 -31 70.5s-46.667 27.5 -78 27.5c-30.667 0 -56.334 -9.33301 -77.001 -28s-31 -42 -31 -70zM1140 650v149h-578v-149
h578zM743 487c0 -28 10.333 -51 31 -69s46.334 -27 77.001 -27c31.333 0 57.333 9 78 27s31 41 31 69s-10.333 51.167 -31 69.5s-46.667 27.5 -78 27.5c-30.667 0 -56.334 -9.16699 -77.001 -27.5s-31 -41.5 -31 -69.5zM851 -53c-104.667 0 -204.668 20.499 -300.001 61.499
s-177.666 96.167 -246.999 165.5s-124.5 151.833 -165.5 247.5s-61.5 195.834 -61.5 300.501c0 139.333 34.667 268.5 104 387.5s163.5 213.167 282.5 282.5s248.167 104 387.5 104c104.667 0 204.834 -20.5 300.501 -61.5s178.167 -96.167 247.5 -165.5
s124.5 -151.666 165.5 -246.999s61.5 -195.333 61.5 -300s-20.5 -204.834 -61.5 -300.501s-96.167 -178.167 -165.5 -247.5s-151.833 -124.5 -247.5 -165.5s-195.834 -61.5 -300.501 -61.5z" />
    <glyph glyph-name="equal.uc.blackcircle" unicode="&#x3d;&#x20dd;&#x25cf;" 
d="M1147 784v165h-592v-165h592zM1147 499v164h-592v-164h592zM851 -53c-104.667 0 -204.668 20.499 -300.001 61.499s-177.666 96.167 -246.999 165.5s-124.5 151.833 -165.5 247.5s-61.5 195.834 -61.5 300.501c0 139.333 34.667 268.5 104 387.5
s163.5 213.167 282.5 282.5s248.167 104 387.5 104c104.667 0 204.834 -20.5 300.501 -61.5s178.167 -96.167 247.5 -165.5s124.5 -151.666 165.5 -246.999s61.5 -195.333 61.5 -300s-20.5 -204.834 -61.5 -300.501s-96.167 -178.167 -165.5 -247.5
s-151.833 -124.5 -247.5 -165.5s-195.834 -61.5 -300.501 -61.5z" />
    <glyph glyph-name="greater.uc.blackcircle" unicode="&#x3e;&#x20dd;&#x25cf;" 
d="M1158 782l-569 283v-199l308 -141v-3l-308 -143v-194l569 276v121zM851 -53c-104.667 0 -204.668 20.499 -300.001 61.499s-177.666 96.167 -246.999 165.5s-124.5 151.833 -165.5 247.5s-61.5 195.834 -61.5 300.501c0 139.333 34.667 268.5 104 387.5
s163.5 213.167 282.5 282.5s248.167 104 387.5 104c104.667 0 204.834 -20.5 300.501 -61.5s178.167 -96.167 247.5 -165.5s124.5 -151.666 165.5 -246.999s61.5 -195.333 61.5 -300s-20.5 -204.834 -61.5 -300.501s-96.167 -178.167 -165.5 -247.5
s-151.833 -124.5 -247.5 -165.5s-195.834 -61.5 -300.501 -61.5z" />
    <glyph glyph-name="less.uc.blackcircle" unicode="&#x3c;&#x20dd;&#x25cf;" 
d="M541 661l568 -276v194l-307 143v3l307 141v199l-568 -283v-121zM851 -53c-104.667 0 -204.668 20.499 -300.001 61.499s-177.666 96.167 -246.999 165.5s-124.5 151.833 -165.5 247.5s-61.5 195.834 -61.5 300.501c0 139.333 34.667 268.5 104 387.5
s163.5 213.167 282.5 282.5s248.167 104 387.5 104c104.667 0 204.834 -20.5 300.501 -61.5s178.167 -96.167 247.5 -165.5s124.5 -151.666 165.5 -246.999s61.5 -195.333 61.5 -300s-20.5 -204.834 -61.5 -300.501s-96.167 -178.167 -165.5 -247.5
s-151.833 -124.5 -247.5 -165.5s-195.834 -61.5 -300.501 -61.5z" />
    <glyph glyph-name="numbersign.blackcircle" unicode="&#x23;&#x20dd;&#x25cf;" 
d="M795 799h135l-29 -145h-135zM1169 780l29 147.001h-108l35 176h-158l-34 -176h-93l37 176h-159l-34 -176h-105l-29 -147h105l-20 -97h-105l-29 -148h103l-37 -185h157l39 185h91l-38 -185h158l37 185h109l29 148h-106c2 15.333 8.33301 47.666 19 96.999h107z
M851 -52.999c-104.667 0 -204.668 20.499 -300.001 61.499s-177.666 96.167 -246.999 165.5s-124.5 151.833 -165.5 247.5s-61.5 195.834 -61.5 300.501c0 139.333 34.667 268.5 104 387.5s163.5 213.167 282.5 282.5s248.167 104 387.5 104
c104.667 0 204.834 -20.5 300.501 -61.5s178.167 -96.167 247.5 -165.5s124.5 -151.666 165.5 -246.999s61.5 -195.333 61.5 -300s-20.5 -204.834 -61.5 -300.501s-96.167 -178.167 -165.5 -247.5s-151.833 -124.5 -247.5 -165.5s-195.834 -61.5 -300.501 -61.5z" />
    <glyph glyph-name="uni25BC.blackcircle" unicode="&#x25bc;&#x20dd;&#x25cf;" 
d="M1201 981h-698l348 -604zM851 -53c-104.667 0 -204.668 20.499 -300.001 61.499s-177.666 96.167 -246.999 165.5s-124.5 151.833 -165.5 247.5s-61.5 195.834 -61.5 300.501c0 139.333 34.667 268.5 104 387.5s163.5 213.167 282.5 282.5s248.167 104 387.5 104
c104.667 0 204.834 -20.5 300.501 -61.5s178.167 -96.167 247.5 -165.5s124.5 -151.666 165.5 -246.999s61.5 -195.333 61.5 -300s-20.5 -204.834 -61.5 -300.501s-96.167 -178.167 -165.5 -247.5s-151.833 -124.5 -247.5 -165.5s-195.834 -61.5 -300.501 -61.5z" />
    <glyph glyph-name="uni25B2.blackcircle" unicode="&#x25b2;&#x20dd;&#x25cf;" 
d="M1201 488l-350 604l-348 -604h698zM851 -53c-104.667 0 -204.668 20.499 -300.001 61.499s-177.666 96.167 -246.999 165.5s-124.5 151.833 -165.5 247.5s-61.5 195.834 -61.5 300.501c0 139.333 34.667 268.5 104 387.5s163.5 213.167 282.5 282.5
s248.167 104 387.5 104c104.667 0 204.834 -20.5 300.501 -61.5s178.167 -96.167 247.5 -165.5s124.5 -151.666 165.5 -246.999s61.5 -195.333 61.5 -300s-20.5 -204.834 -61.5 -300.501s-96.167 -178.167 -165.5 -247.5s-151.833 -124.5 -247.5 -165.5
s-195.834 -61.5 -300.501 -61.5z" />
    <glyph glyph-name="uni25C0.blackcircle" unicode="&#x25c0;&#x20dd;&#x25cf;" 
d="M1088 387v696l-605 -348zM851 -53c-104.667 0 -204.668 20.499 -300.001 61.499s-177.666 96.167 -246.999 165.5s-124.5 151.833 -165.5 247.5s-61.5 195.834 -61.5 300.501c0 139.333 34.667 268.5 104 387.5s163.5 213.167 282.5 282.5s248.167 104 387.5 104
c104.667 0 204.834 -20.5 300.501 -61.5s178.167 -96.167 247.5 -165.5s124.5 -151.666 165.5 -246.999s61.5 -195.333 61.5 -300s-20.5 -204.834 -61.5 -300.501s-96.167 -178.167 -165.5 -247.5s-151.833 -124.5 -247.5 -165.5s-195.834 -61.5 -300.501 -61.5z" />
    <glyph glyph-name="uni25B6.blackcircle" unicode="&#x25b6;&#x20dd;&#x25cf;" 
d="M614 387l605 348l-605 348v-696zM851 -53c-104.667 0 -204.668 20.499 -300.001 61.499s-177.666 96.167 -246.999 165.5s-124.5 151.833 -165.5 247.5s-61.5 195.834 -61.5 300.501c0 139.333 34.667 268.5 104 387.5s163.5 213.167 282.5 282.5s248.167 104 387.5 104
c104.667 0 204.834 -20.5 300.501 -61.5s178.167 -96.167 247.5 -165.5s124.5 -151.666 165.5 -246.999s61.5 -195.333 61.5 -300s-20.5 -204.834 -61.5 -300.501s-96.167 -178.167 -165.5 -247.5s-151.833 -124.5 -247.5 -165.5s-195.834 -61.5 -300.501 -61.5z" />
    <glyph glyph-name="question.blackcircle" unicode="&#x3f;&#x20dd;&#x25cf;" 
d="M711 429c0 -31.333 11.333 -56 34 -74s53.667 -27 93 -27c40 0 71.167 9 93.5 27s33.5 42.667 33.5 74s-11.333 56 -34 74s-53.667 27 -93 27c-40 0 -71.167 -8.83301 -93.5 -26.5s-33.5 -42.5 -33.5 -74.5zM735 592l190 -0.000976562v17c0 22 5.33301 39 16 51
s34 29.333 70 52c45.333 30 77 57.5 95 82.5s27 60.167 27 105.5c0 66.667 -25.5 119.667 -76.5 159s-115.833 59 -194.5 59c-88 0 -158 -19.833 -210 -59.5s-78 -99.5 -78 -179.5v-2l199 3c0 24.667 6.5 44.5 19.5 59.5s31.167 22.5 54.5 22.5
c21.333 0 38.833 -5.66699 52.5 -17s20.5 -28.333 20.5 -51c0 -16.667 -5.5 -31 -16.5 -43s-27.333 -25.333 -49 -40s-38.167 -27.667 -49.5 -39c-50.667 -41.333 -74.667 -89 -72 -143c0 -21.333 0.666992 -33.666 2 -36.999zM851 -53.001
c-104.667 0 -204.668 20.499 -300.001 61.499s-177.666 96.167 -246.999 165.5s-124.5 151.833 -165.5 247.5s-61.5 195.834 -61.5 300.501c0 139.333 34.667 268.5 104 387.5s163.5 213.167 282.5 282.5s248.167 104 387.5 104c104.667 0 204.834 -20.5 300.501 -61.5
s178.167 -96.167 247.5 -165.5s124.5 -151.666 165.5 -246.999s61.5 -195.333 61.5 -300s-20.5 -204.834 -61.5 -300.501s-96.167 -178.167 -165.5 -247.5s-151.833 -124.5 -247.5 -165.5s-195.834 -61.5 -300.501 -61.5z" />
    <glyph glyph-name="exclam.blackcircle" unicode="&#x21;&#x20dd;&#x25cf;" 
d="M734 1106l24 -500h189l25 500h-238zM727 430c0 -31.333 11.333 -56 34 -74s53.667 -27 93 -27s70.166 9 92.499 27s33.5 42.667 33.5 74c0 30.667 -11.167 55 -33.5 73s-53.166 27 -92.499 27s-70.333 -8.83301 -93 -26.5s-34 -42.167 -34 -73.5zM851 -53
c-104.667 0 -204.668 20.499 -300.001 61.499s-177.666 96.167 -246.999 165.5s-124.5 151.833 -165.5 247.5s-61.5 195.834 -61.5 300.501c0 139.333 34.667 268.5 104 387.5s163.5 213.167 282.5 282.5s248.167 104 387.5 104c104.667 0 204.834 -20.5 300.501 -61.5
s178.167 -96.167 247.5 -165.5s124.5 -151.666 165.5 -246.999s61.5 -195.333 61.5 -300s-20.5 -204.834 -61.5 -300.501s-96.167 -178.167 -165.5 -247.5s-151.833 -124.5 -247.5 -165.5s-195.834 -61.5 -300.501 -61.5z" />
    <glyph glyph-name="uni2717.blackcircle" unicode="&#x2717;&#x20dd;&#x25cf;" 
d="M852 852l-244 245l-130 -129l245 -246l-245 -245l130 -130l244 245l244 -244l130 131l-244 243l244 244l-130 130zM851 -53c-104.667 0 -204.668 20.499 -300.001 61.499s-177.666 96.167 -246.999 165.5s-124.5 151.833 -165.5 247.5s-61.5 195.834 -61.5 300.501
c0 139.333 34.667 268.5 104 387.5s163.5 213.167 282.5 282.5s248.167 104 387.5 104c104.667 0 204.834 -20.5 300.501 -61.5s178.167 -96.167 247.5 -165.5s124.5 -151.666 165.5 -246.999s61.5 -195.333 61.5 -300s-20.5 -204.834 -61.5 -300.501
s-96.167 -178.167 -165.5 -247.5s-151.833 -124.5 -247.5 -165.5s-195.834 -61.5 -300.501 -61.5z" />
    <glyph glyph-name="uni2713.blackcircle" unicode="&#x2713;&#x20dd;&#x25cf;" horiz-adv-x="1740" 
d="M723 360l593 584l-135 138l-456 -456l-205 205l-137 -136zM851 -53c-104.667 0 -204.668 20.499 -300.001 61.499s-177.666 96.167 -246.999 165.5s-124.5 151.833 -165.5 247.5s-61.5 195.834 -61.5 300.501c0 139.333 34.667 268.5 104 387.5
s163.5 213.167 282.5 282.5s248.167 104 387.5 104c104.667 0 204.834 -20.5 300.501 -61.5s178.167 -96.167 247.5 -165.5s124.5 -151.666 165.5 -246.999s61.5 -195.333 61.5 -300s-20.5 -204.834 -61.5 -300.501s-96.167 -178.167 -165.5 -247.5
s-151.833 -124.5 -247.5 -165.5s-195.834 -61.5 -300.501 -61.5z" />
    <glyph glyph-name="zero.blacksquare" unicode="&#x30;&#x20de;&#x25a0;" 
d="M849 502c-70 0 -105 75.333 -105 226c0 150 35 225 105 225s105 -75 105 -225c0 -150.667 -35 -226 -105 -226zM847 338c98 0 176.167 34.667 234.5 104s87.5 164.666 87.5 285.999c0 120.667 -29.167 215.667 -87.5 285s-136.5 104 -234.5 104
c-97.333 0 -174.5 -34.667 -231.5 -104s-85.5 -164.333 -85.5 -285c0 -121.333 28.5 -216.666 85.5 -285.999s134.167 -104 231.5 -104zM364 1471h975c72 0 133.333 -25 184 -75s76 -110.333 76 -181v-985c0 -71.333 -25.333 -132 -76 -182s-112 -75 -184 -75h-975
c-72 0 -133.5 25.167 -184.5 75.5s-76.5 110.833 -76.5 181.5v985c0 70.667 25.5 131 76.5 181s112.5 75 184.5 75z" />
    <glyph glyph-name="one.blacksquare" unicode="&#x31;&#x20de;&#x25a0;" 
d="M1005 352v753h-221l-183 -122v-195l176 118h5v-554h223zM364 1471h975c72 0 133.333 -25 184 -75s76 -110.333 76 -181v-985c0 -71.333 -25.333 -132 -76 -182s-112 -75 -184 -75h-975c-72 0 -133.5 25.167 -184.5 75.5s-76.5 110.833 -76.5 181.5v985
c0 70.667 25.5 131 76.5 181s112.5 75 184.5 75z" />
    <glyph glyph-name="two.blacksquare" unicode="&#x32;&#x20de;&#x25a0;" 
d="M753 852l0.00195312 5.99902c0 28.667 7.66699 51.834 23 69.501s37 26.5 65 26.5c24 0 43.833 -6.83301 59.5 -20.5s23.5 -31.5 23.5 -53.5c0 -24 -7.33301 -46.5 -22 -67.5s-39.334 -47.5 -74.001 -79.5l-263 -246v-137h583v175h-294v3l139 135
c48 43.333 83.167 82.5 105.5 117.5s33.5 73.833 33.5 116.5c0 62.667 -26.333 114.834 -79 156.501s-119.334 62.5 -200.001 62.5c-92.667 0 -166 -24.333 -220 -73s-81 -110.334 -81 -185.001v-6h201zM364.002 1471h975c72 0 133.333 -25 184 -75s76 -110.333 76 -181
v-985c0 -71.333 -25.333 -132 -76 -182s-112 -75 -184 -75h-975c-72 0 -133.5 25.167 -184.5 75.5s-76.5 110.833 -76.5 181.5v985c0 70.667 25.5 131 76.5 181s112.5 75 184.5 75z" />
    <glyph glyph-name="three.blacksquare" unicode="&#x33;&#x20de;&#x25a0;" 
d="M763 660l82.001 0.000976562c31.333 0 56.5 -7.33301 75.5 -22s28.833 -34 29.5 -58c0 -24 -9.66699 -43.5 -29 -58.5s-45 -22.5 -77 -22.5c-31.333 0.666992 -56.833 8.5 -76.5 23.5s-30.5 34.5 -32.5 58.5h-201c1.33301 -70.667 30.166 -128.667 86.499 -174
s130.833 -68 223.5 -68c94 0 170.667 20.667 230 62s88.666 96.666 87.999 165.999c-0.666992 50 -17 91.167 -49 123.5s-69.333 50.5 -112 54.5v5c36 6 68.5 24.333 97.5 55s43.167 67 42.5 109c-1.33301 60.667 -28.833 109.667 -82.5 147s-124.5 56 -212.5 56
c-95.333 0 -169 -21.167 -221 -63.5s-79.667 -101.166 -83 -176.499h203c1.33301 24 10.5 43.667 27.5 59s40.167 23 69.5 23c26 0 47.333 -6.83301 64 -20.5s25.334 -31.167 26.001 -52.5c0 -22.667 -8.5 -40.834 -25.5 -54.501s-39.167 -20.5 -66.5 -20.5h-77v-151z
M364.001 1471h975c72 0 133.333 -25 184 -75s76 -110.333 76 -181v-985c0 -71.333 -25.333 -132 -76 -182s-112 -75 -184 -75h-975c-72 0 -133.5 25.167 -184.5 75.5s-76.5 110.833 -76.5 181.5v985c0 70.667 25.5 131 76.5 181s112.5 75 184.5 75z" />
    <glyph glyph-name="four.blacksquare" unicode="&#x34;&#x20de;&#x25a0;" 
d="M774 1105c-120 -199.333 -207.667 -354.333 -263 -465v-166h372v-122h189v122h102v166h-102v465h-298zM704 640v1.00098c50 101.333 108.333 206.666 175 315.999h4v-317h-179zM364 1471h975c72 0 133.333 -25 184 -75s76 -110.333 76 -181v-985
c0 -71.333 -25.333 -132 -76 -182s-112 -75 -184 -75h-975c-72 0 -133.5 25.167 -184.5 75.5s-76.5 110.833 -76.5 181.5v985c0 70.667 25.5 131 76.5 181s112.5 75 184.5 75z" />
    <glyph glyph-name="five.blacksquare" unicode="&#x35;&#x20de;&#x25a0;" 
d="M553 579c1.33301 -69.333 29.833 -125.837 85.5 -169.504s128.167 -65.5 217.5 -65.5c96 0 172.667 24.833 230 74.5s86 116.834 86 201.501c0 74.667 -23.5 133.834 -70.5 177.501s-107.167 65.5 -180.5 65.5c-38 0 -71.5 -6.66699 -100.5 -20s-49.5 -29.333 -61.5 -48
h-5c1.33301 10.667 3.5 37.334 6.5 80.001s4.83301 69.334 5.5 80.001h356v155h-525l-29 -450h189c8.66699 16 21.834 29.833 39.501 41.5s38.167 17.5 61.5 17.5c31.333 0 57.166 -9.66699 77.499 -29s30.5 -45 30.5 -77c0 -33.333 -10.5 -60 -31.5 -80
s-46.167 -30 -75.5 -30c-27.333 0 -51 6.66699 -71 20s-32.333 32 -37 56h-198zM364 1471h975c72 0 133.333 -25 184 -75s76 -110.333 76 -181v-985c0 -71.333 -25.333 -132 -76 -182s-112 -75 -184 -75h-975c-72 0 -133.5 25.167 -184.5 75.5s-76.5 110.833 -76.5 181.5
v985c0 70.667 25.5 131 76.5 181s112.5 75 184.5 75z" />
    <glyph glyph-name="six.blacksquare" unicode="&#x36;&#x20de;&#x25a0;" 
d="M1168 610c0 73.333 -22.3311 130.334 -66.998 171.001s-102.667 61 -174 61c-44.667 0 -83 -9 -115 -27s-56.333 -41.333 -73 -70l-5 -1c-2 12 -3 19 -3 21c-0.666992 59.333 11 106.666 35 141.999s55.667 53 95 53c45.333 0 76.666 -18 93.999 -54h197
c-6 58.667 -35.5 108.667 -88.5 150s-119.833 62 -200.5 62c-104 0 -186 -34.333 -246 -103s-90 -166 -90 -292c0 -101.333 20.333 -184.333 61 -249c60 -90.667 150.333 -136 271 -136c91.333 0 165.666 24.667 222.999 74s86 115.333 86 198zM749.002 604.001
c0 31.333 9.99902 56.833 29.999 76.5s46.333 29.5 79 29.5c30.667 0 56.334 -9.5 77.001 -28.5s31 -44.833 31 -77.5c0 -34.667 -10 -61.5 -30 -80.5s-46 -28.5 -78 -28.5s-58.167 9.83301 -78.5 29.5s-30.5 46.167 -30.5 79.5zM364.001 1471h975c72 0 133.333 -25 184 -75
s76 -110.333 76 -181v-985c0 -71.333 -25.333 -132 -76 -182s-112 -75 -184 -75h-975c-72 0 -133.5 25.167 -184.5 75.5s-76.5 110.833 -76.5 181.5v985c0 70.667 25.5 131 76.5 181s112.5 75 184.5 75z" />
    <glyph glyph-name="seven.blacksquare" unicode="&#x37;&#x20de;&#x25a0;" 
d="M556 1105v-175h366v-3l-309 -575h237l297 579v174h-591zM364 1471h975c72 0 133.333 -25 184 -75s76 -110.333 76 -181v-985c0 -71.333 -25.333 -132 -76 -182s-112 -75 -184 -75h-975c-72 0 -133.5 25.167 -184.5 75.5s-76.5 110.833 -76.5 181.5v985
c0 70.667 25.5 131 76.5 181s112.5 75 184.5 75z" />
    <glyph glyph-name="eight.blacksquare" unicode="&#x38;&#x20de;&#x25a0;" 
d="M849 802c-27.333 0 -49.833 7.99902 -67.5 23.999s-26.5 37 -26.5 63s8.66699 47.167 26 63.5s40 24.5 68 24.5c28.667 0 51.667 -8.16699 69 -24.5s26 -37.5 26 -63.5c0 -25.333 -8.83301 -46.166 -26.5 -62.499s-40.5 -24.5 -68.5 -24.5zM849 478.999
c-33.333 0 -60.666 9.5 -81.999 28.5s-32 43.167 -32 72.5s10.667 53.666 32 72.999s48.666 29 81.999 29s60.833 -9.66699 82.5 -29s32.5 -43.666 32.5 -72.999s-10.833 -53.5 -32.5 -72.5s-49.167 -28.5 -82.5 -28.5zM849 337.999
c101.333 0 181.999 20.501 241.999 61.501s90 96.167 90 165.5c0 47.333 -14.833 87.166 -44.5 119.499s-70.5 52.833 -122.5 61.5v3c90 27.333 135 82 135 164c0 62 -27.167 111.5 -81.5 148.5s-127.166 55.5 -218.499 55.5c-90.667 0 -163.167 -18.5 -217.5 -55.5
s-81.5 -86.5 -81.5 -148.5c0 -82.667 45 -137.334 135 -164.001v-3c-52 -8.66699 -92.833 -29.167 -122.5 -61.5s-44.5 -72.166 -44.5 -119.499c0 -69.333 29.833 -124.5 89.5 -165.5s140.167 -61.5 241.5 -61.5zM363.999 1471h975c72 0 133.333 -25 184 -75
s76 -110.333 76 -181v-985c0 -71.333 -25.333 -132 -76 -182s-112 -75 -184 -75h-975c-72 0 -133.5 25.167 -184.5 75.5s-76.5 110.833 -76.5 181.5v985c0 70.667 25.5 131 76.5 181s112.5 75 184.5 75z" />
    <glyph glyph-name="nine.blacksquare" unicode="&#x39;&#x20de;&#x25a0;" 
d="M526 849c0 -74.667 22.501 -132.999 67.501 -174.999s104.167 -63 177.5 -63c43.333 0 81 9 113 27s55.667 41.333 71 70h4c5.33301 -61.333 -3.16699 -112 -25.5 -152s-56.166 -60 -101.499 -60c-44.667 0 -74.667 16.667 -90 50h-198
c6.66699 -58.667 36 -107.834 88 -147.501s118.333 -59.5 199 -59.5c107.333 0 190.166 33.833 248.499 101.5s87.5 163.5 87.5 287.5c0 130 -30.333 227.5 -91 292.5s-140.334 97.5 -239.001 97.5c-91.333 0 -166 -24.5 -224 -73.5s-87 -114.167 -87 -195.5z
M944.001 851.001c0 -33.333 -10.166 -59.499 -30.499 -78.499s-45.833 -28.5 -76.5 -28.5c-31.333 0 -57.333 9.66699 -78 29s-31 45.666 -31 78.999s10.167 60 30.5 80s46.166 30 77.499 30c32 0 58 -10 78 -30s30 -47 30 -81zM364.002 1471h975c72 0 133.333 -25 184 -75
s76 -110.333 76 -181v-985c0 -71.333 -25.333 -132 -76 -182s-112 -75 -184 -75h-975c-72 0 -133.5 25.167 -184.5 75.5s-76.5 110.833 -76.5 181.5v985c0 70.667 25.5 131 76.5 181s112.5 75 184.5 75z" />
    <glyph glyph-name="plus.uc.blacksquare" unicode="&#x2b;&#x20de;&#x25a0;" 
d="M947 636h222v182h-222v224h-192v-224h-222v-182h222v-227h192v227zM364 1471h975c72 0 133.333 -25 184 -75s76 -110.333 76 -181v-985c0 -71.333 -25.333 -132 -76 -182s-112 -75 -184 -75h-975c-72 0 -133.5 25.167 -184.5 75.5s-76.5 110.833 -76.5 181.5v985
c0 70.667 25.5 131 76.5 181s112.5 75 184.5 75z" />
    <glyph glyph-name="minus.uc.blacksquare" unicode="&#x2212;&#x20de;&#x25a0;" 
d="M1140 630v189h-578v-189h578zM364 1471h975c72 0 133.333 -25 184 -75s76 -110.333 76 -181v-985c0 -71.333 -25.333 -132 -76 -182s-112 -75 -184 -75h-975c-72 0 -133.5 25.167 -184.5 75.5s-76.5 110.833 -76.5 181.5v985c0 70.667 25.5 131 76.5 181
s112.5 75 184.5 75z" />
    <glyph glyph-name="multiply.uc.blacksquare" unicode="&#xd7;&#x20de;&#x25a0;" 
d="M851 859l-173 169l-135 -134l172 -169l-172 -168l135 -133l173 168l172 -168l136 133l-173 168l173 169l-136 134zM364 1471h975c72 0 133.333 -25 184 -75s76 -110.333 76 -181v-985c0 -71.333 -25.333 -132 -76 -182s-112 -75 -184 -75h-975
c-72 0 -133.5 25.167 -184.5 75.5s-76.5 110.833 -76.5 181.5v985c0 70.667 25.5 131 76.5 181s112.5 75 184.5 75z" />
    <glyph glyph-name="divide.uc.blacksquare" unicode="&#xf7;&#x20de;&#x25a0;" 
d="M743 965c0 -27.333 10.333 -50.166 31 -68.499s46.334 -27.5 77.001 -27.5s56.5 9.16699 77.5 27.5s31.5 41.166 31.5 68.499c0 28.667 -10.333 52.167 -31 70.5s-46.667 27.5 -78 27.5c-30.667 0 -56.334 -9.33301 -77.001 -28s-31 -42 -31 -70zM1140 650v149h-578v-149
h578zM743 487c0 -28 10.333 -51 31 -69s46.334 -27 77.001 -27c31.333 0 57.333 9 78 27s31 41 31 69s-10.333 51.167 -31 69.5s-46.667 27.5 -78 27.5c-30.667 0 -56.334 -9.16699 -77.001 -27.5s-31 -41.5 -31 -69.5zM364 1471h975c72 0 133.333 -25 184 -75
s76 -110.333 76 -181v-985c0 -71.333 -25.333 -132 -76 -182s-112 -75 -184 -75h-975c-72 0 -133.5 25.167 -184.5 75.5s-76.5 110.833 -76.5 181.5v985c0 70.667 25.5 131 76.5 181s112.5 75 184.5 75z" />
    <glyph glyph-name="equal.uc.blacksquare" unicode="&#x3d;&#x20de;&#x25a0;" 
d="M1147 784v165h-592v-165h592zM1147 499v164h-592v-164h592zM364 1471h975c72 0 133.333 -25 184 -75s76 -110.333 76 -181v-985c0 -71.333 -25.333 -132 -76 -182s-112 -75 -184 -75h-975c-72 0 -133.5 25.167 -184.5 75.5s-76.5 110.833 -76.5 181.5v985
c0 70.667 25.5 131 76.5 181s112.5 75 184.5 75z" />
    <glyph glyph-name="greater.uc.blacksquare" unicode="&#x3e;&#x20de;&#x25a0;" 
d="M1158 782l-569 283v-199l308 -141v-3l-308 -143v-194l569 276v121zM364 1471h975c72 0 133.333 -25 184 -75s76 -110.333 76 -181v-985c0 -71.333 -25.333 -132 -76 -182s-112 -75 -184 -75h-975c-72 0 -133.5 25.167 -184.5 75.5s-76.5 110.833 -76.5 181.5v985
c0 70.667 25.5 131 76.5 181s112.5 75 184.5 75z" />
    <glyph glyph-name="less.uc.blacksquare" unicode="&#x3c;&#x20de;&#x25a0;" 
d="M541 661l568 -276v194c-22 11.333 -74.5 36 -157.5 74l-149.5 69v3l307 141v199l-568 -283v-121zM364 1471h975c72 0 133.333 -25 184 -75s76 -110.333 76 -181v-985c0 -71.333 -25.333 -132 -76 -182s-112 -75 -184 -75h-975c-72 0 -133.5 25.167 -184.5 75.5
s-76.5 110.833 -76.5 181.5v985c0 70.667 25.5 131 76.5 181s112.5 75 184.5 75z" />
    <glyph glyph-name="numbersign.blacksquare" unicode="&#x23;&#x20de;&#x25a0;" 
d="M795 799h135l-29 -145h-135zM1169 780l29 147.001h-108l35 176h-158l-34 -176h-93l37 176h-159l-34 -176h-105l-29 -147h105l-20 -97h-105l-29 -148h103l-37 -185h157l39 185h91l-38 -185h158l37 185h109l29 148h-106c2 15.333 8.33301 47.666 19 96.999h107zM364 1471
h975c72 0 133.333 -25 184 -75s76 -110.333 76 -181v-985c0 -71.333 -25.333 -132 -76 -182s-112 -75 -184 -75h-975c-72 0 -133.5 25.167 -184.5 75.5s-76.5 110.833 -76.5 181.5v985c0 70.667 25.5 131 76.5 181s112.5 75 184.5 75z" />
    <glyph glyph-name="uni25BC.blacksquare" unicode="&#x25bc;&#x20de;&#x25a0;" 
d="M1201 979h-698l348 -605zM364 1471h975c72 0 133.333 -25 184 -75s76 -110.333 76 -181v-985c0 -71.333 -25.333 -132 -76 -182s-112 -75 -184 -75h-975c-72 0 -133.5 25.167 -184.5 75.5s-76.5 110.833 -76.5 181.5v985c0 70.667 25.5 131 76.5 181s112.5 75 184.5 75z
" />
    <glyph glyph-name="uni25B2.blacksquare" unicode="&#x25b2;&#x20de;&#x25a0;" 
d="M1201 488l-350 604l-348 -604h698zM364 1471h975c72 0 133.333 -25 184 -75s76 -110.333 76 -181v-985c0 -71.333 -25.333 -132 -76 -182s-112 -75 -184 -75h-975c-72 0 -133.5 25.167 -184.5 75.5s-76.5 110.833 -76.5 181.5v985c0 70.667 25.5 131 76.5 181
s112.5 75 184.5 75z" />
    <glyph glyph-name="uni25C0.blacksquare" unicode="&#x25c0;&#x20de;&#x25a0;" 
d="M1088 387v696l-605 -348zM364 1471h975c72 0 133.333 -25 184 -75s76 -110.333 76 -181v-985c0 -71.333 -25.333 -132 -76 -182s-112 -75 -184 -75h-975c-72 0 -133.5 25.167 -184.5 75.5s-76.5 110.833 -76.5 181.5v985c0 70.667 25.5 131 76.5 181s112.5 75 184.5 75z
" />
    <glyph glyph-name="uni25B6.blacksquare" unicode="&#x25b6;&#x20de;&#x25a0;" 
d="M614 387l605 348l-605 348v-696zM364 1471h975c72 0 133.333 -25 184 -75s76 -110.333 76 -181v-985c0 -71.333 -25.333 -132 -76 -182s-112 -75 -184 -75h-975c-72 0 -133.5 25.167 -184.5 75.5s-76.5 110.833 -76.5 181.5v985c0 70.667 25.5 131 76.5 181
s112.5 75 184.5 75z" />
    <glyph glyph-name="question.blacksquare" unicode="&#x3f;&#x20de;&#x25a0;" 
d="M711 429c0 -31.333 11.333 -56 34 -74s53.667 -27 93 -27c40 0 71.167 9 93.5 27s33.5 42.667 33.5 74s-11.333 56 -34 74s-53.667 27 -93 27c-40 0 -71.167 -8.83301 -93.5 -26.5s-33.5 -42.5 -33.5 -74.5zM862 1118c-88 0 -158 -19.834 -210 -59.501
s-78 -99.5 -78 -179.5v-2l199 3c0 24.667 6.5 44.5 19.5 59.5s31.167 22.5 54.5 22.5c21.333 0 38.833 -5.66699 52.5 -17s20.5 -28.333 20.5 -51c0 -16.667 -5.5 -31 -16.5 -43s-27.333 -25.333 -49 -40s-38.167 -27.667 -49.5 -39c-50.667 -41.333 -74.667 -89 -72 -143
c0 -21.333 0.666992 -33.666 2 -36.999h190v17c0 22 5.33301 39 16 51s34 29.333 70 52c45.333 30 77 57.5 95 82.5s27 60.167 27 105.5c0 66.667 -25.5 119.667 -76.5 159s-115.833 59 -194.5 59zM364 1471h975c72 0 133.333 -25 184 -75s76 -110.333 76 -181v-985
c0 -71.333 -25.333 -132 -76 -182s-112 -75 -184 -75h-975c-72 0 -133.5 25.167 -184.5 75.5s-76.5 110.833 -76.5 181.5v985c0 70.667 25.5 131 76.5 181s112.5 75 184.5 75z" />
    <glyph glyph-name="exclam.blacksquare" unicode="&#x21;&#x20de;&#x25a0;" 
d="M734 1106l24 -500h189l25 500h-238zM727 430c0 -31.333 11.333 -56 34 -74s53.667 -27 93 -27s70.166 9 92.499 27s33.5 42.667 33.5 74c0 30.667 -11.167 55 -33.5 73s-53.166 27 -92.499 27s-70.333 -8.83301 -93 -26.5s-34 -42.167 -34 -73.5zM364 1471h975
c72 0 133.333 -25 184 -75s76 -110.333 76 -181v-985c0 -71.333 -25.333 -132 -76 -182s-112 -75 -184 -75h-975c-72 0 -133.5 25.167 -184.5 75.5s-76.5 110.833 -76.5 181.5v985c0 70.667 25.5 131 76.5 181s112.5 75 184.5 75z" />
    <glyph glyph-name="uni2717.blacksquare" unicode="&#x2717;&#x20de;&#x25a0;" 
d="M478 968l245 -246l-245 -245l130 -130l244 245l244 -244l130 131l-244 243l244 244l-130 130l-244 -244l-244 245zM364 1471h975c72 0 133.333 -25 184 -75s76 -110.333 76 -181v-985c0 -71.333 -25.333 -132 -76 -182s-112 -75 -184 -75h-975
c-72 0 -133.5 25.167 -184.5 75.5s-76.5 110.833 -76.5 181.5v985c0 70.667 25.5 131 76.5 181s112.5 75 184.5 75z" />
    <glyph glyph-name="uni2713.blacksquare" unicode="&#x2713;&#x20de;&#x25a0;" 
d="M723 360l593 584l-135 138l-456 -456l-205 205l-137 -136zM364 1471h975c72 0 133.333 -25 184 -75s76 -110.333 76 -181v-985c0 -71.333 -25.333 -132 -76 -182s-112 -75 -184 -75h-975c-72 0 -133.5 25.167 -184.5 75.5s-76.5 110.833 -76.5 181.5v985
c0 70.667 25.5 131 76.5 181s112.5 75 184.5 75z" />
    <glyph glyph-name=".notdef" horiz-adv-x="2048" 
d="M100 -494v206h1848v-206h-1848zM100 -46v206h1848v-206h-1848zM100 401v206h1848v-206h-1848zM100 849v206h1848v-206h-1848zM100 1296v206h1848v-206h-1848zM100 1744v206h1848v-206h-1848z" />
    <glyph glyph-name="space" unicode=" " horiz-adv-x="405" 
 />
    <glyph glyph-name="exclam" unicode="!" horiz-adv-x="648" 
d="M174 1443h300l-24 -968h-252zM324 -25c-45.333 0 -83.833 15.167 -115.5 45.5s-47.5 67.5 -47.5 111.5s15.833 81.167 47.5 111.5s70.167 45.5 115.5 45.5s83.833 -15.167 115.5 -45.5s47.5 -67.5 47.5 -111.5s-15.833 -81.167 -47.5 -111.5s-70.167 -45.5 -115.5 -45.5z
" />
    <glyph glyph-name="quotedbl" unicode="&#x22;" horiz-adv-x="929" 
d="M358 880h-250v563h250v-563zM821 880h-250v563h250v-563z" />
    <glyph glyph-name="numbersign" unicode="#" horiz-adv-x="1304" 
d="M630 0l76 380h-259l-77 -380h-220l75 380h-225l41 216h227l54 270h-230l41 214h232l74 364h220l-72 -364h259l73 364h222l-73 -364h236l-40 -214h-239l-55 -270h241l-40 -216h-243l-76 -380h-222zM471 577h287l63 307h-288z" />
    <glyph glyph-name="dollar" unicode="$" horiz-adv-x="1326" 
d="M741 -137l-140.999 0.00292969v128c-157.333 9.33301 -280.833 51.166 -370.5 125.499s-134.834 172.833 -135.501 295.5h286c3.33301 -52 25 -95.667 65 -131s91.667 -56.333 155 -63v390l-106 25c-120.667 28 -212.5 76.167 -275.5 144.5s-94.5 154.5 -94.5 258.5
c0 122.667 41.833 221.5 125.5 296.5s200.5 118.5 350.5 130.5v137h141v-138c140 -12.667 251.833 -56.834 335.5 -132.501s126.5 -171.167 128.5 -286.5h-278c-1.33301 47.333 -19.333 88.666 -54 123.999s-78.667 56.666 -132 63.999v-373l107 -21
c256 -56 384 -191.333 384 -406c0 -126.667 -42.5 -228.167 -127.5 -304.5s-206.167 -121.166 -363.5 -134.499v-129zM949.001 399.003c0 48.667 -17 88 -51 118s-86.333 52 -157 66v-366c65.333 4 116.333 22 153 54s55 74.667 55 128zM413.001 1061
c0 -89.333 62.333 -147.333 187 -174v345c-54.667 -3.33301 -99.5 -20.833 -134.5 -52.5s-52.5 -71.167 -52.5 -118.5z" />
    <glyph glyph-name="percent" unicode="%" horiz-adv-x="1670" 
d="M703 1097c0 -114.667 -29.5 -205.667 -88.5 -273s-139.167 -101 -240.5 -101c-100.667 0 -180.667 33.667 -240 101s-89 158.333 -89 273s29.667 205.667 89 273s139.333 101 240 101s180.667 -33.667 240 -101s89 -158.333 89 -273zM374 900
c32.667 0 58.334 17.5 77.001 52.5s28 83.5 28 145.5s-9.33301 110.667 -28 146s-44.334 53 -77.001 53s-58.334 -17.667 -77.001 -53s-28 -84 -28 -146s9.33301 -110.5 28 -145.5s44.334 -52.5 77.001 -52.5zM430 0h-242l560 767l493 676h241l-544 -746zM1625 354
c0 -115.333 -29.667 -206.668 -89 -274.001s-139.333 -101 -240 -101s-180.667 33.833 -240 101.5s-89 158.834 -89 273.501s29.667 205.667 89 273s139.333 101 240 101s180.667 -33.667 240 -101s89 -158.333 89 -273zM1296 156.998c32.667 0 58.334 17.5 77.001 52.5
s28 83.5 28 145.5s-9.33301 110.667 -28 146s-44.334 53 -77.001 53s-58.334 -17.667 -77.001 -53s-28 -84 -28 -146s9.33301 -110.5 28 -145.5s44.334 -52.5 77.001 -52.5z" />
    <glyph glyph-name="ampersand" unicode="&#x26;" horiz-adv-x="1437" 
d="M1129 0l-110.999 120c-53.333 -46 -119.333 -81.833 -198 -107.5s-161.667 -38.5 -249 -38.5c-152.667 0 -274.667 36.667 -366 110s-137 171.333 -137 294c0 82 21.5 153.833 64.5 215.5s110.5 117.834 202.5 168.501l22 11.5l28.5 15.5
c8.33301 4.66699 13.166 7.33398 14.499 8.00098c-65.333 67.333 -111.5 126 -138.5 176s-40.5 101.333 -40.5 154c0 96.667 38.833 176.667 116.5 240s175.167 95 292.5 95c118 0 214.5 -30.833 289.5 -92.5s112.5 -140.834 112.5 -237.501
c0 -74 -23.667 -141.333 -71 -202s-121 -118.334 -221 -173.001l274 -296c34.667 61.333 52 152.333 52 273v76h243v-93c0 -178 -40.667 -323.333 -122 -436l269 -281h-327zM494.001 623c-54.667 -34.667 -93.833 -69.167 -117.5 -103.5s-35.5 -73.833 -35.5 -118.5
c0 -64.667 24 -116.667 72 -156s110.667 -59 188 -59c52 0 102 9 150 27s86 42.333 114 73l-331 358zM605.002 893c65.333 34 112.333 68.166 141 102.499s43 73.166 43 116.499c0 46 -14.667 83.5 -44 112.5s-67.333 43.5 -114 43.5s-85 -14.667 -115 -44
s-45 -66.666 -45 -111.999c0 -33.333 10 -66.166 30 -98.499s54.667 -72.5 104 -120.5z" />
    <glyph glyph-name="quotesingle" unicode="'" horiz-adv-x="466" 
d="M358 880h-250v563h250v-563z" />
    <glyph glyph-name="parenleft" unicode="(" horiz-adv-x="782" 
d="M182 567c0 176.667 24.168 336.668 72.501 480.001s123.166 275.333 224.499 396h268c-74.667 -87.333 -137.334 -213.833 -188.001 -379.5s-76 -330.834 -76 -495.501s25.333 -330.167 76 -496.5s113.334 -293.5 188.001 -381.5h-268c-102 122 -177 254.667 -225 398
s-72 303 -72 479z" />
    <glyph glyph-name="parenright" unicode=")" horiz-adv-x="782" 
d="M600 567c0 -190.667 -25.666 -356.334 -76.999 -497.001s-124.333 -267.334 -219 -380.001h-269c68 80.667 129 201.334 183 362.001s81 332.667 81 516c0 182.667 -26.833 354.167 -80.5 514.5s-114.834 280.5 -183.501 360.5h269
c94 -111.333 166.833 -237.166 218.5 -377.499s77.5 -306.5 77.5 -498.5z" />
    <glyph glyph-name="asterisk" unicode="*" horiz-adv-x="994" 
d="M796 841l-231 161l25 -280h-182l25 280l-232 -162l-90 161l252 115l-252 117l90 160l230 -158l-23 277h183l-24 -276l229 158l92 -161l-255 -117l255 -115z" />
    <glyph glyph-name="plus" unicode="+" horiz-adv-x="1326" 
d="M794 451v-437h-262v437h-408v255h408v432h262v-432h408v-255h-408z" />
    <glyph glyph-name="comma" unicode="," horiz-adv-x="569" 
d="M310 -316h-219l75 564h278z" />
    <glyph glyph-name="hyphen" unicode="&#x2011;" horiz-adv-x="905" 
d="M781 459h-657v255h657v-255z" />
    <glyph glyph-name="hyphen" unicode="-" horiz-adv-x="905" 
d="M781 459h-657v255h657v-255z" />
    <glyph glyph-name="period" unicode="." horiz-adv-x="569" 
d="M285 -12c-44.667 0 -82.667 15.667 -114 47s-47 69.333 -47 114s15.667 82.667 47 114s69.333 47 114 47s82.667 -15.667 114 -47s47 -69.333 47 -114s-15.667 -82.667 -47 -114s-69.333 -47 -114 -47z" />
    <glyph glyph-name="slash" unicode="/" horiz-adv-x="782" 
d="M270 -310h-270l513 1753h269z" />
    <glyph glyph-name="zero" unicode="0" horiz-adv-x="1333" 
d="M667 -32c-181.333 0 -324 67.5 -428 202.5s-156 319.5 -156 553.5c0 232.667 52.167 416.167 156.5 550.5s246.833 201.5 427.5 201.5s323 -67 427 -201s156 -317.333 156 -550c0 -233.333 -51.833 -417.833 -155.5 -553.5s-246.167 -203.5 -427.5 -203.5zM667 210
c86.667 0 154.333 44.832 203 134.499s73 216.167 73 379.5c0 162 -24.5 287.5 -73.5 376.5s-116.5 133.5 -202.5 133.5s-153.667 -44.667 -203 -134s-74 -214.666 -74 -375.999c0 -162.667 24.5 -289 73.5 -379s116.833 -135 203.5 -135z" />
    <glyph glyph-name="one" unicode="1" horiz-adv-x="983" 
d="M463 0v1166h-6l-368 -254v272l373 259h300v-1443h-299z" />
    <glyph glyph-name="two" unicode="2" horiz-adv-x="1235" 
d="M85 1009c0 136.667 49.501 248.497 148.501 335.497s227.167 130.5 384.5 130.5c151.333 0 274.666 -39.167 369.999 -117.5s143 -178.166 143 -299.499c0 -43.333 -6.5 -85.166 -19.5 -125.499s-33.667 -80.666 -62 -120.999s-56.833 -76.666 -85.5 -108.999
s-66 -71.5 -112 -117.5l-352 -339v-6h651v-240h-1049v203l544 524c73.333 73.333 123.5 132.333 150.5 177s40.5 92 40.5 142c0 54.667 -21.667 100.667 -65 138s-98 56 -164 56c-70 0 -128 -21.833 -174 -65.5s-69 -98.834 -69 -165.501v-5h-280v5z" />
    <glyph glyph-name="three" unicode="3" horiz-adv-x="1290" 
d="M453 630l-0.00390625 218h175c68.667 0 124.334 18.667 167.001 56s64 85.666 64 144.999s-20.333 106.5 -61 141.5s-98 52.5 -172 52.5c-70 0 -126.667 -19 -170 -57s-67 -88.667 -71 -152h-278c5.33301 134 56.333 241 153 321s223 120 379 120
c150.667 0 272.5 -35.333 365.5 -106s139.5 -163.667 139.5 -279c0 -87.333 -27.333 -161.333 -82 -222s-126.667 -99 -216 -115v-6c108.667 -9.33301 194.834 -44.833 258.501 -106.5s95.5 -142.167 95.5 -241.5c0 -128.667 -52.833 -232.667 -158.5 -312
s-242.167 -119 -409.5 -119c-162 0 -292.833 40.667 -392.5 122s-153.167 189 -160.5 323h289c4.66699 -61.333 30.834 -110.333 78.501 -147s110.834 -55 189.501 -55c75.333 0 137 19.333 185 58s72 88.334 72 149.001c0 66 -23.333 117.833 -70 155.5
s-110.667 56.5 -192 56.5h-178z" />
    <glyph glyph-name="four" unicode="4" horiz-adv-x="1327" 
d="M790 0v257h-718v257c117.333 224 310.333 533.667 579 929h426v-944h188v-242h-188v-257h-287zM337 498l-0.000976562 -8h459v739h-6c-111.333 -162.667 -200.666 -298.167 -267.999 -406.5s-129 -216.5 -185 -324.5z" />
    <glyph glyph-name="five" unicode="5" horiz-adv-x="1280" 
d="M657 -32c-154.667 0 -282.503 41.499 -383.503 124.499s-153.833 189.833 -158.5 320.5h279c8.66699 -61.333 37.5 -111 86.5 -149s108.5 -57 178.5 -57c78.667 0 142.834 24.833 192.501 74.5s74.5 113.834 74.5 192.501c0 80 -24.667 145.333 -74 196s-113 76 -191 76
c-54.667 0 -104.167 -11.833 -148.5 -35.5s-79.166 -56.167 -104.499 -97.5h-270l71 830h918v-240h-681l-33 -395h6c30 49.333 72.833 88 128.5 116s119.834 42 192.501 42c138 0 251.5 -45.5 340.5 -136.5s133.5 -206.833 133.5 -347.5
c0 -152.667 -51.5 -276.5 -154.5 -371.5s-237.167 -142.5 -402.5 -142.5z" />
    <glyph glyph-name="six" unicode="6" horiz-adv-x="1317" 
d="M684 -33c-104 0 -197.165 22.834 -279.498 68.501s-148.833 111.5 -199.5 197.5c-80.667 123.333 -121 282.333 -121 477c0 238 54 425.167 162 561.5s255.667 204.5 443 204.5c137.333 0 255 -37 353 -111s157 -170 177 -288h-297
c-14.667 48 -43.334 86.667 -86.001 116s-92.334 44 -149.001 44c-101.333 0 -180.166 -46 -236.499 -138s-82.833 -219 -79.5 -381h6c29.333 71.333 78 128.333 146 171s147.333 64 238 64c137.333 0 251.166 -45.167 341.499 -135.5s135.5 -203.833 135.5 -340.5
c0 -148.667 -52 -270.834 -156 -366.501s-236.667 -143.5 -398 -143.5zM681.002 208.001c73.333 0 135.499 25.167 186.499 75.5s76.5 111.833 76.5 184.5c0 74.667 -24.833 136.334 -74.5 185.001s-112.167 73 -187.5 73s-138.166 -24.333 -188.499 -73
s-75.5 -109.334 -75.5 -182.001c0 -73.333 25.333 -135.5 76 -186.5s113 -76.5 187 -76.5z" />
    <glyph glyph-name="seven" unicode="7" horiz-adv-x="1172" 
d="M177 0l621 1197v6h-734v240h1032v-243l-602 -1200h-317z" />
    <glyph glyph-name="eight" unicode="8" horiz-adv-x="1336" 
d="M668 -32c-174.667 0 -315.834 39.166 -423.501 117.499s-161.5 180.166 -161.5 305.499c0 94.667 31.333 175.834 94 243.501s144.334 109.834 245.001 126.501v6c-84 19.333 -151.833 58.833 -203.5 118.5s-77.5 129.167 -77.5 208.5
c0 110.667 49.333 201.834 148 273.501s225 107.5 379 107.5c154.667 0 281 -35.833 379 -107.5s147 -163.167 147 -274.5c0 -78 -25.667 -146.833 -77 -206.5s-119 -99.5 -203 -119.5v-6c101.333 -17.333 183.166 -59.833 245.499 -127.5s93.5 -148.834 93.5 -243.501
c0 -125.333 -54.167 -227 -162.5 -305s-249.166 -117 -422.499 -117zM668 187.999c79.333 0 144 21.167 194 63.5s75 96.166 75 161.499s-25 119.166 -75 161.499s-114.667 63.5 -194 63.5s-144.166 -21.167 -194.499 -63.5s-75.5 -96.166 -75.5 -161.499
s25.167 -119.166 75.5 -161.499s115.166 -63.5 194.499 -63.5zM668 857.999c66.667 0 121.334 18.833 164.001 56.5s64 85.167 64 142.5c0 58 -21.333 105.833 -64 143.5s-97.334 56.5 -164.001 56.5s-121.334 -18.833 -164.001 -56.5s-64 -85.5 -64 -143.5
s21.333 -105.667 64 -143s97.334 -56 164.001 -56z" />
    <glyph glyph-name="nine" unicode="9" horiz-adv-x="1321" 
d="M631 -32c-138 0 -256.335 37.166 -355.002 111.499s-158 170.5 -178 288.5h298c14.667 -48.667 43.834 -87.667 87.501 -117s94.5 -44 152.5 -44c100.667 0 178.834 45.667 234.501 137s81.5 219 77.5 383h-3h-2h-1c-26.667 -72 -74 -129.333 -142 -172
s-148.667 -64 -242 -64c-136.667 0 -250.667 45.167 -342 135.5s-137 203.833 -137 340.5c0 148 52.333 269.833 157 365.5s237.667 143.5 399 143.5c104.667 0 198.5 -22.667 281.5 -68s149.5 -110.666 199.5 -195.999c80.667 -124 121 -283.333 121 -478
c0 -239.333 -53.5 -426.833 -160.5 -562.5s-255.5 -203.5 -445.5 -203.5zM636.998 717.999c75.333 0 138.167 24.501 188.5 73.501s75.5 109.833 75.5 182.5c0 73.333 -25.333 135.166 -76 185.499s-112.667 75.5 -186 75.5c-74 0 -136.667 -25 -188 -75
s-77 -111.333 -77 -184c0 -74 25 -135.5 75 -184.5s112.667 -73.5 188 -73.5z" />
    <glyph glyph-name="colon" unicode=":" horiz-adv-x="569" 
d="M285 -12c-44.667 0 -82.667 15.667 -114 47s-47 69.333 -47 114s15.667 82.667 47 114s69.333 47 114 47s82.667 -15.667 114 -47s47 -69.333 47 -114s-15.667 -82.667 -47 -114s-69.333 -47 -114 -47zM285 703c-44.667 0 -82.667 15.667 -114 47s-47 69.333 -47 114
c0 45.333 15.667 83.5 47 114.5s69.333 46.5 114 46.5s82.667 -15.667 114 -47s47 -69.333 47 -114s-15.667 -82.667 -47 -114s-69.333 -47 -114 -47z" />
    <glyph glyph-name="semicolon" unicode=";" horiz-adv-x="569" 
d="M285 703c-44.667 0 -82.667 15.667 -114 47s-47 69.333 -47 114c0 45.333 15.667 83.5 47 114.5s69.333 46.5 114 46.5s82.667 -15.667 114 -47s47 -69.333 47 -114s-15.667 -82.667 -47 -114s-69.333 -47 -114 -47zM304 -316h-219l75 564h278z" />
    <glyph glyph-name="less" unicode="&#x3c;" horiz-adv-x="1326" 
d="M1140 906l-657 -319v-10l657 -309v-291l-953 489v225l953 506v-291z" />
    <glyph glyph-name="equal" unicode="=" horiz-adv-x="1326" 
d="M1187 220h-1048v251h1048v-251zM1187 687h-1048v251h1048v-251z" />
    <glyph glyph-name="greater" unicode="&#x3e;" horiz-adv-x="1326" 
d="M187 907v290l953 -505v-226l-953 -488v291l656 308v10z" />
    <glyph glyph-name="question" unicode="?" horiz-adv-x="1093" 
d="M54 1038c2.66699 126 46.665 227.169 131.998 303.502s203.333 114.5 354 114.5c142 0 256.667 -35.833 344 -107.5s131 -164.834 131 -279.501c0 -74 -17.667 -138.5 -53 -193.5s-89 -103.5 -161 -145.5c-66.667 -38.667 -111.667 -73.334 -135 -104.001
s-35 -70.667 -35 -120v-53h-265l-2 58c-6.66699 77.333 4.16602 141 32.499 191s77.5 95.667 147.5 137c64.667 38.667 108.834 73.334 132.501 104.001s35.5 69.667 35.5 117c0 48 -17.5 87.333 -52.5 118s-80.833 46 -137.5 46c-57.333 0 -103.666 -16.833 -138.999 -50.5
s-54.666 -78.834 -57.999 -135.501h-271zM501.998 -24.998c-45.333 0 -83.833 15.167 -115.5 45.5s-47.5 67.5 -47.5 111.5s15.833 81.167 47.5 111.5s70.167 45.5 115.5 45.5s84 -15.167 116 -45.5s48 -67.5 48 -111.5s-16 -81.167 -48 -111.5s-70.667 -45.5 -116 -45.5z
" />
    <glyph glyph-name="at" unicode="@" horiz-adv-x="1810" 
d="M893 841c-52.667 0 -94.002 -20.5 -124.002 -61.5s-45 -98.167 -45 -171.5c0 -72.667 14.833 -129.667 44.5 -171s70.834 -62 123.501 -62c54 0 96.667 20.833 128 62.5s47 98.5 47 170.5s-15.667 128.833 -47 170.5s-73.666 62.5 -126.999 62.5zM925.998 1449
c156.667 0 296.172 -30.835 418.505 -92.502s217.666 -149 285.999 -262s102.5 -242.5 102.5 -388.5c0 -158 -35.167 -283.833 -105.5 -377.5s-166.166 -140.5 -287.499 -140.5c-62.667 0 -115.834 14.167 -159.501 42.5s-70.834 66.5 -81.501 114.5h-14
c-42 -102.667 -122.333 -154 -241 -154c-104 0 -187.833 38.833 -251.5 116.5s-95.5 179.834 -95.5 306.501c0 121.333 31.167 219.833 93.5 295.5s143.5 113.5 243.5 113.5c54 0 102.167 -12.667 144.5 -38s73.166 -60 92.499 -104h14v120h203v-535
c0 -35.333 8.16699 -63 24.5 -83s39.833 -30 70.5 -30c50 0 90.167 30.167 120.5 90.5s45.5 142.833 45.5 247.5c0 181.333 -57.5 326.5 -172.5 435.5s-267.5 163.5 -457.5 163.5c-192.667 0 -350 -63.167 -472 -189.5s-183 -289.833 -183 -490.5
c0 -207.333 63.167 -370.333 189.5 -489s294.166 -178 503.499 -178c118.667 0 209.667 11.667 273 35v-160c-83.333 -24.667 -179.333 -37 -288 -37c-126 0 -242 19.333 -348 58s-197 93.5 -273 164.5s-135.167 158.833 -177.5 263.5s-63.5 220.667 -63.5 348
c0 163.333 35.667 308.333 107 435s171.166 224.834 299.499 294.501s274.833 104.5 439.5 104.5z" />
    <glyph glyph-name="A" unicode="A" horiz-adv-x="1413" 
d="M1065 0l-110 350h-507l-110 -350h-310l501 1443h355l502 -1443h-321zM698 1167l-185 -591h377l-185 591h-7z" />
    <glyph glyph-name="B" unicode="B" horiz-adv-x="1310" 
d="M759 0l-638.999 -0.000976562v1443h628c135.333 0 242.666 -32.333 321.999 -97s119 -152.334 119 -263.001c0 -78.667 -25.833 -147.667 -77.5 -207s-116.167 -94.666 -193.5 -105.999v-8c98.667 -7.33301 180 -43.666 244 -108.999s96 -145.333 96 -240
c0 -127.333 -44.667 -228 -134 -302s-211 -111 -365 -111zM422.001 1218l0.000976562 -375h217c80.667 0 143 16.833 187 50.5s66 81.167 66 142.5c0 58 -19.333 102.833 -58 134.5s-93.334 47.5 -164.001 47.5h-248zM422.002 224.999l260 0.000976562
c87.333 0 153.833 18.167 199.5 54.5s68.5 88.833 68.5 157.5c0 67.333 -23.5 118.666 -70.5 153.999s-115.167 53 -204.5 53h-253v-419z" />
    <glyph glyph-name="C" unicode="C" horiz-adv-x="1459" 
d="M758 -25c-210.667 0 -377.168 66.5 -499.501 199.5s-183.5 315.5 -183.5 547.5c0 231.333 61.333 413.5 184 546.5s289 199.5 499 199.5c114.667 0 218.834 -22.667 312.501 -68s168.834 -109.333 225.501 -192s88.667 -177 96 -283h-294
c-14 88.667 -52.167 159.667 -114.5 213s-137.5 80 -225.5 80c-114 0 -205 -44.667 -273 -134s-102 -209.666 -102 -360.999c0 -154 33.667 -275.5 101 -364.5s159 -133.5 275 -133.5c89.333 0 164.333 24.667 225 74s99 116.666 115 201.999h294
c-16.667 -160.667 -82.334 -288.5 -197.001 -383.5s-260.667 -142.5 -438 -142.5z" />
    <glyph glyph-name="D" unicode="D" horiz-adv-x="1433" 
d="M120 1443h551c217.333 0 386.333 -62.333 507 -187s181 -301 181 -529c0 -228.667 -60.5 -407 -181.5 -535s-289.833 -192 -506.5 -192h-551v1443zM422 1194v-944.001h213c135.333 0 238.5 40.5 309.5 121.5s106.5 199.167 106.5 354.5
c0 150.667 -36 266.334 -108 347.001s-174.667 121 -308 121h-213z" />
    <glyph glyph-name="E" unicode="E" horiz-adv-x="1174" 
d="M1076 250v-250h-956v1443h956v-249h-654v-348h617v-232h-617v-364h654z" />
    <glyph glyph-name="F" unicode="F" horiz-adv-x="1123" 
d="M422 0h-302v1443h945v-249h-643v-387h587v-239h-587v-568z" />
    <glyph glyph-name="G" unicode="G" horiz-adv-x="1489" 
d="M1410 606c0 -196.667 -56.501 -350.999 -169.501 -462.999s-269.833 -168 -470.5 -168c-216 0 -385.833 66.667 -509.5 200s-185.5 317 -185.5 551c0 230.667 61.5 412 184.5 544s290.833 198 503.5 198c168 0 310.333 -45.333 427 -136s185.667 -209 207 -355h-303
c-22 75.333 -62.167 134.333 -120.5 177s-128.166 64 -209.499 64c-119.333 0 -212.666 -43 -279.999 -129s-101 -205.667 -101 -359c0 -156 35.167 -279 105.5 -369s165.833 -135 286.5 -135c98.667 0 179.167 27.667 241.5 83s95.166 127.666 98.499 216.999l1 23h-314
v220h608v-163z" />
    <glyph glyph-name="H" unicode="H" horiz-adv-x="1494" 
d="M1374 0h-302v608h-650v-608h-302v1443h302v-586h650v586h302v-1443z" />
    <glyph glyph-name="I" unicode="I" horiz-adv-x="542" 
d="M422 0h-302v1443h302v-1443z" />
    <glyph glyph-name="J" unicode="J" horiz-adv-x="1143" 
d="M31 425h293c1.33301 -58.667 19.5 -105.667 54.5 -141s80.833 -53 137.5 -53c63.333 0 111.5 19 144.5 57s49.5 93.333 49.5 166v989h302v-991c0 -152.667 -43.333 -271.167 -130 -355.5s-207.667 -126.5 -363 -126.5c-147.333 0 -265.5 41.333 -354.5 124
s-133.5 193 -133.5 331z" />
    <glyph glyph-name="K" unicode="K" horiz-adv-x="1353" 
d="M422 0h-302v1443h302v-658h9l542 658h336l-534 -640l571 -803h-361l-428 603l-135 -162v-441z" />
    <glyph glyph-name="L" unicode="L" horiz-adv-x="1112" 
d="M1053 250v-250h-933v1443h302v-1193h631z" />
    <glyph glyph-name="M" unicode="M" horiz-adv-x="1768" 
d="M1648 0h-269v974h-8l-392 -960h-190l-392 960h-8v-974h-269v1443h350l410 -1023h8l410 1023h350v-1443z" />
    <glyph glyph-name="N" unicode="N" horiz-adv-x="1463" 
d="M409 0h-289v1443h252l674 -940h8v940h289v-1443h-250l-675 945h-9v-945z" />
    <glyph glyph-name="O" unicode="O" horiz-adv-x="1541" 
d="M771 1468c214 0 383.499 -67 508.499 -201s187.5 -316 187.5 -546c0 -229.333 -62.667 -411 -188 -545s-294.666 -201 -507.999 -201c-214 0 -383.5 67 -508.5 201s-187.5 315.667 -187.5 545c0 230 62.5 412 187.5 546s294.5 201 508.5 201zM770.999 1216
c-118 0 -212.167 -44.667 -282.5 -134s-105.5 -209.666 -105.5 -360.999c0 -150.667 35 -270.5 105 -359.5s164.333 -133.5 283 -133.5c118 0 212 44.5 282 133.5s105 208.833 105 359.5c0 151.333 -35 271.666 -105 360.999s-164 134 -282 134z" />
    <glyph glyph-name="P" unicode="P" horiz-adv-x="1265" 
d="M120 1443h587c148.667 0 269.167 -45.333 361.5 -136s138.5 -210 138.5 -358c0 -147.333 -47.667 -266.5 -143 -357.5s-219.333 -136.5 -372 -136.5h-270v-455h-302v1443zM422 1204l0.000976562 -513h204c86.667 0 154 22.333 202 67s72 108 72 190
s-23.833 145.167 -71.5 189.5s-114.834 66.5 -201.501 66.5h-205z" />
    <glyph glyph-name="Q" unicode="Q" horiz-adv-x="1541" 
d="M771 -25c-214.667 0 -384.333 66.668 -509 200.001s-187 315.333 -187 546c0 229.333 62.5 411.166 187.5 545.499s294.5 201.5 508.5 201.5c213.333 0 382.5 -67.167 507.5 -201.5s187.5 -316.166 187.5 -545.499c0 -126.667 -19.667 -239.834 -59 -339.501
s-96.333 -180.167 -171 -241.5l183 -276h-293l-103 151c-76 -26.667 -160 -40 -252 -40zM771.001 225.001c35.333 0 69.667 4.66699 103 14l-158 236h273l63 -86c70.667 81.333 106 192 106 332c0 151.333 -35 272.166 -105 362.499s-164 135.5 -282 135.5
c-118.667 0 -213 -45.167 -283 -135.5s-105 -211.166 -105 -362.499s35 -271.833 105 -361.5s164.333 -134.5 283 -134.5z" />
    <glyph glyph-name="R" unicode="R" horiz-adv-x="1311" 
d="M422 1207v-460h260c76 0 135.167 20.333 177.5 61s63.5 97 63.5 169c0 70 -22 125.833 -66 167.5s-103.333 62.5 -178 62.5h-257zM422 528l-0.000976562 -528h-302v1443h591c164.667 0 292.834 -40.833 384.501 -122.5s137.5 -194.167 137.5 -337.5
c0 -94 -23.167 -177.833 -69.5 -251.5s-110.5 -126.5 -192.5 -158.5l304 -573h-342l-269 528h-242z" />
    <glyph glyph-name="S" unicode="S" horiz-adv-x="1293" 
d="M66 411l290.997 -0.000976562c6.66699 -58.667 37.834 -106.167 93.501 -142.5s123.834 -54.5 204.501 -54.5c80 0 145.167 17.167 195.5 51.5s75.5 78.166 75.5 131.499c0 46.667 -18.667 84.334 -56 113.001s-99.666 52.667 -186.999 72l-188 41
c-264.667 56.667 -397 191 -397 403c0 132 51.5 238.667 154.5 320s235.5 122 397.5 122c166.667 0 299.667 -39.5 399 -118.5s150.333 -184.167 153 -315.5h-283c-4.66699 60.667 -31.5 108.5 -80.5 143.5s-111.5 52.5 -187.5 52.5
c-74.667 0 -134.834 -16.333 -180.501 -49s-68.5 -75.667 -68.5 -129c0 -44 18.5 -79.667 55.5 -107s97.167 -50.666 180.5 -69.999l175 -37c144.667 -30.667 250 -78.5 316 -143.5s99 -152.5 99 -262.5c0 -140 -52.667 -251.167 -158 -333.5
s-247.666 -123.5 -426.999 -123.5c-174 0 -312.5 38.833 -415.5 116.5s-156.833 184.167 -161.5 319.5z" />
    <glyph glyph-name="T" unicode="T" horiz-adv-x="1232" 
d="M767 0h-302v1194h-417v249h1137v-249h-418v-1194z" />
    <glyph glyph-name="U" unicode="U" horiz-adv-x="1449" 
d="M422 1443v-903c0 -94 26.5 -168.5 79.5 -223.5s127.5 -82.5 223.5 -82.5c95.333 0 169.5 27.5 222.5 82.5s79.5 129.5 79.5 223.5v903h302v-933c0 -160 -54.833 -289.167 -164.5 -387.5s-256.167 -147.5 -439.5 -147.5c-184 0 -330.833 49.167 -440.5 147.5
s-164.5 227.5 -164.5 387.5v933h302z" />
    <glyph glyph-name="V" unicode="V" horiz-adv-x="1389" 
d="M877 0h-364l-485 1443h338l330 -1132h7l330 1132h329z" />
    <glyph glyph-name="W" unicode="W" horiz-adv-x="1977" 
d="M984 986l-274 -986h-285l-382 1443h313l227 -1045h8l270 1045h255l270 -1045h8l228 1045h313l-383 -1443h-285l-274 986h-9z" />
    <glyph glyph-name="X" unicode="X" horiz-adv-x="1404" 
d="M43 0l458 723v8l-455 712h355l306 -520h8l309 520h337l-472 -718v-7l466 -718h-344l-316 505h-8l-318 -505h-326z" />
    <glyph glyph-name="Y" unicode="Y" horiz-adv-x="1362" 
d="M832 0h-302v539l-502 904h329l323 -616h7l324 616h324l-503 -904v-539z" />
    <glyph glyph-name="Z" unicode="Z" horiz-adv-x="1292" 
d="M89 0v197l733 989v8h-716v249h1077v-196l-730 -990v-7h750v-250h-1114z" />
    <glyph glyph-name="bracketleft" unicode="[" horiz-adv-x="782" 
d="M203 1443h554v-215h-273v-1324h273v-214h-554v1753z" />
    <glyph glyph-name="backslash" unicode="\" horiz-adv-x="782" 
d="M508 -310l-508 1753h275l507 -1753h-274z" />
    <glyph glyph-name="bracketright" unicode="]" horiz-adv-x="782" 
d="M579 1443v-1753h-554v214h274v1324h-274v215h554z" />
    <glyph glyph-name="asciicircum" unicode="^" horiz-adv-x="978" 
d="M480 1193l-184 -382h-251l316 612h259l314 -612h-258l-179 382h-17z" />
    <glyph glyph-name="underscore" unicode="_" horiz-adv-x="857" 
d="M903 -325h-949v218h949v-218z" />
    <glyph glyph-name="grave" unicode="`" horiz-adv-x="1010" 
d="M751 1282h-233l-256 310h268z" />
    <glyph glyph-name="a" unicode="a" horiz-adv-x="1121" 
d="M509 194c64.667 0 119.501 18.833 164.501 56.5s67.5 85.167 67.5 142.5v78l-226 -14c-54.667 -4 -96.834 -17.667 -126.501 -41s-44.5 -54 -44.5 -92c0 -40 15 -71.667 45 -95s70 -35 120 -35zM413.001 -17c-103.333 0 -189.001 30.335 -257.001 91.002
s-102 138.667 -102 234c0 97.333 36 173.666 108 228.999s175 87 309 95l270 16v71c0 49.333 -16.167 88 -48.5 116s-76.166 42 -131.499 42c-53.333 0 -96.833 -12 -130.5 -36s-54.167 -56.333 -61.5 -97h-267c5.33301 105.333 50.333 190.166 135 254.499
s197 96.5 337 96.5c137.333 0 247.333 -32.667 330 -98s124 -152 124 -260v-737h-282v164h-6c-29.333 -56 -74 -100.167 -134 -132.5s-124.333 -48.5 -193 -48.5z" />
    <glyph glyph-name="b" unicode="b" horiz-adv-x="1223" 
d="M732 -17c-77.333 0 -145.168 17.668 -203.501 53.001s-102.5 84.666 -132.5 147.999h-6v-184h-288v1443h292v-557h6c30 64 73.667 113.833 131 149.5s124 53.5 200 53.5c135.333 0 241.833 -49 319.5 -147s116.5 -233.333 116.5 -406
c0 -172 -38.667 -307.167 -116 -405.5s-183.666 -147.5 -318.999 -147.5zM630.998 855.001c-70.667 0 -127.998 -29.332 -171.998 -87.999s-66 -135.667 -66 -231c0 -96.667 21.833 -173.834 65.5 -231.501s101.167 -86.5 172.5 -86.5c73.333 0 131.166 28.5 173.499 85.5
s63.5 134.5 63.5 232.5c0 97.333 -21.333 174.833 -64 232.5s-100.334 86.5 -173.001 86.5z" />
    <glyph glyph-name="c" unicode="c" horiz-adv-x="1116" 
d="M1069 673l-271 0.000976562c-8.66699 58 -31.5 104.667 -68.5 140s-84.833 53 -143.5 53c-72.667 0 -129.834 -29.167 -171.501 -87.5s-62.5 -138.833 -62.5 -241.5c0 -104.667 20.833 -186 62.5 -244s99.167 -87 172.5 -87c58 0 105.333 16.5 142 49.5
s59.667 78.833 69 137.5h272c-7.33301 -126.667 -55 -227.667 -143 -303s-202.333 -113 -343 -113c-162.667 0 -291.334 49.833 -386.001 149.5s-142 236.5 -142 410.5c0 171.333 47.5 307.166 142.5 407.499s222.833 150.5 383.5 150.5
c142.667 0 257.834 -39.333 345.501 -118s134.834 -180 141.501 -304z" />
    <glyph glyph-name="d" unicode="d" horiz-adv-x="1220" 
d="M493 -17c-134 0 -240.335 49.6699 -319.002 149.003s-118 234.666 -118 405.999c0 170 39.5 304.333 118.5 403s185.833 148 320.5 148c76 0 142.833 -18.333 200.5 -55s99.834 -85.334 126.501 -146.001h6v555h292v-1443h-288v184h-5
c-26.667 -60.667 -69.667 -109.334 -129 -146.001s-127.666 -55 -204.999 -55zM591.998 855.003c-73.333 0 -131.166 -28.666 -173.499 -85.999s-63.5 -135 -63.5 -233c0 -98.667 21.167 -176.334 63.5 -233.001s100.166 -85 173.499 -85c72.667 0 130.5 28.5 173.5 85.5
s64.5 134.5 64.5 232.5c0 97.333 -21.5 174.833 -64.5 232.5s-100.833 86.5 -173.5 86.5z" />
    <glyph glyph-name="e" unicode="e" horiz-adv-x="1137" 
d="M576 879c-63.333 0 -116.168 -21.6689 -158.501 -65.002s-66.166 -98.666 -71.499 -165.999h455c-3.33301 68.667 -25.5 124.334 -66.5 167.001s-93.833 64 -158.5 64zM804.998 327.998l268.001 0.000976562c-16 -105.333 -68.5 -190.166 -157.5 -254.499
s-199.5 -96.5 -331.5 -96.5c-164.667 0 -293.834 49.333 -387.501 148s-140.5 234 -140.5 406c0 171.333 46.667 308.166 140 410.499s219 153.5 377 153.5c155.333 0 279 -48.667 371 -146s138 -227.666 138 -390.999v-89h-739v-18c0 -76.667 22.5 -138.834 67.5 -186.501
s104.5 -71.5 178.5 -71.5c53.333 0 99.333 12.167 138 36.5s64.667 57.166 78 98.499z" />
    <glyph glyph-name="f" unicode="f" horiz-adv-x="729" 
d="M173 0l-0.000976562 852h-146v215h146v81c0 106.667 27.5 184.667 82.5 234s145.167 74 270.5 74c57.333 0 107 -4.33301 149 -13v-193c-21.333 4 -47.666 6 -78.999 6c-92 0 -138 -39.333 -138 -118v-71h213v-215h-206v-852h-292z" />
    <glyph glyph-name="g" unicode="g" horiz-adv-x="1215" 
d="M590 228c73.333 0 131.5 27.5 174.5 82.5s64.5 130.833 64.5 227.5s-21.667 173.667 -65 231s-101.333 86 -174 86c-72 0 -129.167 -28.5 -171.5 -85.5s-63.5 -134.167 -63.5 -231.5s21 -173.333 63 -228s99.333 -82 172 -82zM585 -404
c-139.333 0 -253.835 30.501 -343.502 91.501s-140.5 139.833 -152.5 236.5h286c11.333 -37.333 36.833 -67.5 76.5 -90.5s86.834 -34.5 141.501 -34.5c74 0 131.667 18.833 173 56.5s62 88.167 62 151.5v188h-6c-25.333 -58 -67.666 -104.5 -126.999 -139.5
s-127.333 -52.5 -204 -52.5c-132 0 -237.5 48 -316.5 144s-118.5 227 -118.5 393c0 170 39.333 304 118 402s186 147 322 147c76 0 143 -18.333 201 -55s101.333 -86.334 130 -149.001h5v187h288v-1057c0 -127.333 -48.833 -229 -146.5 -305s-227.167 -114 -388.5 -114z" />
    <glyph glyph-name="h" unicode="h" horiz-adv-x="1197" 
d="M102 0l-0.00292969 1443h287v-562h6c28.667 68 71.834 120.167 129.501 156.5s126.834 54.5 207.501 54.5c118 0 209.833 -35.833 275.5 -107.5s98.5 -169.834 98.5 -294.501v-690h-292v628c0 70 -17.167 124.5 -51.5 163.5s-84.166 58.5 -149.499 58.5
c-68 0 -121.5 -21.833 -160.5 -65.5s-58.5 -101.167 -58.5 -172.5v-612h-292z" />
    <glyph glyph-name="i" unicode="i" horiz-adv-x="491" 
d="M100 0v1072h292v-1072h-292zM246 1190c-44 0 -81 14.667 -111 44s-45 65 -45 107c0 42.667 15 78.5 45 107.5s67 43.5 111 43.5s81 -14.5 111 -43.5s45 -64.833 45 -107.5c0 -42 -15 -77.667 -45 -107s-67 -44 -111 -44z" />
    <glyph glyph-name="j" unicode="j" horiz-adv-x="491" 
d="M392 1072l-0.000976562 -1122c0 -108.667 -32.667 -191 -98 -247s-160.666 -84 -285.999 -84c-36 0 -62.667 1.33301 -80 4v215c9.33301 -1.33301 21.666 -2 36.999 -2c48.667 0 83.334 9.5 104.001 28.5s31 50.167 31 93.5v1114h292zM245.999 1190
c-44 0 -81 14.667 -111 44s-45 65 -45 107c0 42.667 15 78.5 45 107.5s67 43.5 111 43.5s81 -14.5 111 -43.5s45 -64.833 45 -107.5c0 -42 -15 -77.667 -45 -107s-67 -44 -111 -44z" />
    <glyph glyph-name="k" unicode="k" horiz-adv-x="1102" 
d="M398 642l364 430h331l-409 -460l429 -612h-336l-307 436l-76 -82v-354h-292v1443h292v-801h4z" />
    <glyph glyph-name="l" unicode="l" horiz-adv-x="496" 
d="M102 0v1443h292v-1443h-292z" />
    <glyph glyph-name="m" unicode="m" horiz-adv-x="1768" 
d="M95 0l-0.00195312 1072h282v-194h6c22.667 65.333 61.334 117.333 116.001 156s118 58 190 58c77.333 0 142 -19.167 194 -57.5s87 -92.5 105 -162.5h6c24 67.333 65.833 120.833 125.5 160.5s128.834 59.5 207.501 59.5c105.333 0 190.166 -33 254.499 -99
s96.5 -153 96.5 -261v-732h-292v659c0 62 -15 109.5 -45 142.5s-73.333 49.5 -130 49.5c-55.333 0 -99.833 -18.333 -133.5 -55s-50.5 -85 -50.5 -145v-651h-281v668c0 57.333 -15.333 102.166 -46 134.499s-73 48.5 -127 48.5c-55.333 0 -100.166 -19 -134.499 -57
s-51.5 -87 -51.5 -147v-647h-292z" />
    <glyph glyph-name="n" unicode="n" horiz-adv-x="1180" 
d="M95 0l0.000976562 1072h282v-191h6c29.333 68 72.166 120.167 128.499 156.5s125.166 54.5 206.499 54.5c118.667 0 210.334 -35.333 275.001 -106s97 -169 97 -295v-691h-292v630c0 70.667 -16.667 125 -50 163s-82.333 57 -147 57s-116.5 -21.667 -155.5 -65
s-58.5 -100 -58.5 -170v-615h-292z" />
    <glyph glyph-name="o" unicode="o" horiz-adv-x="1173" 
d="M587 -23c-163.333 0 -292.667 49.667 -388 149s-143 236.333 -143 411c0 172.667 48.167 308.834 144.5 408.501s225.166 149.5 386.499 149.5c162 0 291 -49.833 387 -149.5s144 -235.834 144 -408.501c0 -175.333 -47.667 -312.5 -143 -411.5
s-224.666 -148.5 -387.999 -148.5zM586.999 200c72 0 129 29.333 171 88s63 141.334 63 248.001c0 105.333 -21 187.666 -63 246.999s-99 89 -171 89s-129.167 -29.667 -171.5 -89s-63.5 -141.666 -63.5 -246.999c0 -106.667 21 -189.334 63 -248.001s99.333 -88 172 -88z
" />
    <glyph glyph-name="p" unicode="p" horiz-adv-x="1215" 
d="M721 1089c136 0 243.166 -49 321.499 -147s117.5 -233.333 117.5 -406c0 -172 -38.667 -307.167 -116 -405.5s-183.333 -147.5 -318 -147.5c-76.667 0 -144.167 17.5 -202.5 52.5s-101.833 83.167 -130.5 144.5h-6v-530h-292v1422h288v-187h6
c29.333 64 72.833 114 130.5 150s124.834 54 201.501 54zM622.999 218c72.667 0 130.499 28.6689 173.499 86.002s64.5 134.666 64.5 231.999s-21.5 174.833 -64.5 232.5s-100.833 86.5 -173.5 86.5c-71.333 0 -128.666 -29.167 -171.999 -87.5s-65 -135.5 -65 -231.5
c0 -96.667 21.5 -173.834 64.5 -231.501s100.5 -86.5 172.5 -86.5z" />
    <glyph glyph-name="q" unicode="q" horiz-adv-x="1215" 
d="M496 1089c76.667 0 143.832 -18.3311 201.499 -54.998s100.5 -86.334 128.5 -149.001h6v187h288v-1422h-292v533h-6c-25.333 -60 -67.666 -108.333 -126.999 -145s-127.333 -55 -204 -55c-134 0 -240 49.667 -318 149s-117 234.666 -117 405.999
c0 170 39.5 304.333 118.5 403s186.167 148 321.5 148zM589.998 218.002c72.667 0 130.667 28.6689 174 86.002s65 134.666 65 231.999s-21.833 174.833 -65.5 232.5s-101.5 86.5 -173.5 86.5c-72.667 0 -130 -28.5 -172 -85.5s-63 -134.833 -63 -233.5
s21 -176.334 63 -233.001s99.333 -85 172 -85z" />
    <glyph glyph-name="r" unicode="r" horiz-adv-x="745" 
d="M95 0l-0.00195312 1072h282v-193h6c18.667 68 50 120 94 156s97.667 54 161 54c30.667 0 58.334 -3.66699 83.001 -11v-257c-27.333 11.333 -62.666 17 -105.999 17c-72 0 -128 -21 -168 -63s-60 -100.667 -60 -176v-599h-292z" />
    <glyph glyph-name="s" unicode="s" horiz-adv-x="1055" 
d="M77 757c0 102 41 183.836 123 245.503s191.667 92.5 329 92.5c134 0 241.667 -31.333 323 -94s123 -146 125 -250h-269c-3.33301 43.333 -21.166 77.333 -53.499 102s-75.5 37 -129.5 37c-50.667 0 -91.167 -10.5 -121.5 -31.5s-45.5 -48.833 -45.5 -83.5
c0 -52 46.667 -89 140 -111l205 -44c107.333 -24 184.5 -58.833 231.5 -104.5s70.5 -108.5 70.5 -188.5c0 -105.333 -44 -190 -132 -254s-203 -96 -345 -96c-141.333 0 -254.333 31.333 -339 94s-131 147 -139 253h285c7.33301 -45.333 28.166 -80.333 62.499 -105
s80.5 -37 138.5 -37c55.333 0 98.833 10.167 130.5 30.5s47.5 48.166 47.5 83.499c0 27.333 -10 49.166 -30 65.499s-54 30.166 -102 41.499l-198 44c-204.667 46.667 -307 150 -307 310z" />
    <glyph glyph-name="t" unicode="t" horiz-adv-x="728" 
d="M173 1319h292v-247h198v-220h-198v-513c0 -80.667 42 -121 126 -121c27.333 0 51 1.66699 71 5v-215c-34 -8 -80.333 -12 -139 -12c-126 0 -215.833 22.667 -269.5 68s-80.5 120.333 -80.5 225v563h-151v220h151v247z" />
    <glyph glyph-name="u" unicode="u" horiz-adv-x="1180" 
d="M1085 1072v-1072h-282v193h-6c-56 -142 -163 -213 -321 -213c-117.333 0 -211 35.833 -281 107.5s-105 169.5 -105 293.5v691h292v-630c0 -71.333 17.167 -125.666 51.5 -162.999s83.833 -56 148.5 -56s116 21.333 154 64s57 99.667 57 171v614h292z" />
    <glyph glyph-name="v" unicode="v" horiz-adv-x="1081" 
d="M1075 1072l-368 -1072h-330l-371 1072h313l223 -814h6l222 814h305z" />
    <glyph glyph-name="w" unicode="w" horiz-adv-x="1618" 
d="M1599 1072l-284 -1072h-311l-194 758h-6l-193 -758h-307l-285 1072h294l162 -795h6l190 795h280l191 -795h6l163 795h288z" />
    <glyph glyph-name="x" unicode="x" horiz-adv-x="1081" 
d="M536 372h-6l-201 -372h-307l336 534l-334 538h329l193 -362h6l190 362h318l-335 -530l332 -542h-317z" />
    <glyph glyph-name="y" unicode="y" horiz-adv-x="1112" 
d="M232 -397c-64 0 -100.666 1 -109.999 3v225c6 -1.33301 30.333 -2 73 -2c54 0 95 9.16699 123 27.5s47 48.833 57 91.5c0 0.666992 1.66699 9 5 25s4.66602 24.667 3.99902 26l-373 1073h321l228 -838h5l228 838h308l-369 -1096
c-46 -137.333 -106.5 -233.833 -181.5 -289.5s-181.167 -83.5 -318.5 -83.5z" />
    <glyph glyph-name="z" unicode="z" horiz-adv-x="1035" 
d="M75 0v166l534 677v6h-526v223h865v-185l-502 -658v-5h514v-224h-885z" />
    <glyph glyph-name="braceleft" unicode="{" horiz-adv-x="782" 
d="M277 551c85.333 -9.33301 150.333 -35.166 195 -77.499s67 -99.5 67 -171.5v-205c0 -70.667 13.167 -120.834 39.5 -150.501s71.166 -44.5 134.499 -44.5h44v-212h-74c-148 0 -255.333 30 -322 90s-100 156 -100 288v156c0 73.333 -18 125.5 -54 156.5
s-96.667 46.833 -182 47.5v278c85.333 0.666992 146 16.5 182 47.5s54 83.167 54 156.5v160c0 130.667 33.333 225.5 100 284.5s174 88.5 322 88.5h74v-212h-44c-63.333 0 -108.166 -14.833 -134.499 -44.5s-39.5 -79.834 -39.5 -150.501v-204
c0 -72 -22.333 -129.167 -67 -171.5s-109.667 -68.166 -195 -77.499v-32z" />
    <glyph glyph-name="bar" unicode="|" horiz-adv-x="782" 
d="M528 -310h-273v1753h273v-1753z" />
    </font>
</defs>
</svg>
