<?xml version="1.0" standalone="no"?>
<!DOCTYPE svg PUBLIC "-//W3C//DTD SVG 1.1//EN" "http://www.w3.org/Graphics/SVG/1.1/DTD/svg11.dtd" >
<svg>
<metadata>
Created by FontForge 20090914 at Thu Oct 14 05:00:33 2021
 By www-data
&#194;&#169; 2015-2017 Apple Inc. All rights reserved.
</metadata>
<defs>
<font id="SFProDisplay-Regular" horiz-adv-x="1680" >
  <font-face 
    font-family="SF Pro Display"
    font-weight="400"
    font-stretch="normal"
    units-per-em="2048"
    panose-1="0 0 5 0 0 0 0 0 0 0"
    ascent="1638"
    descent="-410"
    x-height="1040"
    cap-height="1443"
    bbox="-545 -494 2564 2200"
    underline-thickness="120"
    underline-position="-370"
    unicode-range="U+0020-U+1F189"
  />
<missing-glyph horiz-adv-x="2048" 
d="M100 -494v284h1848v-284h-1848zM100 -62v284h1848v-284h-1848zM100 370v284h1848v-284h-1848zM100 802v284h1848v-284h-1848zM100 1234v284h1848v-284h-1848zM100 1666v284h1848v-284h-1848z" />
    <glyph glyph-name="uni2460" unicode="&#x31;&#x20dd;" 
d="M939 388h-130v571h-6l-166 -114v117l172 119h130v-693zM840 78c117.333 0 224.666 28.667 321.999 86s173.833 135.166 229.5 233.499s83.5 205.833 83.5 322.5s-27.833 224.167 -83.5 322.5s-132.167 176.166 -229.5 233.499s-204.666 86 -321.999 86
s-224.666 -28.667 -321.999 -86s-173.833 -135.166 -229.5 -233.499s-83.5 -205.833 -83.5 -322.5s27.833 -224.167 83.5 -322.5s132.167 -176.166 229.5 -233.499s204.666 -86 321.999 -86zM840 -50c-104 0 -203.667 20.5 -299 61.5s-177.333 95.833 -246 164.5
s-123.5 150.667 -164.5 246s-61.5 195 -61.5 299s20.5 203.667 61.5 299s95.833 177.333 164.5 246s150.667 123.5 246 164.5s195 61.5 299 61.5s203.667 -20.5 299 -61.5s177.333 -95.833 246 -164.5s123.5 -150.667 164.5 -246s61.5 -195 61.5 -299
s-20.5 -203.667 -61.5 -299s-95.833 -177.333 -164.5 -246s-150.667 -123.5 -246 -164.5s-195 -61.5 -299 -61.5z" />
    <glyph glyph-name="uni2461" unicode="&#x32;&#x20dd;" 
d="M722 878l-123.999 -0.000976562v6c0 57.333 21.167 106.666 63.5 147.999s102.166 62 179.499 62c72 0 130.167 -18.167 174.5 -54.5s66.5 -82.5 66.5 -138.5c0 -22 -3 -42.5 -9 -61.5s-16.5 -38.667 -31.5 -59s-27.167 -35.833 -36.5 -46.5s-25.666 -28 -48.999 -52
l-174 -185v-6h313v-103h-492v77l268 280c17.333 17.333 30.833 31.833 40.5 43.5s19 26.834 28 45.501s13.5 37.334 13.5 56.001c0 30 -10.833 54.667 -32.5 74s-48.834 29 -81.501 29c-36 0 -64.5 -10.5 -85.5 -31.5s-31.5 -46.833 -31.5 -77.5v-6zM840.001 77.999
c117.333 0 224.666 28.667 321.999 86s173.833 135.166 229.5 233.499s83.5 205.833 83.5 322.5s-27.833 224.167 -83.5 322.5s-132.167 176.166 -229.5 233.499s-204.666 86 -321.999 86s-224.666 -28.667 -321.999 -86s-173.833 -135.166 -229.5 -233.499
s-83.5 -205.833 -83.5 -322.5s27.833 -224.167 83.5 -322.5s132.167 -176.166 229.5 -233.499s204.666 -86 321.999 -86zM840.001 -50.001c-104 0 -203.667 20.5 -299 61.5s-177.333 95.833 -246 164.5s-123.5 150.667 -164.5 246s-61.5 195 -61.5 299
s20.5 203.667 61.5 299s95.833 177.333 164.5 246s150.667 123.5 246 164.5s195 61.5 299 61.5s203.667 -20.5 299 -61.5s177.333 -95.833 246 -164.5s123.5 -150.667 164.5 -246s61.5 -195 61.5 -299s-20.5 -203.667 -61.5 -299s-95.833 -177.333 -164.5 -246
s-150.667 -123.5 -246 -164.5s-195 -61.5 -299 -61.5z" />
    <glyph glyph-name="uni2462" unicode="&#x33;&#x20dd;" 
d="M760 696l0.00390625 98.002h77c34 0 62.167 9.83301 84.5 29.5s33.5 44.167 33.5 73.5c-0.666992 28.667 -12 52.334 -34 71.001s-50 28 -84 28s-62 -8.83301 -84 -26.5s-33.667 -38.5 -35 -62.5h-122c1.33301 53.333 23.666 97.666 66.999 132.999
s102.333 53.333 177 54c72.667 0 131.167 -16.667 175.5 -50s67.166 -76.333 68.499 -129c0.666992 -44.667 -13.5 -81.334 -42.5 -110.001s-59.833 -45.667 -92.5 -51v-6c39.333 -4 75.166 -20.167 107.499 -48.5s48.833 -67.833 49.5 -118.5
c0.666992 -62 -24.833 -111.833 -76.5 -149.5s-116.167 -56.5 -193.5 -56.5c-76.667 0 -137.834 17.833 -183.501 53.5s-69.5 80.5 -71.5 134.5h120c2.66699 -26 16.5 -47.333 41.5 -64s56.5 -25.334 94.5 -26.001c41.333 0 75 10.667 101 32s39 48.333 39 81
c-1.33301 32.667 -14.333 59.167 -39 79.5s-57 30.5 -97 30.5h-81zM840.004 78.002c117.333 0 224.666 28.667 321.999 86s173.833 135.166 229.5 233.499s83.5 205.833 83.5 322.5s-27.833 224.167 -83.5 322.5s-132.167 176.166 -229.5 233.499s-204.666 86 -321.999 86
s-224.666 -28.667 -321.999 -86s-173.833 -135.166 -229.5 -233.499s-83.5 -205.833 -83.5 -322.5s27.833 -224.167 83.5 -322.5s132.167 -176.166 229.5 -233.499s204.666 -86 321.999 -86zM840.004 -49.998c-104 0 -203.667 20.5 -299 61.5s-177.333 95.833 -246 164.5
s-123.5 150.667 -164.5 246s-61.5 195 -61.5 299s20.5 203.667 61.5 299s95.833 177.333 164.5 246s150.667 123.5 246 164.5s195 61.5 299 61.5s203.667 -20.5 299 -61.5s177.333 -95.833 246 -164.5s123.5 -150.667 164.5 -246s61.5 -195 61.5 -299
s-20.5 -203.667 -61.5 -299s-95.833 -177.333 -164.5 -246s-150.667 -123.5 -246 -164.5s-195 -61.5 -299 -61.5z" />
    <glyph glyph-name="uni2463" unicode="&#x34;&#x20dd;" 
d="M815 1081h189v-458h91v-102h-91v-133h-123v133h-352v103c20 36 43.167 75.167 69.5 117.5l68 108.5l77 119.5zM650 623h231v361h-6c-90 -132 -165 -251 -225 -357v-4zM840 78c117.333 0 224.666 28.667 321.999 86s173.833 135.166 229.5 233.499
s83.5 205.833 83.5 322.5s-27.833 224.167 -83.5 322.5s-132.167 176.166 -229.5 233.499s-204.666 86 -321.999 86s-224.666 -28.667 -321.999 -86s-173.833 -135.166 -229.5 -233.499s-83.5 -205.833 -83.5 -322.5s27.833 -224.167 83.5 -322.5
s132.167 -176.166 229.5 -233.499s204.666 -86 321.999 -86zM840 -50c-104 0 -203.667 20.5 -299 61.5s-177.333 95.833 -246 164.5s-123.5 150.667 -164.5 246s-61.5 195 -61.5 299s20.5 203.667 61.5 299s95.833 177.333 164.5 246s150.667 123.5 246 164.5
s195 61.5 299 61.5s203.667 -20.5 299 -61.5s177.333 -95.833 246 -164.5s123.5 -150.667 164.5 -246s61.5 -195 61.5 -299s-20.5 -203.667 -61.5 -299s-95.833 -177.333 -164.5 -246s-150.667 -123.5 -246 -164.5s-195 -61.5 -299 -61.5z" />
    <glyph glyph-name="uni2464" unicode="&#x35;&#x20dd;" 
d="M592 562l121.001 -0.000976562c6 -28.667 21.5 -50.334 46.5 -65.001s54.5 -22 88.5 -22c37.333 0 69.666 12.833 96.999 38.5s41 59.834 41 102.501c0 38.667 -13.5 70.167 -40.5 94.5s-59.833 36.5 -98.5 36.5c-30.667 0 -57 -6.83301 -79 -20.5
s-37.667 -29.5 -47 -47.5h-114l32 402h434v-102h-329l-17 -195h6c10 14 27.833 27.5 53.5 40.5s56.834 19.5 93.501 19.5c66 0 121.333 -20.167 166 -60.5s67 -95.166 67 -164.499c0 -72.667 -24.833 -131.5 -74.5 -176.5s-114.834 -67.5 -195.501 -67.5
c-72 0 -131 17.667 -177 53s-70.667 80 -74 134zM840.001 77.999c117.333 0 224.666 28.667 321.999 86s173.833 135.166 229.5 233.499s83.5 205.833 83.5 322.5s-27.833 224.167 -83.5 322.5s-132.167 176.166 -229.5 233.499s-204.666 86 -321.999 86
s-224.666 -28.667 -321.999 -86s-173.833 -135.166 -229.5 -233.499s-83.5 -205.833 -83.5 -322.5s27.833 -224.167 83.5 -322.5s132.167 -176.166 229.5 -233.499s204.666 -86 321.999 -86zM840.001 -50.001c-104 0 -203.667 20.5 -299 61.5s-177.333 95.833 -246 164.5
s-123.5 150.667 -164.5 246s-61.5 195 -61.5 299s20.5 203.667 61.5 299s95.833 177.333 164.5 246s150.667 123.5 246 164.5s195 61.5 299 61.5s203.667 -20.5 299 -61.5s177.333 -95.833 246 -164.5s123.5 -150.667 164.5 -246s61.5 -195 61.5 -299
s-20.5 -203.667 -61.5 -299s-95.833 -177.333 -164.5 -246s-150.667 -123.5 -246 -164.5s-195 -61.5 -299 -61.5z" />
    <glyph glyph-name="uni2465" unicode="&#x36;&#x20dd;" 
d="M1089 926l-125.001 0.000976562c-5.33301 18 -17.833 33.833 -37.5 47.5s-45.5 20.5 -77.5 20.5c-48.667 0 -87.334 -22.833 -116.001 -68.5s-42.667 -107.834 -42 -186.501h7c12 27.333 33.167 50.666 63.5 69.999s68.5 29 114.5 29c62 0 115.5 -19.667 160.5 -59
s67.5 -93.666 67.5 -162.999c0 -74.667 -24.333 -133.5 -73 -176.5s-112 -64.5 -190 -64.5c-100.667 0 -174.667 36.667 -222 110c-36 56 -54 132.333 -54 229c0 126 25.5 220.667 76.5 284s120.833 95 209.5 95c70.667 0 127.334 -17 170.001 -51
s65.334 -72.667 68.001 -116zM705.999 611.001c0 -42 13 -75.333 39 -100s58.333 -37 97 -37c40 0 72.667 11.833 98 35.5s38 57.167 38 100.5c0 42 -13.167 74.5 -39.5 97.5s-58.5 34.5 -96.5 34.5c-40 0 -72.667 -12.167 -98 -36.5s-38 -55.833 -38 -94.5zM839.999 78.001
c117.333 0 224.666 28.667 321.999 86s173.833 135.166 229.5 233.499s83.5 205.833 83.5 322.5s-27.833 224.167 -83.5 322.5s-132.167 176.166 -229.5 233.499s-204.666 86 -321.999 86s-224.666 -28.667 -321.999 -86s-173.833 -135.166 -229.5 -233.499
s-83.5 -205.833 -83.5 -322.5s27.833 -224.167 83.5 -322.5s132.167 -176.166 229.5 -233.499s204.666 -86 321.999 -86zM839.999 -49.999c-104 0 -203.667 20.5 -299 61.5s-177.333 95.833 -246 164.5s-123.5 150.667 -164.5 246s-61.5 195 -61.5 299
s20.5 203.667 61.5 299s95.833 177.333 164.5 246s150.667 123.5 246 164.5s195 61.5 299 61.5s203.667 -20.5 299 -61.5s177.333 -95.833 246 -164.5s123.5 -150.667 164.5 -246s61.5 -195 61.5 -299s-20.5 -203.667 -61.5 -299s-95.833 -177.333 -164.5 -246
s-150.667 -123.5 -246 -164.5s-195 -61.5 -299 -61.5z" />
    <glyph glyph-name="uni2466" unicode="&#x37;&#x20dd;" 
d="M612 1071h491v-105l-296 -588h-137l301 584v6h-359v103zM840 78c117.333 0 224.666 28.667 321.999 86s173.833 135.166 229.5 233.499s83.5 205.833 83.5 322.5s-27.833 224.167 -83.5 322.5s-132.167 176.166 -229.5 233.499s-204.666 86 -321.999 86
s-224.666 -28.667 -321.999 -86s-173.833 -135.166 -229.5 -233.499s-83.5 -205.833 -83.5 -322.5s27.833 -224.167 83.5 -322.5s132.167 -176.166 229.5 -233.499s204.666 -86 321.999 -86zM840 -50c-104 0 -203.667 20.5 -299 61.5s-177.333 95.833 -246 164.5
s-123.5 150.667 -164.5 246s-61.5 195 -61.5 299s20.5 203.667 61.5 299s95.833 177.333 164.5 246s150.667 123.5 246 164.5s195 61.5 299 61.5s203.667 -20.5 299 -61.5s177.333 -95.833 246 -164.5s123.5 -150.667 164.5 -246s61.5 -195 61.5 -299
s-20.5 -203.667 -61.5 -299s-95.833 -177.333 -164.5 -246s-150.667 -123.5 -246 -164.5s-195 -61.5 -299 -61.5z" />
    <glyph glyph-name="uni2467" unicode="&#x38;&#x20dd;" 
d="M840 467c42 0 76.667 11.167 104 33.5s41 50.833 41 85.5s-13.5 63.167 -40.5 85.5s-61.833 33.5 -104.5 33.5c-42 0 -76.833 -11.333 -104.5 -34s-41.5 -51 -41.5 -85c0 -34.667 13.667 -63.167 41 -85.5s62.333 -33.5 105 -33.5zM840 793
c35.333 0 64.333 9.83301 87 29.5s34 44.834 34 75.501s-11.333 55.5 -34 74.5s-51.667 28.5 -87 28.5s-64.333 -9.5 -87 -28.5s-34 -43.833 -34 -74.5s11.333 -55.834 34 -75.501s51.667 -29.5 87 -29.5zM838 375c-81.333 0 -147.167 18.666 -197.5 55.999
s-75.5 86.333 -75.5 147c0 42.667 13.833 79.834 41.5 111.501s64.167 52.167 109.5 61.5v5c-38 12 -67.833 31.667 -89.5 59s-32.5 59.333 -32.5 96c0 53.333 23 97.166 69 131.499s105 51.5 177 51.5s131 -17.167 177 -51.5s69 -78.166 69 -131.499
c0 -36.667 -11 -69 -33 -97s-51.667 -47.333 -89 -58v-5c45.333 -9.33301 81.833 -29.666 109.5 -60.999s41.5 -68.333 41.5 -111c0 -60.667 -25.667 -109.834 -77 -147.501s-118 -56.5 -200 -56.5zM839.999 77.999c117.333 0 224.666 28.667 321.999 86
s173.833 135.166 229.5 233.499s83.5 205.833 83.5 322.5s-27.833 224.167 -83.5 322.5s-132.167 176.166 -229.5 233.499s-204.666 86 -321.999 86s-224.666 -28.667 -321.999 -86s-173.833 -135.166 -229.5 -233.499s-83.5 -205.833 -83.5 -322.5
s27.833 -224.167 83.5 -322.5s132.167 -176.166 229.5 -233.499s204.666 -86 321.999 -86zM839.999 -50.001c-104 0 -203.667 20.5 -299 61.5s-177.333 95.833 -246 164.5s-123.5 150.667 -164.5 246s-61.5 195 -61.5 299s20.5 203.667 61.5 299s95.833 177.333 164.5 246
s150.667 123.5 246 164.5s195 61.5 299 61.5s203.667 -20.5 299 -61.5s177.333 -95.833 246 -164.5s123.5 -150.667 164.5 -246s61.5 -195 61.5 -299s-20.5 -203.667 -61.5 -299s-95.833 -177.333 -164.5 -246s-150.667 -123.5 -246 -164.5s-195 -61.5 -299 -61.5z" />
    <glyph glyph-name="uni2468" unicode="&#x39;&#x20dd;" 
d="M577 858c0 72.667 24.666 130.167 73.999 172.5s112.666 63.5 189.999 63.5c38 0 72.5 -5.66699 103.5 -17s59.667 -29.5 86 -54.5s47 -61 62 -108s22.5 -102.833 22.5 -167.5c0 -247.333 -95.667 -371 -287 -371c-70 0 -125.333 15.833 -166 47.5s-63 69.167 -67 112.5
h125c4.66699 -16 16.834 -30.167 36.501 -42.5s44.167 -18.5 73.5 -18.5c56.667 0 98.5 23.5 125.5 70.5s38.833 107.833 35.5 182.5h-6c-11.333 -28.667 -32.166 -52.5 -62.499 -71.5s-67.833 -28.5 -112.5 -28.5c-65.333 0 -120.5 20.5 -165.5 61.5
s-67.5 97.167 -67.5 168.5zM971.999 857c0 43.333 -12.668 77.334 -38.001 102.001s-58 37 -98 37c-38 0 -69.667 -12.333 -95 -37s-38 -58 -38 -100c0 -42.667 12.833 -75.834 38.5 -99.501s57.834 -35.5 96.501 -35.5c38 0 69.833 11.667 95.5 35s38.5 56 38.5 98z
M839.998 78.001c117.333 0 224.666 28.667 321.999 86s173.833 135.166 229.5 233.499s83.5 205.833 83.5 322.5s-27.833 224.167 -83.5 322.5s-132.167 176.166 -229.5 233.499s-204.666 86 -321.999 86s-224.666 -28.667 -321.999 -86s-173.833 -135.166 -229.5 -233.499
s-83.5 -205.833 -83.5 -322.5s27.833 -224.167 83.5 -322.5s132.167 -176.166 229.5 -233.499s204.666 -86 321.999 -86zM839.998 -49.999c-104 0 -203.667 20.5 -299 61.5s-177.333 95.833 -246 164.5s-123.5 150.667 -164.5 246s-61.5 195 -61.5 299
s20.5 203.667 61.5 299s95.833 177.333 164.5 246s150.667 123.5 246 164.5s195 61.5 299 61.5s203.667 -20.5 299 -61.5s177.333 -95.833 246 -164.5s123.5 -150.667 164.5 -246s61.5 -195 61.5 -299s-20.5 -203.667 -61.5 -299s-95.833 -177.333 -164.5 -246
s-150.667 -123.5 -246 -164.5s-195 -61.5 -299 -61.5z" />
    <glyph glyph-name="uni24B6" unicode="A&#x20dd;" 
d="M740 688h200l-95 287h-10zM650 408h-132l248 693h148l248 -693h-132l-62 186h-256zM840 78c117.333 0 224.666 28.667 321.999 86s173.833 135.166 229.5 233.499s83.5 205.833 83.5 322.5s-27.833 224.167 -83.5 322.5s-132.167 176.166 -229.5 233.499
s-204.666 86 -321.999 86s-224.666 -28.667 -321.999 -86s-173.833 -135.166 -229.5 -233.499s-83.5 -205.833 -83.5 -322.5s27.833 -224.167 83.5 -322.5s132.167 -176.166 229.5 -233.499s204.666 -86 321.999 -86zM840 -50c-104 0 -203.667 20.5 -299 61.5
s-177.333 95.833 -246 164.5s-123.5 150.667 -164.5 246s-61.5 195 -61.5 299s20.5 203.667 61.5 299s95.833 177.333 164.5 246s150.667 123.5 246 164.5s195 61.5 299 61.5s203.667 -20.5 299 -61.5s177.333 -95.833 246 -164.5s123.5 -150.667 164.5 -246
s61.5 -195 61.5 -299s-20.5 -203.667 -61.5 -299s-95.833 -177.333 -164.5 -246s-150.667 -123.5 -246 -164.5s-195 -61.5 -299 -61.5z" />
    <glyph glyph-name="uni24B7" unicode="B&#x20dd;" 
d="M603 388v693h294c64.667 0 116 -15.333 154 -46s57 -72.334 57 -125.001c0 -40 -11 -73 -33 -99s-51.667 -43.667 -89 -53v-5c47.333 -5.33301 86 -22.666 116 -51.999s45 -68.666 45 -117.999c0 -60.667 -23.167 -108.334 -69.5 -143.001s-107.5 -52 -183.5 -52h-291z
M732 984l0.000976562 -194h98c100 0 150 33 150 99c0 29.333 -9.83301 52.5 -29.5 69.5s-46.834 25.5 -81.501 25.5h-137zM732.001 700v-215.001h111c60 0 103.5 8.5 130.5 25.5s40.5 43.167 40.5 78.5c0 34.667 -11.833 61.834 -35.5 81.501s-57.167 29.5 -100.5 29.5h-146
zM840.001 77.999c117.333 0 224.666 28.667 321.999 86s173.833 135.166 229.5 233.499s83.5 205.833 83.5 322.5s-27.833 224.167 -83.5 322.5s-132.167 176.166 -229.5 233.499s-204.666 86 -321.999 86s-224.666 -28.667 -321.999 -86s-173.833 -135.166 -229.5 -233.499
s-83.5 -205.833 -83.5 -322.5s27.833 -224.167 83.5 -322.5s132.167 -176.166 229.5 -233.499s204.666 -86 321.999 -86zM840.001 -50.001c-104 0 -203.667 20.5 -299 61.5s-177.333 95.833 -246 164.5s-123.5 150.667 -164.5 246s-61.5 195 -61.5 299
s20.5 203.667 61.5 299s95.833 177.333 164.5 246s150.667 123.5 246 164.5s195 61.5 299 61.5s203.667 -20.5 299 -61.5s177.333 -95.833 246 -164.5s123.5 -150.667 164.5 -246s61.5 -195 61.5 -299s-20.5 -203.667 -61.5 -299s-95.833 -177.333 -164.5 -246
s-150.667 -123.5 -246 -164.5s-195 -61.5 -299 -61.5z" />
    <glyph glyph-name="uni24B8" unicode="C&#x20dd;" 
d="M1008 606l132 0.00292969c-10.667 -70 -43.334 -126 -98.001 -168s-122.667 -63 -204 -63c-96.667 0 -174.834 33 -234.501 99s-89.5 152.667 -89.5 260s29.833 194.166 89.5 260.499s137.834 99.5 234.501 99.5c83.333 0 152.5 -21.833 207.5 -65.5
s87.167 -101.834 96.5 -174.501h-130c-5.33301 39.333 -24.166 71.666 -56.499 96.999s-70.833 38 -115.5 38c-58.667 0 -105.667 -23.333 -141 -70s-53 -108.334 -53 -185.001s17.667 -138.167 53 -184.5s82.333 -69.5 141 -69.5c43.333 0 80.833 11.833 112.5 35.5
s50.167 53.834 55.5 90.501zM840 78.0029c117.333 0 224.666 28.667 321.999 86s173.833 135.166 229.5 233.499s83.5 205.833 83.5 322.5s-27.833 224.167 -83.5 322.5s-132.167 176.166 -229.5 233.499s-204.666 86 -321.999 86s-224.666 -28.667 -321.999 -86
s-173.833 -135.166 -229.5 -233.499s-83.5 -205.833 -83.5 -322.5s27.833 -224.167 83.5 -322.5s132.167 -176.166 229.5 -233.499s204.666 -86 321.999 -86zM840 -49.9971c-104 0 -203.667 20.5 -299 61.5s-177.333 95.833 -246 164.5s-123.5 150.667 -164.5 246
s-61.5 195 -61.5 299s20.5 203.667 61.5 299s95.833 177.333 164.5 246s150.667 123.5 246 164.5s195 61.5 299 61.5s203.667 -20.5 299 -61.5s177.333 -95.833 246 -164.5s123.5 -150.667 164.5 -246s61.5 -195 61.5 -299s-20.5 -203.667 -61.5 -299
s-95.833 -177.333 -164.5 -246s-150.667 -123.5 -246 -164.5s-195 -61.5 -299 -61.5z" />
    <glyph glyph-name="uni24B9" unicode="D&#x20dd;" 
d="M596 1081h256c107.333 0 188 -29.5 242 -88.5s81 -144.5 81 -256.5s-27 -198 -81 -258s-134.667 -90 -242 -90h-256v693zM726 978v-487h110c136.667 0 205 81 205 243c0 162.667 -68.333 244 -205 244h-110zM840 78c117.333 0 224.666 28.667 321.999 86
s173.833 135.166 229.5 233.499s83.5 205.833 83.5 322.5s-27.833 224.167 -83.5 322.5s-132.167 176.166 -229.5 233.499s-204.666 86 -321.999 86s-224.666 -28.667 -321.999 -86s-173.833 -135.166 -229.5 -233.499s-83.5 -205.833 -83.5 -322.5
s27.833 -224.167 83.5 -322.5s132.167 -176.166 229.5 -233.499s204.666 -86 321.999 -86zM840 -50c-104 0 -203.667 20.5 -299 61.5s-177.333 95.833 -246 164.5s-123.5 150.667 -164.5 246s-61.5 195 -61.5 299s20.5 203.667 61.5 299s95.833 177.333 164.5 246
s150.667 123.5 246 164.5s195 61.5 299 61.5s203.667 -20.5 299 -61.5s177.333 -95.833 246 -164.5s123.5 -150.667 164.5 -246s61.5 -195 61.5 -299s-20.5 -203.667 -61.5 -299s-95.833 -177.333 -164.5 -246s-150.667 -123.5 -246 -164.5s-195 -61.5 -299 -61.5z" />
    <glyph glyph-name="uni24BA" unicode="E&#x20dd;" 
d="M1075 491v-103h-459v693h459v-103h-330v-190h311v-98h-311v-199h330zM840 78c117.333 0 224.666 28.667 321.999 86s173.833 135.166 229.5 233.499s83.5 205.833 83.5 322.5s-27.833 224.167 -83.5 322.5s-132.167 176.166 -229.5 233.499s-204.666 86 -321.999 86
s-224.666 -28.667 -321.999 -86s-173.833 -135.166 -229.5 -233.499s-83.5 -205.833 -83.5 -322.5s27.833 -224.167 83.5 -322.5s132.167 -176.166 229.5 -233.499s204.666 -86 321.999 -86zM840 -50c-104 0 -203.667 20.5 -299 61.5s-177.333 95.833 -246 164.5
s-123.5 150.667 -164.5 246s-61.5 195 -61.5 299s20.5 203.667 61.5 299s95.833 177.333 164.5 246s150.667 123.5 246 164.5s195 61.5 299 61.5s203.667 -20.5 299 -61.5s177.333 -95.833 246 -164.5s123.5 -150.667 164.5 -246s61.5 -195 61.5 -299
s-20.5 -203.667 -61.5 -299s-95.833 -177.333 -164.5 -246s-150.667 -123.5 -246 -164.5s-195 -61.5 -299 -61.5z" />
    <glyph glyph-name="uni24BB" unicode="F&#x20dd;" 
d="M778 388h-131v693h454v-104h-323v-205h295v-102h-295v-282zM840 78c117.333 0 224.666 28.667 321.999 86s173.833 135.166 229.5 233.499s83.5 205.833 83.5 322.5s-27.833 224.167 -83.5 322.5s-132.167 176.166 -229.5 233.499s-204.666 86 -321.999 86
s-224.666 -28.667 -321.999 -86s-173.833 -135.166 -229.5 -233.499s-83.5 -205.833 -83.5 -322.5s27.833 -224.167 83.5 -322.5s132.167 -176.166 229.5 -233.499s204.666 -86 321.999 -86zM840 -50c-104 0 -203.667 20.5 -299 61.5s-177.333 95.833 -246 164.5
s-123.5 150.667 -164.5 246s-61.5 195 -61.5 299s20.5 203.667 61.5 299s95.833 177.333 164.5 246s150.667 123.5 246 164.5s195 61.5 299 61.5s203.667 -20.5 299 -61.5s177.333 -95.833 246 -164.5s123.5 -150.667 164.5 -246s61.5 -195 61.5 -299
s-20.5 -203.667 -61.5 -299s-95.833 -177.333 -164.5 -246s-150.667 -123.5 -246 -164.5s-195 -61.5 -299 -61.5z" />
    <glyph glyph-name="uni24BC" unicode="G&#x20dd;" 
d="M1011 604v57h-160v95h284v-122c0 -78 -25.5 -140.667 -76.5 -188s-123.833 -71 -218.5 -71c-97.333 0 -176 33.167 -236 99.5s-90 152.833 -90 259.5c0 107.333 30.167 194.166 90.5 260.499s138.833 99.5 235.5 99.5c81.333 0 149.333 -21 204 -63
s86.667 -97.667 96 -167h-130c-5.33301 36 -24 65.833 -56 89.5s-69.333 35.5 -112 35.5c-59.333 0 -106.833 -23.167 -142.5 -69.5s-53.5 -108.166 -53.5 -185.499s17.833 -139 53.5 -185s83.167 -69 142.5 -69c54 0 95.667 11.333 125 34s44 52.667 44 90zM840 78
c117.333 0 224.666 28.667 321.999 86s173.833 135.166 229.5 233.499s83.5 205.833 83.5 322.5s-27.833 224.167 -83.5 322.5s-132.167 176.166 -229.5 233.499s-204.666 86 -321.999 86s-224.666 -28.667 -321.999 -86s-173.833 -135.166 -229.5 -233.499
s-83.5 -205.833 -83.5 -322.5s27.833 -224.167 83.5 -322.5s132.167 -176.166 229.5 -233.499s204.666 -86 321.999 -86zM840 -50c-104 0 -203.667 20.5 -299 61.5s-177.333 95.833 -246 164.5s-123.5 150.667 -164.5 246s-61.5 195 -61.5 299s20.5 203.667 61.5 299
s95.833 177.333 164.5 246s150.667 123.5 246 164.5s195 61.5 299 61.5s203.667 -20.5 299 -61.5s177.333 -95.833 246 -164.5s123.5 -150.667 164.5 -246s61.5 -195 61.5 -299s-20.5 -203.667 -61.5 -299s-95.833 -177.333 -164.5 -246s-150.667 -123.5 -246 -164.5
s-195 -61.5 -299 -61.5z" />
    <glyph glyph-name="uni24BD" unicode="H&#x20dd;" 
d="M1131 388h-130v304h-321v-304h-130v693h130v-286h321v286h130v-693zM840 78c117.333 0 224.666 28.667 321.999 86s173.833 135.166 229.5 233.499s83.5 205.833 83.5 322.5s-27.833 224.167 -83.5 322.5s-132.167 176.166 -229.5 233.499s-204.666 86 -321.999 86
s-224.666 -28.667 -321.999 -86s-173.833 -135.166 -229.5 -233.499s-83.5 -205.833 -83.5 -322.5s27.833 -224.167 83.5 -322.5s132.167 -176.166 229.5 -233.499s204.666 -86 321.999 -86zM840 -50c-104 0 -203.667 20.5 -299 61.5s-177.333 95.833 -246 164.5
s-123.5 150.667 -164.5 246s-61.5 195 -61.5 299s20.5 203.667 61.5 299s95.833 177.333 164.5 246s150.667 123.5 246 164.5s195 61.5 299 61.5s203.667 -20.5 299 -61.5s177.333 -95.833 246 -164.5s123.5 -150.667 164.5 -246s61.5 -195 61.5 -299
s-20.5 -203.667 -61.5 -299s-95.833 -177.333 -164.5 -246s-150.667 -123.5 -246 -164.5s-195 -61.5 -299 -61.5z" />
    <glyph glyph-name="uni24BE" unicode="I&#x20dd;" 
d="M906 388h-132v693h132v-693zM840 78c117.333 0 224.666 28.667 321.999 86s173.833 135.166 229.5 233.499s83.5 205.833 83.5 322.5s-27.833 224.167 -83.5 322.5s-132.167 176.166 -229.5 233.499s-204.666 86 -321.999 86s-224.666 -28.667 -321.999 -86
s-173.833 -135.166 -229.5 -233.499s-83.5 -205.833 -83.5 -322.5s27.833 -224.167 83.5 -322.5s132.167 -176.166 229.5 -233.499s204.666 -86 321.999 -86zM840 -50c-104 0 -203.667 20.5 -299 61.5s-177.333 95.833 -246 164.5s-123.5 150.667 -164.5 246
s-61.5 195 -61.5 299s20.5 203.667 61.5 299s95.833 177.333 164.5 246s150.667 123.5 246 164.5s195 61.5 299 61.5s203.667 -20.5 299 -61.5s177.333 -95.833 246 -164.5s123.5 -150.667 164.5 -246s61.5 -195 61.5 -299s-20.5 -203.667 -61.5 -299
s-95.833 -177.333 -164.5 -246s-150.667 -123.5 -246 -164.5s-195 -61.5 -299 -61.5z" />
    <glyph glyph-name="uni24BF" unicode="J&#x20dd;" 
d="M576 576h126.001c0.666992 -27.333 10.167 -49.333 28.5 -66s42.166 -25 71.499 -25c35.333 0 62 10 80 30s27 48.333 27 85v481h130v-477c0 -73.333 -20.833 -129.833 -62.5 -169.5s-99.5 -59.5 -173.5 -59.5c-71.333 0 -127 19 -167 57s-60 86 -60 144zM840.001 78
c117.333 0 224.666 28.667 321.999 86s173.833 135.166 229.5 233.499s83.5 205.833 83.5 322.5s-27.833 224.167 -83.5 322.5s-132.167 176.166 -229.5 233.499s-204.666 86 -321.999 86s-224.666 -28.667 -321.999 -86s-173.833 -135.166 -229.5 -233.499
s-83.5 -205.833 -83.5 -322.5s27.833 -224.167 83.5 -322.5s132.167 -176.166 229.5 -233.499s204.666 -86 321.999 -86zM840.001 -50c-104 0 -203.667 20.5 -299 61.5s-177.333 95.833 -246 164.5s-123.5 150.667 -164.5 246s-61.5 195 -61.5 299s20.5 203.667 61.5 299
s95.833 177.333 164.5 246s150.667 123.5 246 164.5s195 61.5 299 61.5s203.667 -20.5 299 -61.5s177.333 -95.833 246 -164.5s123.5 -150.667 164.5 -246s61.5 -195 61.5 -299s-20.5 -203.667 -61.5 -299s-95.833 -177.333 -164.5 -246s-150.667 -123.5 -246 -164.5
s-195 -61.5 -299 -61.5z" />
    <glyph glyph-name="uni24C0" unicode="K&#x20dd;" 
d="M1155 1081l-263 -297l274 -396h-158l-212 312l-78 -84v-228h-130v693h130v-317h5l287 317h145zM840 78c117.333 0 224.666 28.667 321.999 86s173.833 135.166 229.5 233.499s83.5 205.833 83.5 322.5s-27.833 224.167 -83.5 322.5s-132.167 176.166 -229.5 233.499
s-204.666 86 -321.999 86s-224.666 -28.667 -321.999 -86s-173.833 -135.166 -229.5 -233.499s-83.5 -205.833 -83.5 -322.5s27.833 -224.167 83.5 -322.5s132.167 -176.166 229.5 -233.499s204.666 -86 321.999 -86zM840 -50c-104 0 -203.667 20.5 -299 61.5
s-177.333 95.833 -246 164.5s-123.5 150.667 -164.5 246s-61.5 195 -61.5 299s20.5 203.667 61.5 299s95.833 177.333 164.5 246s150.667 123.5 246 164.5s195 61.5 299 61.5s203.667 -20.5 299 -61.5s177.333 -95.833 246 -164.5s123.5 -150.667 164.5 -246
s61.5 -195 61.5 -299s-20.5 -203.667 -61.5 -299s-95.833 -177.333 -164.5 -246s-150.667 -123.5 -246 -164.5s-195 -61.5 -299 -61.5z" />
    <glyph glyph-name="uni24C1" unicode="L&#x20dd;" 
d="M1108 495v-107h-446v693h131v-586h315zM840 78c117.333 0 224.666 28.667 321.999 86s173.833 135.166 229.5 233.499s83.5 205.833 83.5 322.5s-27.833 224.167 -83.5 322.5s-132.167 176.166 -229.5 233.499s-204.666 86 -321.999 86s-224.666 -28.667 -321.999 -86
s-173.833 -135.166 -229.5 -233.499s-83.5 -205.833 -83.5 -322.5s27.833 -224.167 83.5 -322.5s132.167 -176.166 229.5 -233.499s204.666 -86 321.999 -86zM840 -50c-104 0 -203.667 20.5 -299 61.5s-177.333 95.833 -246 164.5s-123.5 150.667 -164.5 246
s-61.5 195 -61.5 299s20.5 203.667 61.5 299s95.833 177.333 164.5 246s150.667 123.5 246 164.5s195 61.5 299 61.5s203.667 -20.5 299 -61.5s177.333 -95.833 246 -164.5s123.5 -150.667 164.5 -246s61.5 -195 61.5 -299s-20.5 -203.667 -61.5 -299
s-95.833 -177.333 -164.5 -246s-150.667 -123.5 -246 -164.5s-195 -61.5 -299 -61.5z" />
    <glyph glyph-name="uni24C2" unicode="M&#x20dd;" 
d="M608 388h-117v693h132l216 -533h4l216 533h130v-693h-117v473h-6l-180 -453h-91l-181 453h-6v-473zM840 78c117.333 0 224.666 28.667 321.999 86s173.833 135.166 229.5 233.499s83.5 205.833 83.5 322.5s-27.833 224.167 -83.5 322.5s-132.167 176.166 -229.5 233.499
s-204.666 86 -321.999 86s-224.666 -28.667 -321.999 -86s-173.833 -135.166 -229.5 -233.499s-83.5 -205.833 -83.5 -322.5s27.833 -224.167 83.5 -322.5s132.167 -176.166 229.5 -233.499s204.666 -86 321.999 -86zM840 -50c-104 0 -203.667 20.5 -299 61.5
s-177.333 95.833 -246 164.5s-123.5 150.667 -164.5 246s-61.5 195 -61.5 299s20.5 203.667 61.5 299s95.833 177.333 164.5 246s150.667 123.5 246 164.5s195 61.5 299 61.5s203.667 -20.5 299 -61.5s177.333 -95.833 246 -164.5s123.5 -150.667 164.5 -246
s61.5 -195 61.5 -299s-20.5 -203.667 -61.5 -299s-95.833 -177.333 -164.5 -246s-150.667 -123.5 -246 -164.5s-195 -61.5 -299 -61.5z" />
    <glyph glyph-name="uni24C3" unicode="N&#x20dd;" 
d="M678 388h-124v693h111l331 -482h6v482h124v-693h-111l-332 484h-5v-484zM840 78c117.333 0 224.666 28.667 321.999 86s173.833 135.166 229.5 233.499s83.5 205.833 83.5 322.5s-27.833 224.167 -83.5 322.5s-132.167 176.166 -229.5 233.499s-204.666 86 -321.999 86
s-224.666 -28.667 -321.999 -86s-173.833 -135.166 -229.5 -233.499s-83.5 -205.833 -83.5 -322.5s27.833 -224.167 83.5 -322.5s132.167 -176.166 229.5 -233.499s204.666 -86 321.999 -86zM840 -50c-104 0 -203.667 20.5 -299 61.5s-177.333 95.833 -246 164.5
s-123.5 150.667 -164.5 246s-61.5 195 -61.5 299s20.5 203.667 61.5 299s95.833 177.333 164.5 246s150.667 123.5 246 164.5s195 61.5 299 61.5s203.667 -20.5 299 -61.5s177.333 -95.833 246 -164.5s123.5 -150.667 164.5 -246s61.5 -195 61.5 -299
s-20.5 -203.667 -61.5 -299s-95.833 -177.333 -164.5 -246s-150.667 -123.5 -246 -164.5s-195 -61.5 -299 -61.5z" />
    <glyph glyph-name="uni24C4" unicode="O&#x20dd;" 
d="M840 480c56 0 102.333 22.5 139 67.5s55 107.167 55 186.5c0 80 -18.333 142.5 -55 187.5s-83 67.5 -139 67.5s-102.333 -22.5 -139 -67.5s-55 -107.5 -55 -187.5c0 -79.333 18.333 -141.5 55 -186.5s83 -67.5 139 -67.5zM840 375c-93.333 0 -171 32.167 -233 96.5
s-93 151.833 -93 262.5c0 111.333 31 199.166 93 263.499s139.667 96.5 233 96.5s171 -32.167 233 -96.5s93 -152.166 93 -263.499c0 -110.667 -31 -198.167 -93 -262.5s-139.667 -96.5 -233 -96.5zM840 78c117.333 0 224.666 28.667 321.999 86
s173.833 135.166 229.5 233.499s83.5 205.833 83.5 322.5s-27.833 224.167 -83.5 322.5s-132.167 176.166 -229.5 233.499s-204.666 86 -321.999 86s-224.666 -28.667 -321.999 -86s-173.833 -135.166 -229.5 -233.499s-83.5 -205.833 -83.5 -322.5
s27.833 -224.167 83.5 -322.5s132.167 -176.166 229.5 -233.499s204.666 -86 321.999 -86zM840 -50c-104 0 -203.667 20.5 -299 61.5s-177.333 95.833 -246 164.5s-123.5 150.667 -164.5 246s-61.5 195 -61.5 299s20.5 203.667 61.5 299s95.833 177.333 164.5 246
s150.667 123.5 246 164.5s195 61.5 299 61.5s203.667 -20.5 299 -61.5s177.333 -95.833 246 -164.5s123.5 -150.667 164.5 -246s61.5 -195 61.5 -299s-20.5 -203.667 -61.5 -299s-95.833 -177.333 -164.5 -246s-150.667 -123.5 -246 -164.5s-195 -61.5 -299 -61.5z" />
    <glyph glyph-name="uni24C5" unicode="P&#x20dd;" 
d="M902 1081c74.667 0 133.666 -21.332 176.999 -63.999s65 -97 65 -163c0 -66.667 -21.667 -120.834 -65 -162.501s-102.666 -62.5 -177.999 -62.5h-153v-241h-129v693h283zM1011 854.001c0 40 -11.5 71 -34.5 93s-55.167 33 -96.5 33h-132v-251h132
c41.333 0 73.5 10.833 96.5 32.5s34.5 52.5 34.5 92.5zM839.999 78.001c117.333 0 224.666 28.667 321.999 86s173.833 135.166 229.5 233.499s83.5 205.833 83.5 322.5s-27.833 224.167 -83.5 322.5s-132.167 176.166 -229.5 233.499s-204.666 86 -321.999 86
s-224.666 -28.667 -321.999 -86s-173.833 -135.166 -229.5 -233.499s-83.5 -205.833 -83.5 -322.5s27.833 -224.167 83.5 -322.5s132.167 -176.166 229.5 -233.499s204.666 -86 321.999 -86zM839.999 -49.999c-104 0 -203.667 20.5 -299 61.5s-177.333 95.833 -246 164.5
s-123.5 150.667 -164.5 246s-61.5 195 -61.5 299s20.5 203.667 61.5 299s95.833 177.333 164.5 246s150.667 123.5 246 164.5s195 61.5 299 61.5s203.667 -20.5 299 -61.5s177.333 -95.833 246 -164.5s123.5 -150.667 164.5 -246s61.5 -195 61.5 -299
s-20.5 -203.667 -61.5 -299s-95.833 -177.333 -164.5 -246s-150.667 -123.5 -246 -164.5s-195 -61.5 -299 -61.5z" />
    <glyph glyph-name="uni24C6" unicode="Q&#x20dd;" 
d="M1140 319h-127.999l-56 76c-36.667 -13.333 -75.334 -20 -116.001 -20c-93.333 0 -171 32.167 -233 96.5s-93 151.833 -93 262.5c0 111.333 31 199.166 93 263.499s139.667 96.5 233 96.5s171 -32.167 233 -96.5s93 -152.166 93 -263.499
c0 -125.333 -40 -221.333 -120 -288zM840.001 480c18.667 0 35 2.33301 49 7l-84 115h126l44 -60c39.333 46.667 59 110.667 59 192c0 80 -18.333 142.5 -55 187.5s-83 67.5 -139 67.5s-102.333 -22.5 -139 -67.5s-55 -107.5 -55 -187.5c0 -79.333 18.333 -141.5 55 -186.5
s83 -67.5 139 -67.5zM840.001 78c117.333 0 224.666 28.667 321.999 86s173.833 135.166 229.5 233.499s83.5 205.833 83.5 322.5s-27.833 224.167 -83.5 322.5s-132.167 176.166 -229.5 233.499s-204.666 86 -321.999 86s-224.666 -28.667 -321.999 -86
s-173.833 -135.166 -229.5 -233.499s-83.5 -205.833 -83.5 -322.5s27.833 -224.167 83.5 -322.5s132.167 -176.166 229.5 -233.499s204.666 -86 321.999 -86zM840.001 -50c-104 0 -203.667 20.5 -299 61.5s-177.333 95.833 -246 164.5s-123.5 150.667 -164.5 246
s-61.5 195 -61.5 299s20.5 203.667 61.5 299s95.833 177.333 164.5 246s150.667 123.5 246 164.5s195 61.5 299 61.5s203.667 -20.5 299 -61.5s177.333 -95.833 246 -164.5s123.5 -150.667 164.5 -246s61.5 -195 61.5 -299s-20.5 -203.667 -61.5 -299
s-95.833 -177.333 -164.5 -246s-150.667 -123.5 -246 -164.5s-195 -61.5 -299 -61.5z" />
    <glyph glyph-name="uni24C7" unicode="R&#x20dd;" 
d="M874 1081c77.333 0 138.167 -19.5 182.5 -58.5s66.5 -91.5 66.5 -157.5c0 -47.333 -12.667 -88 -38 -122s-57 -58 -95 -72l146 -283h-146l-128 263h-142v-263h-128v693h282zM720.001 747l132 0.000976562c43.333 0 77 9.66699 101 29s36 47.666 36 84.999
c0 38 -12 67.5 -36 88.5s-56.333 31.5 -97 31.5h-136v-234zM840.001 78.001c117.333 0 224.666 28.667 321.999 86s173.833 135.166 229.5 233.499s83.5 205.833 83.5 322.5s-27.833 224.167 -83.5 322.5s-132.167 176.166 -229.5 233.499s-204.666 86 -321.999 86
s-224.666 -28.667 -321.999 -86s-173.833 -135.166 -229.5 -233.499s-83.5 -205.833 -83.5 -322.5s27.833 -224.167 83.5 -322.5s132.167 -176.166 229.5 -233.499s204.666 -86 321.999 -86zM840.001 -49.999c-104 0 -203.667 20.5 -299 61.5s-177.333 95.833 -246 164.5
s-123.5 150.667 -164.5 246s-61.5 195 -61.5 299s20.5 203.667 61.5 299s95.833 177.333 164.5 246s150.667 123.5 246 164.5s195 61.5 299 61.5s203.667 -20.5 299 -61.5s177.333 -95.833 246 -164.5s123.5 -150.667 164.5 -246s61.5 -195 61.5 -299
s-20.5 -203.667 -61.5 -299s-95.833 -177.333 -164.5 -246s-150.667 -123.5 -246 -164.5s-195 -61.5 -299 -61.5z" />
    <glyph glyph-name="uni24C8" unicode="S&#x20dd;" 
d="M560 582l127.002 -0.000976562c3.33301 -32 19.333 -57.833 48 -77.5s65.334 -29.5 110.001 -29.5s80.167 9.33301 106.5 28s39.5 43.667 39.5 75c0 24 -9 43.5 -27 58.5s-47.333 27.5 -88 37.5l-117 26c-120 28 -180 91 -180 189c0 61.333 24.5 111 73.5 149
s113.167 57 192.5 57c77.333 0 140.666 -18.667 189.999 -56s74.333 -86.333 75 -147h-124c-2.66699 31.333 -16.834 56.5 -42.501 75.5s-58.834 28.5 -99.501 28.5c-40 0 -72.333 -9.33301 -97 -28s-37 -42.667 -37 -72c0 -43.333 33.333 -72.333 100 -87l117 -26
c66 -15.333 114.667 -38.666 146 -69.999s47 -72.666 47 -123.999c0 -66 -25.333 -118.167 -76 -156.5s-119.667 -57.5 -207 -57.5c-83.333 0 -150 18.667 -200 56s-75.667 87.666 -77 150.999zM840.002 77.999c117.333 0 224.666 28.667 321.999 86
s173.833 135.166 229.5 233.499s83.5 205.833 83.5 322.5s-27.833 224.167 -83.5 322.5s-132.167 176.166 -229.5 233.499s-204.666 86 -321.999 86s-224.666 -28.667 -321.999 -86s-173.833 -135.166 -229.5 -233.499s-83.5 -205.833 -83.5 -322.5
s27.833 -224.167 83.5 -322.5s132.167 -176.166 229.5 -233.499s204.666 -86 321.999 -86zM840.002 -50.001c-104 0 -203.667 20.5 -299 61.5s-177.333 95.833 -246 164.5s-123.5 150.667 -164.5 246s-61.5 195 -61.5 299s20.5 203.667 61.5 299s95.833 177.333 164.5 246
s150.667 123.5 246 164.5s195 61.5 299 61.5s203.667 -20.5 299 -61.5s177.333 -95.833 246 -164.5s123.5 -150.667 164.5 -246s61.5 -195 61.5 -299s-20.5 -203.667 -61.5 -299s-95.833 -177.333 -164.5 -246s-150.667 -123.5 -246 -164.5s-195 -61.5 -299 -61.5z" />
    <glyph glyph-name="uni24C9" unicode="T&#x20dd;" 
d="M906 368h-132v588h-210v105h552v-105h-210v-588zM840 78c117.333 0 224.666 28.667 321.999 86s173.833 135.166 229.5 233.499s83.5 205.833 83.5 322.5s-27.833 224.167 -83.5 322.5s-132.167 176.166 -229.5 233.499s-204.666 86 -321.999 86
s-224.666 -28.667 -321.999 -86s-173.833 -135.166 -229.5 -233.499s-83.5 -205.833 -83.5 -322.5s27.833 -224.167 83.5 -322.5s132.167 -176.166 229.5 -233.499s204.666 -86 321.999 -86zM840 -50c-104 0 -203.667 20.5 -299 61.5s-177.333 95.833 -246 164.5
s-123.5 150.667 -164.5 246s-61.5 195 -61.5 299s20.5 203.667 61.5 299s95.833 177.333 164.5 246s150.667 123.5 246 164.5s195 61.5 299 61.5s203.667 -20.5 299 -61.5s177.333 -95.833 246 -164.5s123.5 -150.667 164.5 -246s61.5 -195 61.5 -299
s-20.5 -203.667 -61.5 -299s-95.833 -177.333 -164.5 -246s-150.667 -123.5 -246 -164.5s-195 -61.5 -299 -61.5z" />
    <glyph glyph-name="uni24CA" unicode="U&#x20dd;" 
d="M840 462c48 0 86.3311 13.667 114.998 41s43 65.666 43 114.999v443h130v-454c0 -76 -26.167 -137 -78.5 -183s-122.166 -69 -209.499 -69s-157.166 23 -209.499 69s-78.5 107 -78.5 183v454h130v-443c0 -49.333 14.333 -87.666 43 -114.999s67 -41 115 -41zM839.998 78
c117.333 0 224.666 28.667 321.999 86s173.833 135.166 229.5 233.499s83.5 205.833 83.5 322.5s-27.833 224.167 -83.5 322.5s-132.167 176.166 -229.5 233.499s-204.666 86 -321.999 86s-224.666 -28.667 -321.999 -86s-173.833 -135.166 -229.5 -233.499
s-83.5 -205.833 -83.5 -322.5s27.833 -224.167 83.5 -322.5s132.167 -176.166 229.5 -233.499s204.666 -86 321.999 -86zM839.998 -50c-104 0 -203.667 20.5 -299 61.5s-177.333 95.833 -246 164.5s-123.5 150.667 -164.5 246s-61.5 195 -61.5 299s20.5 203.667 61.5 299
s95.833 177.333 164.5 246s150.667 123.5 246 164.5s195 61.5 299 61.5s203.667 -20.5 299 -61.5s177.333 -95.833 246 -164.5s123.5 -150.667 164.5 -246s61.5 -195 61.5 -299s-20.5 -203.667 -61.5 -299s-95.833 -177.333 -164.5 -246s-150.667 -123.5 -246 -164.5
s-195 -61.5 -299 -61.5z" />
    <glyph glyph-name="uni24CB" unicode="V&#x20dd;" 
d="M762 368l-250 693h151l174 -555h6l174 555h151l-250 -693h-156zM840 78c117.333 0 224.666 28.667 321.999 86s173.833 135.166 229.5 233.499s83.5 205.833 83.5 322.5s-27.833 224.167 -83.5 322.5s-132.167 176.166 -229.5 233.499s-204.666 86 -321.999 86
s-224.666 -28.667 -321.999 -86s-173.833 -135.166 -229.5 -233.499s-83.5 -205.833 -83.5 -322.5s27.833 -224.167 83.5 -322.5s132.167 -176.166 229.5 -233.499s204.666 -86 321.999 -86zM840 -50c-104 0 -203.667 20.5 -299 61.5s-177.333 95.833 -246 164.5
s-123.5 150.667 -164.5 246s-61.5 195 -61.5 299s20.5 203.667 61.5 299s95.833 177.333 164.5 246s150.667 123.5 246 164.5s195 61.5 299 61.5s203.667 -20.5 299 -61.5s177.333 -95.833 246 -164.5s123.5 -150.667 164.5 -246s61.5 -195 61.5 -299
s-20.5 -203.667 -61.5 -299s-95.833 -177.333 -164.5 -246s-150.667 -123.5 -246 -164.5s-195 -61.5 -299 -61.5z" />
    <glyph glyph-name="uni24CC" unicode="W&#x20dd;" 
d="M838 869l-140 -501h-119l-195 693h143l117 -518h6l133 518h114l133 -518h6l117 518h143l-195 -693h-119l-140 501h-4zM840 78c117.333 0 224.666 28.667 321.999 86s173.833 135.166 229.5 233.499s83.5 205.833 83.5 322.5s-27.833 224.167 -83.5 322.5
s-132.167 176.166 -229.5 233.499s-204.666 86 -321.999 86s-224.666 -28.667 -321.999 -86s-173.833 -135.166 -229.5 -233.499s-83.5 -205.833 -83.5 -322.5s27.833 -224.167 83.5 -322.5s132.167 -176.166 229.5 -233.499s204.666 -86 321.999 -86zM840 -50
c-104 0 -203.667 20.5 -299 61.5s-177.333 95.833 -246 164.5s-123.5 150.667 -164.5 246s-61.5 195 -61.5 299s20.5 203.667 61.5 299s95.833 177.333 164.5 246s150.667 123.5 246 164.5s195 61.5 299 61.5s203.667 -20.5 299 -61.5s177.333 -95.833 246 -164.5
s123.5 -150.667 164.5 -246s61.5 -195 61.5 -299s-20.5 -203.667 -61.5 -299s-95.833 -177.333 -164.5 -246s-150.667 -123.5 -246 -164.5s-195 -61.5 -299 -61.5z" />
    <glyph glyph-name="uni24CD" unicode="X&#x20dd;" 
d="M1154 1081l-233 -348l230 -345h-152l-161 253h-6l-163 -253h-143l229 349l-227 344h155l159 -256h6l158 256h148zM840 78c117.333 0 224.666 28.667 321.999 86s173.833 135.166 229.5 233.499s83.5 205.833 83.5 322.5s-27.833 224.167 -83.5 322.5
s-132.167 176.166 -229.5 233.499s-204.666 86 -321.999 86s-224.666 -28.667 -321.999 -86s-173.833 -135.166 -229.5 -233.499s-83.5 -205.833 -83.5 -322.5s27.833 -224.167 83.5 -322.5s132.167 -176.166 229.5 -233.499s204.666 -86 321.999 -86zM840 -50
c-104 0 -203.667 20.5 -299 61.5s-177.333 95.833 -246 164.5s-123.5 150.667 -164.5 246s-61.5 195 -61.5 299s20.5 203.667 61.5 299s95.833 177.333 164.5 246s150.667 123.5 246 164.5s195 61.5 299 61.5s203.667 -20.5 299 -61.5s177.333 -95.833 246 -164.5
s123.5 -150.667 164.5 -246s61.5 -195 61.5 -299s-20.5 -203.667 -61.5 -299s-95.833 -177.333 -164.5 -246s-150.667 -123.5 -246 -164.5s-195 -61.5 -299 -61.5z" />
    <glyph glyph-name="uni24CE" unicode="Y&#x20dd;" 
d="M906 383h-131v273l-243 420h145l162 -297h5l162 297h142l-242 -418v-275zM840 78c117.333 0 224.666 28.667 321.999 86s173.833 135.166 229.5 233.499s83.5 205.833 83.5 322.5s-27.833 224.167 -83.5 322.5s-132.167 176.166 -229.5 233.499s-204.666 86 -321.999 86
s-224.666 -28.667 -321.999 -86s-173.833 -135.166 -229.5 -233.499s-83.5 -205.833 -83.5 -322.5s27.833 -224.167 83.5 -322.5s132.167 -176.166 229.5 -233.499s204.666 -86 321.999 -86zM840 -50c-104 0 -203.667 20.5 -299 61.5s-177.333 95.833 -246 164.5
s-123.5 150.667 -164.5 246s-61.5 195 -61.5 299s20.5 203.667 61.5 299s95.833 177.333 164.5 246s150.667 123.5 246 164.5s195 61.5 299 61.5s203.667 -20.5 299 -61.5s177.333 -95.833 246 -164.5s123.5 -150.667 164.5 -246s61.5 -195 61.5 -299
s-20.5 -203.667 -61.5 -299s-95.833 -177.333 -164.5 -246s-150.667 -123.5 -246 -164.5s-195 -61.5 -299 -61.5z" />
    <glyph glyph-name="uni24CF" unicode="Z&#x20dd;" 
d="M575 388v83l361 499v7h-350v104h509v-83l-360 -499v-7h370v-104h-530zM840 78c117.333 0 224.666 28.667 321.999 86s173.833 135.166 229.5 233.499s83.5 205.833 83.5 322.5s-27.833 224.167 -83.5 322.5s-132.167 176.166 -229.5 233.499s-204.666 86 -321.999 86
s-224.666 -28.667 -321.999 -86s-173.833 -135.166 -229.5 -233.499s-83.5 -205.833 -83.5 -322.5s27.833 -224.167 83.5 -322.5s132.167 -176.166 229.5 -233.499s204.666 -86 321.999 -86zM840 -50c-104 0 -203.667 20.5 -299 61.5s-177.333 95.833 -246 164.5
s-123.5 150.667 -164.5 246s-61.5 195 -61.5 299s20.5 203.667 61.5 299s95.833 177.333 164.5 246s150.667 123.5 246 164.5s195 61.5 299 61.5s203.667 -20.5 299 -61.5s177.333 -95.833 246 -164.5s123.5 -150.667 164.5 -246s61.5 -195 61.5 -299
s-20.5 -203.667 -61.5 -299s-95.833 -177.333 -164.5 -246s-150.667 -123.5 -246 -164.5s-195 -61.5 -299 -61.5z" />
    <glyph glyph-name="uni24EA" unicode="&#x23;&#x20dd;" 
d="M840 486c44.667 0 79.834 21.833 105.501 65.5s38.5 104.834 38.5 183.501s-12.833 139.834 -38.5 183.501s-60.834 65.5 -105.501 65.5s-79.834 -21.833 -105.501 -65.5s-38.5 -104.834 -38.5 -183.501s12.833 -139.834 38.5 -183.501s60.834 -65.5 105.501 -65.5z
M840 376c-80 0 -144.667 31.833 -194 95.5s-74 151.5 -74 263.5s24.667 199.833 74 263.5s114 95.5 194 95.5s144.667 -31.833 194 -95.5s74 -151.5 74 -263.5s-24.667 -199.833 -74 -263.5s-114 -95.5 -194 -95.5zM840 78c117.333 0 224.666 28.667 321.999 86
s173.833 135.166 229.5 233.499s83.5 205.833 83.5 322.5s-27.833 224.167 -83.5 322.5s-132.167 176.166 -229.5 233.499s-204.666 86 -321.999 86s-224.666 -28.667 -321.999 -86s-173.833 -135.166 -229.5 -233.499s-83.5 -205.833 -83.5 -322.5
s27.833 -224.167 83.5 -322.5s132.167 -176.166 229.5 -233.499s204.666 -86 321.999 -86zM840 -50c-104 0 -203.667 20.5 -299 61.5s-177.333 95.833 -246 164.5s-123.5 150.667 -164.5 246s-61.5 195 -61.5 299s20.5 203.667 61.5 299s95.833 177.333 164.5 246
s150.667 123.5 246 164.5s195 61.5 299 61.5s203.667 -20.5 299 -61.5s177.333 -95.833 246 -164.5s123.5 -150.667 164.5 -246s61.5 -195 61.5 -299s-20.5 -203.667 -61.5 -299s-95.833 -177.333 -164.5 -246s-150.667 -123.5 -246 -164.5s-195 -61.5 -299 -61.5z" />
    <glyph glyph-name="uni24FF" unicode="&#x30;&#x20dd;&#x25cf;" 
d="M836 461c-46.667 0 -83 23.667 -109 71s-39 115 -39 203s13 155.667 39 203s62.333 71 109 71s83 -23.667 109 -71s39 -115 39 -203s-13 -155.667 -39 -203s-62.333 -71 -109 -71zM836 338c92 0 165.333 35.5 220 106.5s82 167.833 82 290.5s-27.333 219.5 -82 290.5
s-128 106.5 -220 106.5s-165.333 -35.5 -220 -106.5s-82 -167.833 -82 -290.5s27.333 -219.5 82 -290.5s128 -106.5 220 -106.5zM840 -50c-104 0 -203.667 20.5 -299 61.5s-177.333 95.833 -246 164.5s-123.5 150.667 -164.5 246s-61.5 195 -61.5 299s20.5 203.667 61.5 299
s95.833 177.333 164.5 246s150.667 123.5 246 164.5s195 61.5 299 61.5s203.667 -20.5 299 -61.5s177.333 -95.833 246 -164.5s123.5 -150.667 164.5 -246s61.5 -195 61.5 -299s-20.5 -203.667 -61.5 -299s-95.833 -177.333 -164.5 -246s-150.667 -123.5 -246 -164.5
s-195 -61.5 -299 -61.5z" />
    <glyph glyph-name="uni278A" unicode="&#x31;&#x20dd;&#x25cf;" 
d="M953 353v765h-148l-191 -132v-140l187 128h1v-621h151zM840 -50c-104 0 -203.667 20.5 -299 61.5s-177.333 95.833 -246 164.5s-123.5 150.667 -164.5 246s-61.5 195 -61.5 299s20.5 203.667 61.5 299s95.833 177.333 164.5 246s150.667 123.5 246 164.5
s195 61.5 299 61.5s203.667 -20.5 299 -61.5s177.333 -95.833 246 -164.5s123.5 -150.667 164.5 -246s61.5 -195 61.5 -299s-20.5 -203.667 -61.5 -299s-95.833 -177.333 -164.5 -246s-150.667 -123.5 -246 -164.5s-195 -61.5 -299 -61.5z" />
    <glyph glyph-name="uni278B" unicode="&#x32;&#x20dd;&#x25cf;" 
d="M712 886l0.000976562 10.999c0 32 10.833 59.167 32.5 81.5s51.5 33.5 89.5 33.5c34 0 62.333 -10.167 85 -30.5s34 -45.833 34 -76.5c0 -20 -4.83301 -40.167 -14.5 -60.5s-19.667 -36.666 -30 -48.999s-24.833 -27.833 -43.5 -46.5l-293 -306v-91h546v122h-342l203 212
l48.5 54c10.333 12 22.666 28.333 36.999 49s24.5 41.167 30.5 61.5s9 42.166 9 65.499c0 62 -24.667 113.333 -74 154s-114 61 -194 61c-86 0 -152.5 -23.167 -199.5 -69.5s-70.5 -101.166 -70.5 -164.499v-11h146zM840.001 -50.001c-104 0 -203.667 20.5 -299 61.5
s-177.333 95.833 -246 164.5s-123.5 150.667 -164.5 246s-61.5 195 -61.5 299s20.5 203.667 61.5 299s95.833 177.333 164.5 246s150.667 123.5 246 164.5s195 61.5 299 61.5s203.667 -20.5 299 -61.5s177.333 -95.833 246 -164.5s123.5 -150.667 164.5 -246
s61.5 -195 61.5 -299s-20.5 -203.667 -61.5 -299s-95.833 -177.333 -164.5 -246s-150.667 -123.5 -246 -164.5s-195 -61.5 -299 -61.5z" />
    <glyph glyph-name="uni278C" unicode="&#x33;&#x20dd;&#x25cf;" 
d="M744 688h93c42 0 75.833 -10.667 101.5 -32s38.834 -49 39.501 -83c0 -34.667 -13.333 -62.834 -40 -84.501s-62 -32.5 -106 -32.5c-39.333 0.666992 -72.333 10.167 -99 28.5s-41.667 41.5 -45 69.5h-140c2.66699 -61.333 29.167 -112.666 79.5 -153.999
s118.166 -62 203.499 -62c86 0 157.667 21 215 63s85.666 98 84.999 168c-2 55.333 -20.167 98.833 -54.5 130.5s-72.5 49.834 -114.5 54.501c35.333 7.33301 68.333 27 99 59s45.667 72 45 120c-1.33301 58.667 -26.666 106.667 -75.999 144s-114 56 -194 56
c-83.333 -0.666992 -149 -21.334 -197 -62.001s-73 -91.667 -75 -153h144c1.33301 26.667 13.5 49.5 36.5 68.5s52.167 28.5 87.5 28.5c36 0 65.5 -9.5 88.5 -28.5s34.833 -43.833 35.5 -74.5c0 -30.667 -11.667 -56 -35 -76s-53 -30 -89 -30h-88v-118zM840 -50
c-104 0 -203.667 20.5 -299 61.5s-177.333 95.833 -246 164.5s-123.5 150.667 -164.5 246s-61.5 195 -61.5 299s20.5 203.667 61.5 299s95.833 177.333 164.5 246s150.667 123.5 246 164.5s195 61.5 299 61.5s203.667 -20.5 299 -61.5s177.333 -95.833 246 -164.5
s123.5 -150.667 164.5 -246s61.5 -195 61.5 -299s-20.5 -203.667 -61.5 -299s-95.833 -177.333 -164.5 -246s-150.667 -123.5 -246 -164.5s-195 -61.5 -299 -61.5z" />
    <glyph glyph-name="uni278D" unicode="&#x34;&#x20dd;&#x25cf;" 
d="M808 1118c-162.667 -253.333 -267.333 -421 -314 -503v-117h383v-145h145v145h100v120h-100v500h-214zM636.001 618l0.000976562 1c51.333 89.333 131.666 216 240.999 380v-381h-241zM840.002 -50c-104 0 -203.667 20.5 -299 61.5s-177.333 95.833 -246 164.5
s-123.5 150.667 -164.5 246s-61.5 195 -61.5 299s20.5 203.667 61.5 299s95.833 177.333 164.5 246s150.667 123.5 246 164.5s195 61.5 299 61.5s203.667 -20.5 299 -61.5s177.333 -95.833 246 -164.5s123.5 -150.667 164.5 -246s61.5 -195 61.5 -299
s-20.5 -203.667 -61.5 -299s-95.833 -177.333 -164.5 -246s-150.667 -123.5 -246 -164.5s-195 -61.5 -299 -61.5z" />
    <glyph glyph-name="uni278E" unicode="&#x35;&#x20dd;&#x25cf;" 
d="M559 552c3.33301 -62 30.501 -113.001 81.501 -153.001s116.833 -60 197.5 -60c88.667 0 160.667 25 216 75s83 115.667 83 197c0 76 -25 136.5 -75 181.5s-111.333 67.5 -184 67.5c-38 0 -70.833 -6.5 -98.5 -19.5s-48.167 -27.5 -61.5 -43.5l17 201h359v120h-483
l-35 -448h131c10.667 19.333 27.667 36.5 51 51.5s51.333 22.5 84 22.5c40.667 0 75.167 -12.667 103.5 -38s42.5 -58.666 42.5 -99.999c0 -45.333 -14.333 -81.333 -43 -108s-62.334 -40 -101.001 -40c-35.333 0 -66.5 8.16699 -93.5 24.5s-43.5 39.5 -49.5 69.5h-142z
M840.001 -50.001c-104 0 -203.667 20.5 -299 61.5s-177.333 95.833 -246 164.5s-123.5 150.667 -164.5 246s-61.5 195 -61.5 299s20.5 203.667 61.5 299s95.833 177.333 164.5 246s150.667 123.5 246 164.5s195 61.5 299 61.5s203.667 -20.5 299 -61.5
s177.333 -95.833 246 -164.5s123.5 -150.667 164.5 -246s61.5 -195 61.5 -299s-20.5 -203.667 -61.5 -299s-95.833 -177.333 -164.5 -246s-150.667 -123.5 -246 -164.5s-195 -61.5 -299 -61.5z" />
    <glyph glyph-name="uni278F" unicode="&#x36;&#x20dd;&#x25cf;" 
d="M1129 607c0 76.667 -24.998 136.835 -74.998 180.502s-109.333 65.5 -178 65.5c-52 0 -94.5 -10.333 -127.5 -31s-56.833 -46.334 -71.5 -77.001l-2 -3c-0.666992 83.333 14.5 149.166 45.5 197.499s72.833 72.5 125.5 72.5c33.333 0 60.333 -7.33301 81 -22
s34 -31.667 40 -51h146c-2.66699 50 -27.667 94.667 -75 134s-110.333 59 -189 59c-98.667 0 -176.334 -35.333 -233.001 -106s-85 -175 -85 -313c0 -108 20.333 -192.333 61 -253c27.333 -40.667 62.666 -71.167 105.999 -91.5s90 -30.5 140 -30.5
c86 0 156 23.833 210 71.5s81 113.5 81 197.5zM695.002 601.001c0 40.667 13.5 73.833 40.5 99.5s61.833 38.5 104.5 38.5c39.333 0 72.833 -12.167 100.5 -36.5s41.5 -58.5 41.5 -102.5c0 -46 -13.333 -81.333 -40 -106s-60.667 -37 -102 -37s-75.833 13 -103.5 39
s-41.5 61 -41.5 105zM840.002 -50c-104 0 -203.667 20.5 -299 61.5s-177.333 95.833 -246 164.5s-123.5 150.667 -164.5 246s-61.5 195 -61.5 299s20.5 203.667 61.5 299s95.833 177.333 164.5 246s150.667 123.5 246 164.5s195 61.5 299 61.5s203.667 -20.5 299 -61.5
s177.333 -95.833 246 -164.5s123.5 -150.667 164.5 -246s61.5 -195 61.5 -299s-20.5 -203.667 -61.5 -299s-95.833 -177.333 -164.5 -246s-150.667 -123.5 -246 -164.5s-195 -61.5 -299 -61.5z" />
    <glyph glyph-name="uni2790" unicode="&#x37;&#x20dd;&#x25cf;" 
d="M581 1108v-123h392v-1l-332 -641h159l325 645v120h-544zM840 -50c-104 0 -203.667 20.5 -299 61.5s-177.333 95.833 -246 164.5s-123.5 150.667 -164.5 246s-61.5 195 -61.5 299s20.5 203.667 61.5 299s95.833 177.333 164.5 246s150.667 123.5 246 164.5
s195 61.5 299 61.5s203.667 -20.5 299 -61.5s177.333 -95.833 246 -164.5s123.5 -150.667 164.5 -246s61.5 -195 61.5 -299s-20.5 -203.667 -61.5 -299s-95.833 -177.333 -164.5 -246s-150.667 -123.5 -246 -164.5s-195 -61.5 -299 -61.5z" />
    <glyph glyph-name="uni2791" unicode="&#x38;&#x20dd;&#x25cf;" 
d="M836 805c-37.333 0 -67.5 10 -90.5 30s-34.5 46 -34.5 78s11.5 58 34.5 78s53.167 30 90.5 30s67.5 -10 90.5 -30s34.5 -46 34.5 -78s-11.5 -58 -34.5 -78s-53.167 -30 -90.5 -30zM836 449c-44.667 0 -81.5 11.833 -110.5 35.5s-43.5 53.167 -43.5 88.5
c0 36 14.5 65.833 43.5 89.5s65.833 35.5 110.5 35.5s81.5 -11.833 110.5 -35.5s43.5 -53.5 43.5 -89.5c0 -35.333 -14.5 -64.833 -43.5 -88.5s-65.833 -35.5 -110.5 -35.5zM836 338c90.667 0 164 20.833 220 62.5s84 96.5 84 164.5c0 46.667 -14.667 87.167 -44 121.5
s-69 56.833 -119 67.5c41.333 14 73.5 36.167 96.5 66.5s34.5 66.166 34.5 107.499c0 60.667 -25.167 110 -75.5 148s-115.833 57 -196.5 57s-146.167 -19 -196.5 -57s-75.5 -87.333 -75.5 -148c0 -41.333 11.5 -77.166 34.5 -107.499s55.167 -52.5 96.5 -66.5
c-50 -10.667 -89.667 -33.167 -119 -67.5s-44 -74.833 -44 -121.5c0 -68 28 -122.833 84 -164.5s129.333 -62.5 220 -62.5zM840 -50c-104 0 -203.667 20.5 -299 61.5s-177.333 95.833 -246 164.5s-123.5 150.667 -164.5 246s-61.5 195 -61.5 299s20.5 203.667 61.5 299
s95.833 177.333 164.5 246s150.667 123.5 246 164.5s195 61.5 299 61.5s203.667 -20.5 299 -61.5s177.333 -95.833 246 -164.5s123.5 -150.667 164.5 -246s61.5 -195 61.5 -299s-20.5 -203.667 -61.5 -299s-95.833 -177.333 -164.5 -246s-150.667 -123.5 -246 -164.5
s-195 -61.5 -299 -61.5z" />
    <glyph glyph-name="uni2792" unicode="&#x39;&#x20dd;&#x25cf;" 
d="M975 868c0 -44 -13.833 -78.168 -41.5 -102.501s-61.5 -36.5 -101.5 -36.5s-73.667 12.5 -101 37.5s-41 59.833 -41 104.5c0 44 13.5 79 40.5 105s60.5 39 100.5 39c42 0 76.5 -13.167 103.5 -39.5s40.5 -62.166 40.5 -107.499zM562 522.999
c4.66699 -50 29.667 -93.168 75 -129.501s107 -54.5 185 -54.5c105.333 0 184.666 34.5 237.999 103.5s80 170.833 80 305.5c0 72 -8.16699 134 -24.5 186s-39.333 92 -69 120s-61.667 48.167 -96 60.5s-72.5 18.5 -114.5 18.5c-86 0 -156.333 -23.667 -211 -71
s-82 -111.333 -82 -192c0 -79.333 25 -142 75 -188s111.667 -69 185 -69c48.667 0 89.334 9.83301 122.001 29.5s56 45.167 70 76.5c1.33301 -77.333 -12.167 -140.166 -40.5 -188.499s-71.833 -72.5 -130.5 -72.5c-30 0 -55.5 6.5 -76.5 19.5s-34.167 28.167 -39.5 45.5
h-146zM840 -50.002c-104 0 -203.667 20.5 -299 61.5s-177.333 95.833 -246 164.5s-123.5 150.667 -164.5 246s-61.5 195 -61.5 299s20.5 203.667 61.5 299s95.833 177.333 164.5 246s150.667 123.5 246 164.5s195 61.5 299 61.5s203.667 -20.5 299 -61.5
s177.333 -95.833 246 -164.5s123.5 -150.667 164.5 -246s61.5 -195 61.5 -299s-20.5 -203.667 -61.5 -299s-95.833 -177.333 -164.5 -246s-150.667 -123.5 -246 -164.5s-195 -61.5 -299 -61.5z" />
    <glyph glyph-name="uni1F130" unicode="A&#x20de;" 
d="M740 668h200l-95 287h-10zM650 388h-132l248 693h148l248 -693h-132l-62 186h-256zM356 1464h968c71.333 0 132.166 -24.833 182.499 -74.5s75.5 -109.5 75.5 -179.5v-976c0 -70 -25.167 -129.833 -75.5 -179.5s-111.166 -74.5 -182.499 -74.5h-968
c-71.333 0 -132.166 24.833 -182.499 74.5s-75.5 109.5 -75.5 179.5v976c0 70 25.167 129.833 75.5 179.5s111.166 74.5 182.499 74.5zM1453 1208c0 37.333 -14.167 69.667 -42.5 97s-61.833 41 -100.5 41h-940c-38.667 0 -72.167 -13.5 -100.5 -40.5
s-42.5 -59.5 -42.5 -97.5v-972c0 -37.333 14.167 -69.666 42.5 -96.999s61.833 -41 100.5 -41h940c38.667 0 72.167 13.667 100.5 41s42.5 59.666 42.5 96.999v972z" />
    <glyph glyph-name="uni1F131" unicode="B&#x20de;" 
d="M603 388v693h294c64.667 0 116 -15.333 154 -46s57 -72.334 57 -125.001c0 -40 -11 -73 -33 -99s-51.667 -43.667 -89 -53v-5c47.333 -5.33301 86 -22.666 116 -51.999s45 -68.666 45 -117.999c0 -60.667 -23.167 -108.334 -69.5 -143.001s-107.5 -52 -183.5 -52h-291z
M732 984l0.000976562 -194h98c100 0 150 33 150 99c0 29.333 -9.83301 52.5 -29.5 69.5s-46.834 25.5 -81.501 25.5h-137zM732.001 700v-215.001h111c60 0 103.5 8.5 130.5 25.5s40.5 43.167 40.5 78.5c0 34.667 -11.833 61.834 -35.5 81.501s-57.167 29.5 -100.5 29.5h-146
zM356.001 1464h968c71.333 0 132.166 -24.833 182.499 -74.5s75.5 -109.5 75.5 -179.5v-976c0 -70 -25.167 -129.833 -75.5 -179.5s-111.166 -74.5 -182.499 -74.5h-968c-71.333 0 -132.166 24.833 -182.499 74.5s-75.5 109.5 -75.5 179.5v976
c0 70 25.167 129.833 75.5 179.5s111.166 74.5 182.499 74.5zM1453 1208c0 37.333 -14.167 69.667 -42.5 97s-61.833 41 -100.5 41h-940c-38.667 0 -72.167 -13.5 -100.5 -40.5s-42.5 -59.5 -42.5 -97.5v-972c0 -37.333 14.167 -69.666 42.5 -96.999s61.833 -41 100.5 -41
h940c38.667 0 72.167 13.667 100.5 41s42.5 59.666 42.5 96.999v972z" />
    <glyph glyph-name="uni1F132" unicode="C&#x20de;" 
d="M1008 606l132 0.00292969c-10.667 -70 -43.334 -126 -98.001 -168s-122.667 -63 -204 -63c-96.667 0 -174.834 33 -234.501 99s-89.5 152.667 -89.5 260s29.833 194.166 89.5 260.499s137.834 99.5 234.501 99.5c83.333 0 152.5 -21.833 207.5 -65.5
s87.167 -101.834 96.5 -174.501h-130c-5.33301 39.333 -24.166 71.666 -56.499 96.999s-70.833 38 -115.5 38c-58.667 0 -105.667 -23.333 -141 -70s-53 -108.334 -53 -185.001s17.667 -138.167 53 -184.5s82.333 -69.5 141 -69.5c43.333 0 80.833 11.833 112.5 35.5
s50.167 53.834 55.5 90.501zM356 1464h968c71.333 0 132.166 -24.833 182.499 -74.5s75.5 -109.5 75.5 -179.5v-976c0 -70 -25.167 -129.833 -75.5 -179.5s-111.166 -74.5 -182.499 -74.5h-968c-71.333 0 -132.166 24.833 -182.499 74.5s-75.5 109.5 -75.5 179.5v976
c0 70 25.167 129.833 75.5 179.5s111.166 74.5 182.499 74.5zM1453 1208c0 37.333 -14.167 69.667 -42.5 97s-61.833 41 -100.5 41h-940c-38.667 0 -72.167 -13.5 -100.5 -40.5s-42.5 -59.5 -42.5 -97.5v-972c0 -37.333 14.167 -69.666 42.5 -96.999s61.833 -41 100.5 -41
h940c38.667 0 72.167 13.667 100.5 41s42.5 59.666 42.5 96.999v972z" />
    <glyph glyph-name="uni1F133" unicode="D&#x20de;" 
d="M573 1081h256c107.333 0 188 -29.5 242 -88.5s81 -144.5 81 -256.5s-27 -198 -81 -258s-134.667 -90 -242 -90h-256v693zM703 978v-487h110c136.667 0 205 81 205 243c0 162.667 -68.333 244 -205 244h-110zM356 1464h968c71.333 0 132.166 -24.833 182.499 -74.5
s75.5 -109.5 75.5 -179.5v-976c0 -70 -25.167 -129.833 -75.5 -179.5s-111.166 -74.5 -182.499 -74.5h-968c-71.333 0 -132.166 24.833 -182.499 74.5s-75.5 109.5 -75.5 179.5v976c0 70 25.167 129.833 75.5 179.5s111.166 74.5 182.499 74.5zM1453 1208
c0 37.333 -14.167 69.667 -42.5 97s-61.833 41 -100.5 41h-940c-38.667 0 -72.167 -13.5 -100.5 -40.5s-42.5 -59.5 -42.5 -97.5v-972c0 -37.333 14.167 -69.666 42.5 -96.999s61.833 -41 100.5 -41h940c38.667 0 72.167 13.667 100.5 41s42.5 59.666 42.5 96.999v972z" />
    <glyph glyph-name="uni1F134" unicode="E&#x20de;" 
d="M1075 491v-103h-459v693h459v-103h-330v-190h311v-98h-311v-199h330zM356 1464h968c71.333 0 132.166 -24.833 182.499 -74.5s75.5 -109.5 75.5 -179.5v-976c0 -70 -25.167 -129.833 -75.5 -179.5s-111.166 -74.5 -182.499 -74.5h-968
c-71.333 0 -132.166 24.833 -182.499 74.5s-75.5 109.5 -75.5 179.5v976c0 70 25.167 129.833 75.5 179.5s111.166 74.5 182.499 74.5zM1453 1208c0 37.333 -14.167 69.667 -42.5 97s-61.833 41 -100.5 41h-940c-38.667 0 -72.167 -13.5 -100.5 -40.5
s-42.5 -59.5 -42.5 -97.5v-972c0 -37.333 14.167 -69.666 42.5 -96.999s61.833 -41 100.5 -41h940c38.667 0 72.167 13.667 100.5 41s42.5 59.666 42.5 96.999v972z" />
    <glyph glyph-name="uni1F135" unicode="F&#x20de;" 
d="M778 388h-131v693h454v-104h-323v-205h295v-102h-295v-282zM356 1464h968c71.333 0 132.166 -24.833 182.499 -74.5s75.5 -109.5 75.5 -179.5v-976c0 -70 -25.167 -129.833 -75.5 -179.5s-111.166 -74.5 -182.499 -74.5h-968c-71.333 0 -132.166 24.833 -182.499 74.5
s-75.5 109.5 -75.5 179.5v976c0 70 25.167 129.833 75.5 179.5s111.166 74.5 182.499 74.5zM1453 1208c0 37.333 -14.167 69.667 -42.5 97s-61.833 41 -100.5 41h-940c-38.667 0 -72.167 -13.5 -100.5 -40.5s-42.5 -59.5 -42.5 -97.5v-972
c0 -37.333 14.167 -69.666 42.5 -96.999s61.833 -41 100.5 -41h940c38.667 0 72.167 13.667 100.5 41s42.5 59.666 42.5 96.999v972z" />
    <glyph glyph-name="uni1F136" unicode="G&#x20de;" 
d="M1011 604v57h-160v95h284v-122c0 -78 -25.5 -140.667 -76.5 -188s-123.833 -71 -218.5 -71c-97.333 0 -176 33.167 -236 99.5s-90 152.833 -90 259.5c0 107.333 30.167 194.166 90.5 260.499s138.833 99.5 235.5 99.5c81.333 0 149.333 -21 204 -63
s86.667 -97.667 96 -167h-130c-5.33301 36 -24 65.833 -56 89.5s-69.333 35.5 -112 35.5c-59.333 0 -106.833 -23.167 -142.5 -69.5s-53.5 -108.166 -53.5 -185.499s17.833 -139 53.5 -185s83.167 -69 142.5 -69c54 0 95.667 11.333 125 34s44 52.667 44 90zM356 1464h968
c71.333 0 132.166 -24.833 182.499 -74.5s75.5 -109.5 75.5 -179.5v-976c0 -70 -25.167 -129.833 -75.5 -179.5s-111.166 -74.5 -182.499 -74.5h-968c-71.333 0 -132.166 24.833 -182.499 74.5s-75.5 109.5 -75.5 179.5v976c0 70 25.167 129.833 75.5 179.5
s111.166 74.5 182.499 74.5zM1453 1208c0 37.333 -14.167 69.667 -42.5 97s-61.833 41 -100.5 41h-940c-38.667 0 -72.167 -13.5 -100.5 -40.5s-42.5 -59.5 -42.5 -97.5v-972c0 -37.333 14.167 -69.666 42.5 -96.999s61.833 -41 100.5 -41h940
c38.667 0 72.167 13.667 100.5 41s42.5 59.666 42.5 96.999v972z" />
    <glyph glyph-name="uni1F137" unicode="H&#x20de;" 
d="M1131 388h-130v304h-321v-304h-130v693h130v-286h321v286h130v-693zM356 1464h968c71.333 0 132.166 -24.833 182.499 -74.5s75.5 -109.5 75.5 -179.5v-976c0 -70 -25.167 -129.833 -75.5 -179.5s-111.166 -74.5 -182.499 -74.5h-968
c-71.333 0 -132.166 24.833 -182.499 74.5s-75.5 109.5 -75.5 179.5v976c0 70 25.167 129.833 75.5 179.5s111.166 74.5 182.499 74.5zM1453 1208c0 37.333 -14.167 69.667 -42.5 97s-61.833 41 -100.5 41h-940c-38.667 0 -72.167 -13.5 -100.5 -40.5
s-42.5 -59.5 -42.5 -97.5v-972c0 -37.333 14.167 -69.666 42.5 -96.999s61.833 -41 100.5 -41h940c38.667 0 72.167 13.667 100.5 41s42.5 59.666 42.5 96.999v972z" />
    <glyph glyph-name="uni1F138" unicode="I&#x20de;" 
d="M906 388h-132v693h132v-693zM356 1464h968c71.333 0 132.166 -24.833 182.499 -74.5s75.5 -109.5 75.5 -179.5v-976c0 -70 -25.167 -129.833 -75.5 -179.5s-111.166 -74.5 -182.499 -74.5h-968c-71.333 0 -132.166 24.833 -182.499 74.5s-75.5 109.5 -75.5 179.5v976
c0 70 25.167 129.833 75.5 179.5s111.166 74.5 182.499 74.5zM1453 1208c0 37.333 -14.167 69.667 -42.5 97s-61.833 41 -100.5 41h-940c-38.667 0 -72.167 -13.5 -100.5 -40.5s-42.5 -59.5 -42.5 -97.5v-972c0 -37.333 14.167 -69.666 42.5 -96.999s61.833 -41 100.5 -41
h940c38.667 0 72.167 13.667 100.5 41s42.5 59.666 42.5 96.999v972z" />
    <glyph glyph-name="uni1F139" unicode="J&#x20de;" 
d="M576 576h126.001c0.666992 -27.333 10.167 -49.333 28.5 -66s42.166 -25 71.499 -25c35.333 0 62 10 80 30s27 48.333 27 85v481h130v-477c0 -73.333 -20.833 -129.833 -62.5 -169.5s-99.5 -59.5 -173.5 -59.5c-71.333 0 -127 19 -167 57s-60 86 -60 144zM356.001 1464
h968c71.333 0 132.166 -24.833 182.499 -74.5s75.5 -109.5 75.5 -179.5v-976c0 -70 -25.167 -129.833 -75.5 -179.5s-111.166 -74.5 -182.499 -74.5h-968c-71.333 0 -132.166 24.833 -182.499 74.5s-75.5 109.5 -75.5 179.5v976c0 70 25.167 129.833 75.5 179.5
s111.166 74.5 182.499 74.5zM1453 1208c0 37.333 -14.167 69.667 -42.5 97s-61.833 41 -100.5 41h-940c-38.667 0 -72.167 -13.5 -100.5 -40.5s-42.5 -59.5 -42.5 -97.5v-972c0 -37.333 14.167 -69.666 42.5 -96.999s61.833 -41 100.5 -41h940
c38.667 0 72.167 13.667 100.5 41s42.5 59.666 42.5 96.999v972z" />
    <glyph glyph-name="uni1F13A" unicode="K&#x20de;" 
d="M1155 1081l-263 -297l274 -396h-158l-212 312l-78 -84v-228h-130v693h130v-317h5l287 317h145zM356 1464h968c71.333 0 132.166 -24.833 182.499 -74.5s75.5 -109.5 75.5 -179.5v-976c0 -70 -25.167 -129.833 -75.5 -179.5s-111.166 -74.5 -182.499 -74.5h-968
c-71.333 0 -132.166 24.833 -182.499 74.5s-75.5 109.5 -75.5 179.5v976c0 70 25.167 129.833 75.5 179.5s111.166 74.5 182.499 74.5zM1453 1208c0 37.333 -14.167 69.667 -42.5 97s-61.833 41 -100.5 41h-940c-38.667 0 -72.167 -13.5 -100.5 -40.5
s-42.5 -59.5 -42.5 -97.5v-972c0 -37.333 14.167 -69.666 42.5 -96.999s61.833 -41 100.5 -41h940c38.667 0 72.167 13.667 100.5 41s42.5 59.666 42.5 96.999v972z" />
    <glyph glyph-name="uni1F13B" unicode="L&#x20de;" 
d="M1118 495v-107h-446v693h131v-586h315zM356 1464h968c71.333 0 132.166 -24.833 182.499 -74.5s75.5 -109.5 75.5 -179.5v-976c0 -70 -25.167 -129.833 -75.5 -179.5s-111.166 -74.5 -182.499 -74.5h-968c-71.333 0 -132.166 24.833 -182.499 74.5
s-75.5 109.5 -75.5 179.5v976c0 70 25.167 129.833 75.5 179.5s111.166 74.5 182.499 74.5zM1453 1208c0 37.333 -14.167 69.667 -42.5 97s-61.833 41 -100.5 41h-940c-38.667 0 -72.167 -13.5 -100.5 -40.5s-42.5 -59.5 -42.5 -97.5v-972
c0 -37.333 14.167 -69.666 42.5 -96.999s61.833 -41 100.5 -41h940c38.667 0 72.167 13.667 100.5 41s42.5 59.666 42.5 96.999v972z" />
    <glyph glyph-name="uni1F13C" unicode="M&#x20de;" 
d="M608 388h-117v693h132l216 -533h4l216 533h130v-693h-117v473h-6l-180 -453h-91l-181 453h-6v-473zM356 1464h968c71.333 0 132.166 -24.833 182.499 -74.5s75.5 -109.5 75.5 -179.5v-976c0 -70 -25.167 -129.833 -75.5 -179.5s-111.166 -74.5 -182.499 -74.5h-968
c-71.333 0 -132.166 24.833 -182.499 74.5s-75.5 109.5 -75.5 179.5v976c0 70 25.167 129.833 75.5 179.5s111.166 74.5 182.499 74.5zM1453 1208c0 37.333 -14.167 69.667 -42.5 97s-61.833 41 -100.5 41h-940c-38.667 0 -72.167 -13.5 -100.5 -40.5
s-42.5 -59.5 -42.5 -97.5v-972c0 -37.333 14.167 -69.666 42.5 -96.999s61.833 -41 100.5 -41h940c38.667 0 72.167 13.667 100.5 41s42.5 59.666 42.5 96.999v972z" />
    <glyph glyph-name="uni1F13D" unicode="N&#x20de;" 
d="M678 388h-124v693h111l331 -482h6v482h124v-693h-111l-332 484h-5v-484zM356 1464h968c71.333 0 132.166 -24.833 182.499 -74.5s75.5 -109.5 75.5 -179.5v-976c0 -70 -25.167 -129.833 -75.5 -179.5s-111.166 -74.5 -182.499 -74.5h-968
c-71.333 0 -132.166 24.833 -182.499 74.5s-75.5 109.5 -75.5 179.5v976c0 70 25.167 129.833 75.5 179.5s111.166 74.5 182.499 74.5zM1453 1208c0 37.333 -14.167 69.667 -42.5 97s-61.833 41 -100.5 41h-940c-38.667 0 -72.167 -13.5 -100.5 -40.5
s-42.5 -59.5 -42.5 -97.5v-972c0 -37.333 14.167 -69.666 42.5 -96.999s61.833 -41 100.5 -41h940c38.667 0 72.167 13.667 100.5 41s42.5 59.666 42.5 96.999v972z" />
    <glyph glyph-name="uni1F13E" unicode="O&#x20de;" 
d="M840 480c56 0 102.333 22.5 139 67.5s55 107.167 55 186.5c0 80 -18.333 142.5 -55 187.5s-83 67.5 -139 67.5s-102.333 -22.5 -139 -67.5s-55 -107.5 -55 -187.5c0 -79.333 18.333 -141.5 55 -186.5s83 -67.5 139 -67.5zM840 375c-93.333 0 -171 32.167 -233 96.5
s-93 151.833 -93 262.5c0 111.333 31 199.166 93 263.499s139.667 96.5 233 96.5s171 -32.167 233 -96.5s93 -152.166 93 -263.499c0 -110.667 -31 -198.167 -93 -262.5s-139.667 -96.5 -233 -96.5zM356 1464h968c71.333 0 132.166 -24.833 182.499 -74.5
s75.5 -109.5 75.5 -179.5v-976c0 -70 -25.167 -129.833 -75.5 -179.5s-111.166 -74.5 -182.499 -74.5h-968c-71.333 0 -132.166 24.833 -182.499 74.5s-75.5 109.5 -75.5 179.5v976c0 70 25.167 129.833 75.5 179.5s111.166 74.5 182.499 74.5zM1453 1208
c0 37.333 -14.167 69.667 -42.5 97s-61.833 41 -100.5 41h-940c-38.667 0 -72.167 -13.5 -100.5 -40.5s-42.5 -59.5 -42.5 -97.5v-972c0 -37.333 14.167 -69.666 42.5 -96.999s61.833 -41 100.5 -41h940c38.667 0 72.167 13.667 100.5 41s42.5 59.666 42.5 96.999v972z" />
    <glyph glyph-name="uni1F13F" unicode="P&#x20de;" 
d="M902 1081c74.667 0 133.666 -21.332 176.999 -63.999s65 -97 65 -163c0 -66.667 -21.667 -120.834 -65 -162.501s-102.666 -62.5 -177.999 -62.5h-153v-241h-129v693h283zM1011 854.001c0 40 -11.5 71 -34.5 93s-55.167 33 -96.5 33h-132v-251h132
c41.333 0 73.5 10.833 96.5 32.5s34.5 52.5 34.5 92.5zM355.999 1464h968c71.333 0 132.166 -24.833 182.499 -74.5s75.5 -109.5 75.5 -179.5v-976c0 -70 -25.167 -129.833 -75.5 -179.5s-111.166 -74.5 -182.499 -74.5h-968c-71.333 0 -132.166 24.833 -182.499 74.5
s-75.5 109.5 -75.5 179.5v976c0 70 25.167 129.833 75.5 179.5s111.166 74.5 182.499 74.5zM1453 1208c0 37.333 -14.167 69.667 -42.5 97s-61.833 41 -100.5 41h-940c-38.667 0 -72.167 -13.5 -100.5 -40.5s-42.5 -59.5 -42.5 -97.5v-972
c0 -37.333 14.167 -69.666 42.5 -96.999s61.833 -41 100.5 -41h940c38.667 0 72.167 13.667 100.5 41s42.5 59.666 42.5 96.999v972z" />
    <glyph glyph-name="uni1F140" unicode="Q&#x20de;" 
d="M1140 319h-127.999l-56 76c-36.667 -13.333 -75.334 -20 -116.001 -20c-93.333 0 -171 32.167 -233 96.5s-93 151.833 -93 262.5c0 111.333 31 199.166 93 263.499s139.667 96.5 233 96.5s171 -32.167 233 -96.5s93 -152.166 93 -263.499
c0 -125.333 -40 -221.333 -120 -288zM840.001 480c18.667 0 35 2.33301 49 7l-84 115h126l44 -60c39.333 46.667 59 110.667 59 192c0 80 -18.333 142.5 -55 187.5s-83 67.5 -139 67.5s-102.333 -22.5 -139 -67.5s-55 -107.5 -55 -187.5c0 -79.333 18.333 -141.5 55 -186.5
s83 -67.5 139 -67.5zM356.001 1464h968c71.333 0 132.166 -24.833 182.499 -74.5s75.5 -109.5 75.5 -179.5v-976c0 -70 -25.167 -129.833 -75.5 -179.5s-111.166 -74.5 -182.499 -74.5h-968c-71.333 0 -132.166 24.833 -182.499 74.5s-75.5 109.5 -75.5 179.5v976
c0 70 25.167 129.833 75.5 179.5s111.166 74.5 182.499 74.5zM1453 1208c0 37.333 -14.167 69.667 -42.5 97s-61.833 41 -100.5 41h-940c-38.667 0 -72.167 -13.5 -100.5 -40.5s-42.5 -59.5 -42.5 -97.5v-972c0 -37.333 14.167 -69.666 42.5 -96.999s61.833 -41 100.5 -41
h940c38.667 0 72.167 13.667 100.5 41s42.5 59.666 42.5 96.999v972z" />
    <glyph glyph-name="uni1F141" unicode="R&#x20de;" 
d="M874 1081c77.333 0 138.167 -19.5 182.5 -58.5s66.5 -91.5 66.5 -157.5c0 -47.333 -12.667 -88 -38 -122s-57 -58 -95 -72l146 -283h-146l-128 263h-142v-263h-128v693h282zM720.001 747l132 0.000976562c43.333 0 77 9.66699 101 29s36 47.666 36 84.999
c0 38 -12 67.5 -36 88.5s-56.333 31.5 -97 31.5h-136v-234zM356.001 1464h968c71.333 0 132.166 -24.833 182.499 -74.5s75.5 -109.5 75.5 -179.5v-976c0 -70 -25.167 -129.833 -75.5 -179.5s-111.166 -74.5 -182.499 -74.5h-968c-71.333 0 -132.166 24.833 -182.499 74.5
s-75.5 109.5 -75.5 179.5v976c0 70 25.167 129.833 75.5 179.5s111.166 74.5 182.499 74.5zM1453 1208c0 37.333 -14.167 69.667 -42.5 97s-61.833 41 -100.5 41h-940c-38.667 0 -72.167 -13.5 -100.5 -40.5s-42.5 -59.5 -42.5 -97.5v-972
c0 -37.333 14.167 -69.666 42.5 -96.999s61.833 -41 100.5 -41h940c38.667 0 72.167 13.667 100.5 41s42.5 59.666 42.5 96.999v972z" />
    <glyph glyph-name="uni1F142" unicode="S&#x20de;" 
d="M560 582l127.002 -0.000976562c3.33301 -32 19.333 -57.833 48 -77.5s65.334 -29.5 110.001 -29.5s80.167 9.33301 106.5 28s39.5 43.667 39.5 75c0 24 -9 43.5 -27 58.5s-47.333 27.5 -88 37.5l-117 26c-120 28 -180 91 -180 189c0 61.333 24.5 111 73.5 149
s113.167 57 192.5 57c77.333 0 140.666 -18.667 189.999 -56s74.333 -86.333 75 -147h-124c-2.66699 31.333 -16.834 56.5 -42.501 75.5s-58.834 28.5 -99.501 28.5c-40 0 -72.333 -9.33301 -97 -28s-37 -42.667 -37 -72c0 -43.333 33.333 -72.333 100 -87l117 -26
c66 -15.333 114.667 -38.666 146 -69.999s47 -72.666 47 -123.999c0 -66 -25.333 -118.167 -76 -156.5s-119.667 -57.5 -207 -57.5c-83.333 0 -150 18.667 -200 56s-75.667 87.666 -77 150.999zM356.002 1464h968c71.333 0 132.166 -24.833 182.499 -74.5
s75.5 -109.5 75.5 -179.5v-976c0 -70 -25.167 -129.833 -75.5 -179.5s-111.166 -74.5 -182.499 -74.5h-968c-71.333 0 -132.166 24.833 -182.499 74.5s-75.5 109.5 -75.5 179.5v976c0 70 25.167 129.833 75.5 179.5s111.166 74.5 182.499 74.5zM1453 1208
c0 37.333 -14.167 69.667 -42.5 97s-61.833 41 -100.5 41h-940c-38.667 0 -72.167 -13.5 -100.5 -40.5s-42.5 -59.5 -42.5 -97.5v-972c0 -37.333 14.167 -69.666 42.5 -96.999s61.833 -41 100.5 -41h940c38.667 0 72.167 13.667 100.5 41s42.5 59.666 42.5 96.999v972z" />
    <glyph glyph-name="uni1F143" unicode="T&#x20de;" 
d="M906 388h-132v588h-210v105h552v-105h-210v-588zM356 1464h968c71.333 0 132.166 -24.833 182.499 -74.5s75.5 -109.5 75.5 -179.5v-976c0 -70 -25.167 -129.833 -75.5 -179.5s-111.166 -74.5 -182.499 -74.5h-968c-71.333 0 -132.166 24.833 -182.499 74.5
s-75.5 109.5 -75.5 179.5v976c0 70 25.167 129.833 75.5 179.5s111.166 74.5 182.499 74.5zM1453 1208c0 37.333 -14.167 69.667 -42.5 97s-61.833 41 -100.5 41h-940c-38.667 0 -72.167 -13.5 -100.5 -40.5s-42.5 -59.5 -42.5 -97.5v-972
c0 -37.333 14.167 -69.666 42.5 -96.999s61.833 -41 100.5 -41h940c38.667 0 72.167 13.667 100.5 41s42.5 59.666 42.5 96.999v972z" />
    <glyph glyph-name="uni1F144" unicode="U&#x20de;" 
d="M840 482c48 0 86.3311 13.667 114.998 41s43 65.666 43 114.999v443h130v-454c0 -76 -26.167 -137 -78.5 -183s-122.166 -69 -209.499 -69s-157.166 23 -209.499 69s-78.5 107 -78.5 183v454h130v-443c0 -49.333 14.333 -87.666 43 -114.999s67 -41 115 -41z
M355.998 1464h968c71.333 0 132.166 -24.833 182.499 -74.5s75.5 -109.5 75.5 -179.5v-976c0 -70 -25.167 -129.833 -75.5 -179.5s-111.166 -74.5 -182.499 -74.5h-968c-71.333 0 -132.166 24.833 -182.499 74.5s-75.5 109.5 -75.5 179.5v976
c0 70 25.167 129.833 75.5 179.5s111.166 74.5 182.499 74.5zM1453 1208c0 37.333 -14.167 69.667 -42.5 97s-61.833 41 -100.5 41h-940c-38.667 0 -72.167 -13.5 -100.5 -40.5s-42.5 -59.5 -42.5 -97.5v-972c0 -37.333 14.167 -69.666 42.5 -96.999s61.833 -41 100.5 -41
h940c38.667 0 72.167 13.667 100.5 41s42.5 59.666 42.5 96.999v972z" />
    <glyph glyph-name="uni1F145" unicode="V&#x20de;" 
d="M762 388l-250 693h151l174 -555h6l174 555h151l-250 -693h-156zM356 1464h968c71.333 0 132.166 -24.833 182.499 -74.5s75.5 -109.5 75.5 -179.5v-976c0 -70 -25.167 -129.833 -75.5 -179.5s-111.166 -74.5 -182.499 -74.5h-968
c-71.333 0 -132.166 24.833 -182.499 74.5s-75.5 109.5 -75.5 179.5v976c0 70 25.167 129.833 75.5 179.5s111.166 74.5 182.499 74.5zM1453 1208c0 37.333 -14.167 69.667 -42.5 97s-61.833 41 -100.5 41h-940c-38.667 0 -72.167 -13.5 -100.5 -40.5
s-42.5 -59.5 -42.5 -97.5v-972c0 -37.333 14.167 -69.666 42.5 -96.999s61.833 -41 100.5 -41h940c38.667 0 72.167 13.667 100.5 41s42.5 59.666 42.5 96.999v972z" />
    <glyph glyph-name="uni1F146" unicode="W&#x20de;" 
d="M838 889l-140 -501h-119l-195 693h143l117 -518h6l133 518h114l133 -518h6l117 518h143l-195 -693h-119l-140 501h-4zM356 1464h968c71.333 0 132.166 -24.833 182.499 -74.5s75.5 -109.5 75.5 -179.5v-976c0 -70 -25.167 -129.833 -75.5 -179.5
s-111.166 -74.5 -182.499 -74.5h-968c-71.333 0 -132.166 24.833 -182.499 74.5s-75.5 109.5 -75.5 179.5v976c0 70 25.167 129.833 75.5 179.5s111.166 74.5 182.499 74.5zM1453 1208c0 37.333 -14.167 69.667 -42.5 97s-61.833 41 -100.5 41h-940
c-38.667 0 -72.167 -13.5 -100.5 -40.5s-42.5 -59.5 -42.5 -97.5v-972c0 -37.333 14.167 -69.666 42.5 -96.999s61.833 -41 100.5 -41h940c38.667 0 72.167 13.667 100.5 41s42.5 59.666 42.5 96.999v972z" />
    <glyph glyph-name="uni1F147" unicode="X&#x20de;" 
d="M1154 1081l-233 -348l230 -345h-152l-161 253h-6l-163 -253h-143l229 349l-227 344h155l159 -256h6l158 256h148zM356 1464h968c71.333 0 132.166 -24.833 182.499 -74.5s75.5 -109.5 75.5 -179.5v-976c0 -70 -25.167 -129.833 -75.5 -179.5
s-111.166 -74.5 -182.499 -74.5h-968c-71.333 0 -132.166 24.833 -182.499 74.5s-75.5 109.5 -75.5 179.5v976c0 70 25.167 129.833 75.5 179.5s111.166 74.5 182.499 74.5zM1453 1208c0 37.333 -14.167 69.667 -42.5 97s-61.833 41 -100.5 41h-940
c-38.667 0 -72.167 -13.5 -100.5 -40.5s-42.5 -59.5 -42.5 -97.5v-972c0 -37.333 14.167 -69.666 42.5 -96.999s61.833 -41 100.5 -41h940c38.667 0 72.167 13.667 100.5 41s42.5 59.666 42.5 96.999v972z" />
    <glyph glyph-name="uni1F148" unicode="Y&#x20de;" 
d="M906 388h-131v273l-243 420h145l162 -297h5l162 297h142l-242 -418v-275zM356 1464h968c71.333 0 132.166 -24.833 182.499 -74.5s75.5 -109.5 75.5 -179.5v-976c0 -70 -25.167 -129.833 -75.5 -179.5s-111.166 -74.5 -182.499 -74.5h-968
c-71.333 0 -132.166 24.833 -182.499 74.5s-75.5 109.5 -75.5 179.5v976c0 70 25.167 129.833 75.5 179.5s111.166 74.5 182.499 74.5zM1453 1208c0 37.333 -14.167 69.667 -42.5 97s-61.833 41 -100.5 41h-940c-38.667 0 -72.167 -13.5 -100.5 -40.5
s-42.5 -59.5 -42.5 -97.5v-972c0 -37.333 14.167 -69.666 42.5 -96.999s61.833 -41 100.5 -41h940c38.667 0 72.167 13.667 100.5 41s42.5 59.666 42.5 96.999v972z" />
    <glyph glyph-name="uni1F149" unicode="Z&#x20de;" 
d="M575 388v83l361 499v7h-350v104h509v-83l-360 -499v-7h370v-104h-530zM356 1464h968c71.333 0 132.166 -24.833 182.499 -74.5s75.5 -109.5 75.5 -179.5v-976c0 -70 -25.167 -129.833 -75.5 -179.5s-111.166 -74.5 -182.499 -74.5h-968
c-71.333 0 -132.166 24.833 -182.499 74.5s-75.5 109.5 -75.5 179.5v976c0 70 25.167 129.833 75.5 179.5s111.166 74.5 182.499 74.5zM1453 1208c0 37.333 -14.167 69.667 -42.5 97s-61.833 41 -100.5 41h-940c-38.667 0 -72.167 -13.5 -100.5 -40.5
s-42.5 -59.5 -42.5 -97.5v-972c0 -37.333 14.167 -69.666 42.5 -96.999s61.833 -41 100.5 -41h940c38.667 0 72.167 13.667 100.5 41s42.5 59.666 42.5 96.999v972z" />
    <glyph glyph-name="uni1F150" unicode="A&#x20dd;&#x25cf;" 
d="M941 690h-202l99 297h4zM638 374l67 202h270l67 -202h156l-273 766h-170l-273 -766h156zM840 -50c-104 0 -203.667 20.5 -299 61.5s-177.333 95.833 -246 164.5s-123.5 150.667 -164.5 246s-61.5 195 -61.5 299s20.5 203.667 61.5 299s95.833 177.333 164.5 246
s150.667 123.5 246 164.5s195 61.5 299 61.5s203.667 -20.5 299 -61.5s177.333 -95.833 246 -164.5s123.5 -150.667 164.5 -246s61.5 -195 61.5 -299s-20.5 -203.667 -61.5 -299s-95.833 -177.333 -164.5 -246s-150.667 -123.5 -246 -164.5s-195 -61.5 -299 -61.5z" />
    <glyph glyph-name="uni1F151" unicode="B&#x20dd;&#x25cf;" 
d="M569 354h323.001c86.667 0 155.5 19.667 206.5 59s76.5 92.333 76.5 159c0 50.667 -15 92.834 -45 126.501s-71.333 54.5 -124 62.5c40 12 71 32.667 93 62s33 64.666 33 105.999c0 58.667 -21.333 105.167 -64 139.5s-100.334 51.5 -173.001 51.5h-326v-766z
M720.001 1005l145 0.000976562c36 0 64.333 -8.83301 85 -26.5s31 -41.834 31 -72.501c0 -69.333 -52.667 -104 -158 -104h-103v203zM720.001 694.001l155 -0.00195312c45.333 0 80.5 -10.167 105.5 -30.5s37.5 -49.166 37.5 -86.499s-14.5 -64.666 -43.5 -81.999
s-74.833 -26 -137.5 -26h-117v225zM840.001 -50.001c-104 0 -203.667 20.5 -299 61.5s-177.333 95.833 -246 164.5s-123.5 150.667 -164.5 246s-61.5 195 -61.5 299s20.5 203.667 61.5 299s95.833 177.333 164.5 246s150.667 123.5 246 164.5s195 61.5 299 61.5
s203.667 -20.5 299 -61.5s177.333 -95.833 246 -164.5s123.5 -150.667 164.5 -246s61.5 -195 61.5 -299s-20.5 -203.667 -61.5 -299s-95.833 -177.333 -164.5 -246s-150.667 -123.5 -246 -164.5s-195 -61.5 -299 -61.5z" />
    <glyph glyph-name="uni1F152" unicode="C&#x20dd;&#x25cf;" 
d="M1015 593c-6 -34 -25.499 -62.832 -58.499 -86.499s-71.5 -35.5 -115.5 -35.5c-60.667 0 -109.5 24 -146.5 72s-55.5 111.667 -55.5 191s18.5 143.166 55.5 191.499s85.833 72.5 146.5 72.5c45.333 0 84.833 -12.833 118.5 -38.5s53.5 -56.834 59.5 -93.501h155
c-10 80 -45.167 144.167 -105.5 192.5s-136.833 72.5 -229.5 72.5c-106.667 0 -192.834 -36.667 -258.501 -110s-98.5 -169 -98.5 -287s32.833 -213.5 98.5 -286.5s151.834 -109.5 258.501 -109.5c89.333 0 164.166 23.333 224.499 70s96.5 108.334 108.5 185.001h-157z
M840.001 -49.999c-104 0 -203.667 20.5 -299 61.5s-177.333 95.833 -246 164.5s-123.5 150.667 -164.5 246s-61.5 195 -61.5 299s20.5 203.667 61.5 299s95.833 177.333 164.5 246s150.667 123.5 246 164.5s195 61.5 299 61.5s203.667 -20.5 299 -61.5
s177.333 -95.833 246 -164.5s123.5 -150.667 164.5 -246s61.5 -195 61.5 -299s-20.5 -203.667 -61.5 -299s-95.833 -177.333 -164.5 -246s-150.667 -123.5 -246 -164.5s-195 -61.5 -299 -61.5z" />
    <glyph glyph-name="uni1F153" unicode="D&#x20dd;&#x25cf;" 
d="M561 1120l-0.00195312 -765.999h285c116.667 0 205.334 32.667 266.001 98s91 160.666 91 285.999s-30.167 220.333 -90.5 285s-149.166 97 -266.499 97h-285zM712.998 997.001h115c74 0 129 -21.5 165 -64.5s54 -108.5 54 -196.5s-18 -153.167 -54 -195.5
s-91 -63.5 -165 -63.5h-115v520zM839.998 -49.999c-104 0 -203.667 20.5 -299 61.5s-177.333 95.833 -246 164.5s-123.5 150.667 -164.5 246s-61.5 195 -61.5 299s20.5 203.667 61.5 299s95.833 177.333 164.5 246s150.667 123.5 246 164.5s195 61.5 299 61.5
s203.667 -20.5 299 -61.5s177.333 -95.833 246 -164.5s123.5 -150.667 164.5 -246s61.5 -195 61.5 -299s-20.5 -203.667 -61.5 -299s-95.833 -177.333 -164.5 -246s-150.667 -123.5 -246 -164.5s-195 -61.5 -299 -61.5z" />
    <glyph glyph-name="uni1F154" unicode="E&#x20dd;&#x25cf;" 
d="M1099 477h-361v206h339v117h-339v197h361v123h-514v-766h514v123zM840 -50c-104 0 -203.667 20.5 -299 61.5s-177.333 95.833 -246 164.5s-123.5 150.667 -164.5 246s-61.5 195 -61.5 299s20.5 203.667 61.5 299s95.833 177.333 164.5 246s150.667 123.5 246 164.5
s195 61.5 299 61.5s203.667 -20.5 299 -61.5s177.333 -95.833 246 -164.5s123.5 -150.667 164.5 -246s61.5 -195 61.5 -299s-20.5 -203.667 -61.5 -299s-95.833 -177.333 -164.5 -246s-150.667 -123.5 -246 -164.5s-195 -61.5 -299 -61.5z" />
    <glyph glyph-name="uni1F155" unicode="F&#x20dd;&#x25cf;" 
d="M770 354v307h324v123h-324v212h353v124h-505v-766h152zM840 -50c-104 0 -203.667 20.5 -299 61.5s-177.333 95.833 -246 164.5s-123.5 150.667 -164.5 246s-61.5 195 -61.5 299s20.5 203.667 61.5 299s95.833 177.333 164.5 246s150.667 123.5 246 164.5
s195 61.5 299 61.5s203.667 -20.5 299 -61.5s177.333 -95.833 246 -164.5s123.5 -150.667 164.5 -246s61.5 -195 61.5 -299s-20.5 -203.667 -61.5 -299s-95.833 -177.333 -164.5 -246s-150.667 -123.5 -246 -164.5s-195 -61.5 -299 -61.5z" />
    <glyph glyph-name="uni1F156" unicode="G&#x20dd;&#x25cf;" 
d="M1017 620c0 -40 -15.3301 -73.667 -45.9971 -101s-73.334 -41 -128.001 -41c-62 0 -111.333 22.833 -148 68.5s-55 108.167 -55 187.5c0 80 18.333 142.833 55 188.5s86 68.5 148 68.5c48 0 87.833 -10 119.5 -30s49.5 -44.667 53.5 -74h157
c-10.667 72 -46.334 130.5 -107.001 175.5s-135.334 67.5 -224.001 67.5c-107.333 0 -194.333 -36.5 -261 -109.5s-100 -168.5 -100 -286.5s33 -213.333 99 -286s152.667 -109 260 -109c98.667 0 177.667 28.667 237 86s89 129 89 215v134h-312v-127h163v-27zM840.003 -50
c-104 0 -203.667 20.5 -299 61.5s-177.333 95.833 -246 164.5s-123.5 150.667 -164.5 246s-61.5 195 -61.5 299s20.5 203.667 61.5 299s95.833 177.333 164.5 246s150.667 123.5 246 164.5s195 61.5 299 61.5s203.667 -20.5 299 -61.5s177.333 -95.833 246 -164.5
s123.5 -150.667 164.5 -246s61.5 -195 61.5 -299s-20.5 -203.667 -61.5 -299s-95.833 -177.333 -164.5 -246s-150.667 -123.5 -246 -164.5s-195 -61.5 -299 -61.5z" />
    <glyph glyph-name="uni1F157" unicode="H&#x20dd;&#x25cf;" 
d="M1162 354v766h-151v-312h-341v312h-152v-766h152v330h341v-330h151zM840 -50c-104 0 -203.667 20.5 -299 61.5s-177.333 95.833 -246 164.5s-123.5 150.667 -164.5 246s-61.5 195 -61.5 299s20.5 203.667 61.5 299s95.833 177.333 164.5 246s150.667 123.5 246 164.5
s195 61.5 299 61.5s203.667 -20.5 299 -61.5s177.333 -95.833 246 -164.5s123.5 -150.667 164.5 -246s61.5 -195 61.5 -299s-20.5 -203.667 -61.5 -299s-95.833 -177.333 -164.5 -246s-150.667 -123.5 -246 -164.5s-195 -61.5 -299 -61.5z" />
    <glyph glyph-name="uni1F158" unicode="I&#x20dd;&#x25cf;" 
d="M916 354v766h-152v-766h152zM840 -50c-104 0 -203.667 20.5 -299 61.5s-177.333 95.833 -246 164.5s-123.5 150.667 -164.5 246s-61.5 195 -61.5 299s20.5 203.667 61.5 299s95.833 177.333 164.5 246s150.667 123.5 246 164.5s195 61.5 299 61.5
s203.667 -20.5 299 -61.5s177.333 -95.833 246 -164.5s123.5 -150.667 164.5 -246s61.5 -195 61.5 -299s-20.5 -203.667 -61.5 -299s-95.833 -177.333 -164.5 -246s-150.667 -123.5 -246 -164.5s-195 -61.5 -299 -61.5z" />
    <glyph glyph-name="uni1F159" unicode="J&#x20dd;&#x25cf;" 
d="M546 570c0 -69.333 23.1689 -125 69.502 -167s107.833 -63 184.5 -63c83.333 0 148 22.333 194 67s69 107.334 69 188.001v525h-153v-530c0 -79.333 -37.333 -119 -112 -119c-30.667 0 -55.334 9.16699 -74.001 27.5s-28.334 42.166 -29.001 71.499h-149zM840.002 -50
c-104 0 -203.667 20.5 -299 61.5s-177.333 95.833 -246 164.5s-123.5 150.667 -164.5 246s-61.5 195 -61.5 299s20.5 203.667 61.5 299s95.833 177.333 164.5 246s150.667 123.5 246 164.5s195 61.5 299 61.5s203.667 -20.5 299 -61.5s177.333 -95.833 246 -164.5
s123.5 -150.667 164.5 -246s61.5 -195 61.5 -299s-20.5 -203.667 -61.5 -299s-95.833 -177.333 -164.5 -246s-150.667 -123.5 -246 -164.5s-195 -61.5 -299 -61.5z" />
    <glyph glyph-name="uni1F15A" unicode="K&#x20dd;&#x25cf;" 
d="M1188 1120h-172l-311 -343v343h-152v-766h152v252l79 85l230 -337h185l-304 436zM840 -50c-104 0 -203.667 20.5 -299 61.5s-177.333 95.833 -246 164.5s-123.5 150.667 -164.5 246s-61.5 195 -61.5 299s20.5 203.667 61.5 299s95.833 177.333 164.5 246
s150.667 123.5 246 164.5s195 61.5 299 61.5s203.667 -20.5 299 -61.5s177.333 -95.833 246 -164.5s123.5 -150.667 164.5 -246s61.5 -195 61.5 -299s-20.5 -203.667 -61.5 -299s-95.833 -177.333 -164.5 -246s-150.667 -123.5 -246 -164.5s-195 -61.5 -299 -61.5z" />
    <glyph glyph-name="uni1F15B" unicode="L&#x20dd;&#x25cf;" 
d="M1130 481h-344v639h-153v-766h497v127zM840 -50c-104 0 -203.667 20.5 -299 61.5s-177.333 95.833 -246 164.5s-123.5 150.667 -164.5 246s-61.5 195 -61.5 299s20.5 203.667 61.5 299s95.833 177.333 164.5 246s150.667 123.5 246 164.5s195 61.5 299 61.5
s203.667 -20.5 299 -61.5s177.333 -95.833 246 -164.5s123.5 -150.667 164.5 -246s61.5 -195 61.5 -299s-20.5 -203.667 -61.5 -299s-95.833 -177.333 -164.5 -246s-150.667 -123.5 -246 -164.5s-195 -61.5 -299 -61.5z" />
    <glyph glyph-name="uni1F15C" unicode="M&#x20dd;&#x25cf;" 
d="M591 354v521l196 -495h106l195 491v-517h139v766h-152l-236 -582l-233 582h-153v-766h138zM840 -50c-104 0 -203.667 20.5 -299 61.5s-177.333 95.833 -246 164.5s-123.5 150.667 -164.5 246s-61.5 195 -61.5 299s20.5 203.667 61.5 299s95.833 177.333 164.5 246
s150.667 123.5 246 164.5s195 61.5 299 61.5s203.667 -20.5 299 -61.5s177.333 -95.833 246 -164.5s123.5 -150.667 164.5 -246s61.5 -195 61.5 -299s-20.5 -203.667 -61.5 -299s-95.833 -177.333 -164.5 -246s-150.667 -123.5 -246 -164.5s-195 -61.5 -299 -61.5z" />
    <glyph glyph-name="uni1F15D" unicode="N&#x20dd;&#x25cf;" 
d="M668 354v523l359 -523h131v766h-146v-524l-361 524h-129v-766h146zM840 -50c-104 0 -203.667 20.5 -299 61.5s-177.333 95.833 -246 164.5s-123.5 150.667 -164.5 246s-61.5 195 -61.5 299s20.5 203.667 61.5 299s95.833 177.333 164.5 246s150.667 123.5 246 164.5
s195 61.5 299 61.5s203.667 -20.5 299 -61.5s177.333 -95.833 246 -164.5s123.5 -150.667 164.5 -246s61.5 -195 61.5 -299s-20.5 -203.667 -61.5 -299s-95.833 -177.333 -164.5 -246s-150.667 -123.5 -246 -164.5s-195 -61.5 -299 -61.5z" />
    <glyph glyph-name="uni1F15E" unicode="O&#x20dd;&#x25cf;" 
d="M840 465c-59.333 0 -108.5 23.833 -147.5 71.5s-58.5 113.5 -58.5 197.5c0 84.667 19.5 150.834 58.5 198.501s88.167 71.5 147.5 71.5s108.5 -23.833 147.5 -71.5s58.5 -113.834 58.5 -198.501c0 -84 -19.5 -149.833 -58.5 -197.5s-88.167 -71.5 -147.5 -71.5zM840 338
c103.333 0 189.166 35.333 257.499 106s102.5 167.334 102.5 290.001c0 123.333 -34.167 220.333 -102.5 291s-154.166 106 -257.499 106s-189.166 -35.333 -257.499 -106s-102.5 -167.667 -102.5 -291c0 -122.667 34.167 -219.334 102.5 -290.001
s154.166 -106 257.499 -106zM840 -50c-104 0 -203.667 20.5 -299 61.5s-177.333 95.833 -246 164.5s-123.5 150.667 -164.5 246s-61.5 195 -61.5 299s20.5 203.667 61.5 299s95.833 177.333 164.5 246s150.667 123.5 246 164.5s195 61.5 299 61.5s203.667 -20.5 299 -61.5
s177.333 -95.833 246 -164.5s123.5 -150.667 164.5 -246s61.5 -195 61.5 -299s-20.5 -203.667 -61.5 -299s-95.833 -177.333 -164.5 -246s-150.667 -123.5 -246 -164.5s-195 -61.5 -299 -61.5z" />
    <glyph glyph-name="uni1F15F" unicode="P&#x20dd;&#x25cf;" 
d="M900 1120h-314v-766h152v263h161c81.333 0 147 22.833 197 68.5s75 106.167 75 181.5s-25 136.333 -75 183s-115.333 70 -196 70zM1015 867c0 -41.333 -12.168 -73.668 -36.501 -97.001s-58.166 -35 -101.499 -35h-139v264h139c44 0 78 -11.667 102 -35
s36 -55.666 36 -96.999zM839.999 -50.002c-104 0 -203.667 20.5 -299 61.5s-177.333 95.833 -246 164.5s-123.5 150.667 -164.5 246s-61.5 195 -61.5 299s20.5 203.667 61.5 299s95.833 177.333 164.5 246s150.667 123.5 246 164.5s195 61.5 299 61.5
s203.667 -20.5 299 -61.5s177.333 -95.833 246 -164.5s123.5 -150.667 164.5 -246s61.5 -195 61.5 -299s-20.5 -203.667 -61.5 -299s-95.833 -177.333 -164.5 -246s-150.667 -123.5 -246 -164.5s-195 -61.5 -299 -61.5z" />
    <glyph glyph-name="uni1F160" unicode="Q&#x20dd;&#x25cf;" 
d="M1180 280l-106.001 142.001c84 73.333 126 177.333 126 312c0 123.333 -34.167 220.333 -102.5 291s-154.166 106 -257.499 106s-189.166 -35.333 -257.499 -106s-102.5 -167.667 -102.5 -291c0 -122.667 34.167 -219.334 102.5 -290.001s154.166 -106 257.499 -106
c44 0 85.667 7 125 21l57 -79h158zM839.999 465.001c-59.333 0 -108.5 23.833 -147.5 71.5s-58.5 113.5 -58.5 197.5c0 84.667 19.5 150.834 58.5 198.501s88.167 71.5 147.5 71.5s108.5 -23.833 147.5 -71.5s58.5 -113.834 58.5 -198.501c0 -82.667 -19.333 -148 -58 -196
l-46 62h-152l94 -130c-15.333 -3.33301 -30 -5 -44 -5zM839.999 -49.999c-104 0 -203.667 20.5 -299 61.5s-177.333 95.833 -246 164.5s-123.5 150.667 -164.5 246s-61.5 195 -61.5 299s20.5 203.667 61.5 299s95.833 177.333 164.5 246s150.667 123.5 246 164.5
s195 61.5 299 61.5s203.667 -20.5 299 -61.5s177.333 -95.833 246 -164.5s123.5 -150.667 164.5 -246s61.5 -195 61.5 -299s-20.5 -203.667 -61.5 -299s-95.833 -177.333 -164.5 -246s-150.667 -123.5 -246 -164.5s-195 -61.5 -299 -61.5z" />
    <glyph glyph-name="uni1F161" unicode="R&#x20dd;&#x25cf;" 
d="M708 755v245h143c44 0 78.5 -11 103.5 -33s37.5 -52.667 37.5 -92c0 -38 -12.5 -67.5 -37.5 -88.5s-60.5 -31.5 -106.5 -31.5h-140zM871 1120h-313v-766h150v287h147l139 -287h173l-161 310c43.333 16 77.833 43.333 103.5 82s38.5 83 38.5 133
c0 74.667 -24.833 133.5 -74.5 176.5s-117.167 64.5 -202.5 64.5zM840 -50c-104 0 -203.667 20.5 -299 61.5s-177.333 95.833 -246 164.5s-123.5 150.667 -164.5 246s-61.5 195 -61.5 299s20.5 203.667 61.5 299s95.833 177.333 164.5 246s150.667 123.5 246 164.5
s195 61.5 299 61.5s203.667 -20.5 299 -61.5s177.333 -95.833 246 -164.5s123.5 -150.667 164.5 -246s61.5 -195 61.5 -299s-20.5 -203.667 -61.5 -299s-95.833 -177.333 -164.5 -246s-150.667 -123.5 -246 -164.5s-195 -61.5 -299 -61.5z" />
    <glyph glyph-name="uni1F162" unicode="S&#x20dd;&#x25cf;" 
d="M529 576c2 -72.667 30.668 -130.333 86.001 -173s129.333 -64 222 -64c96.667 0 173.167 21.333 229.5 64s84.5 100.667 84.5 174c0 58 -17.5 104.5 -52.5 139.5s-89.5 61.167 -163.5 78.5l-127 28c-70 15.333 -105 45.333 -105 90c0 31.333 12.833 56.5 38.5 75.5
s59.834 28.5 102.501 28.5s77.667 -10.333 105 -31s42.666 -48 45.999 -82h145c-0.666992 68.667 -28.334 124.5 -83.001 167.5s-125.334 64.5 -212.001 64.5c-87.333 0 -158.333 -21.333 -213 -64s-82 -98.334 -82 -167.001c0 -54 17.167 -99 51.5 -135
s83.833 -61.333 148.5 -76l127 -30c42.667 -9.33301 73.667 -21.666 93 -36.999s29 -35.666 29 -60.999c0 -33.333 -13.833 -59.5 -41.5 -78.5s-65.167 -28.5 -112.5 -28.5s-86.166 10.667 -116.499 32s-46.833 49.666 -49.5 84.999h-150zM840.001 -49.999
c-104 0 -203.667 20.5 -299 61.5s-177.333 95.833 -246 164.5s-123.5 150.667 -164.5 246s-61.5 195 -61.5 299s20.5 203.667 61.5 299s95.833 177.333 164.5 246s150.667 123.5 246 164.5s195 61.5 299 61.5s203.667 -20.5 299 -61.5s177.333 -95.833 246 -164.5
s123.5 -150.667 164.5 -246s61.5 -195 61.5 -299s-20.5 -203.667 -61.5 -299s-95.833 -177.333 -164.5 -246s-150.667 -123.5 -246 -164.5s-195 -61.5 -299 -61.5z" />
    <glyph glyph-name="uni1F163" unicode="T&#x20dd;&#x25cf;" 
d="M916 334v641h229v125h-610v-125h229v-641h152zM840 -50c-104 0 -203.667 20.5 -299 61.5s-177.333 95.833 -246 164.5s-123.5 150.667 -164.5 246s-61.5 195 -61.5 299s20.5 203.667 61.5 299s95.833 177.333 164.5 246s150.667 123.5 246 164.5s195 61.5 299 61.5
s203.667 -20.5 299 -61.5s177.333 -95.833 246 -164.5s123.5 -150.667 164.5 -246s61.5 -195 61.5 -299s-20.5 -203.667 -61.5 -299s-95.833 -177.333 -164.5 -246s-150.667 -123.5 -246 -164.5s-195 -61.5 -299 -61.5z" />
    <glyph glyph-name="uni1F164" unicode="U&#x20dd;&#x25cf;" 
d="M840 448c-52.667 0 -93.667 14.5 -123 43.5s-44 69.167 -44 120.5v488h-153v-500c0 -84.667 29.167 -152.5 87.5 -203.5s135.833 -76.5 232.5 -76.5s174.167 25.667 232.5 77s87.5 119 87.5 203v500h-153v-488c0 -51.333 -14.833 -91.5 -44.5 -120.5
s-70.5 -43.5 -122.5 -43.5zM840 -50c-104 0 -203.667 20.5 -299 61.5s-177.333 95.833 -246 164.5s-123.5 150.667 -164.5 246s-61.5 195 -61.5 299s20.5 203.667 61.5 299s95.833 177.333 164.5 246s150.667 123.5 246 164.5s195 61.5 299 61.5s203.667 -20.5 299 -61.5
s177.333 -95.833 246 -164.5s123.5 -150.667 164.5 -246s61.5 -195 61.5 -299s-20.5 -203.667 -61.5 -299s-95.833 -177.333 -164.5 -246s-150.667 -123.5 -246 -164.5s-195 -61.5 -299 -61.5z" />
    <glyph glyph-name="uni1F165" unicode="V&#x20dd;&#x25cf;" 
d="M926 334l277 766h-175l-186 -608h-4l-186 608h-175l277 -766h172zM840 -50c-104 0 -203.667 20.5 -299 61.5s-177.333 95.833 -246 164.5s-123.5 150.667 -164.5 246s-61.5 195 -61.5 299s20.5 203.667 61.5 299s95.833 177.333 164.5 246s150.667 123.5 246 164.5
s195 61.5 299 61.5s203.667 -20.5 299 -61.5s177.333 -95.833 246 -164.5s123.5 -150.667 164.5 -246s61.5 -195 61.5 -299s-20.5 -203.667 -61.5 -299s-95.833 -177.333 -164.5 -246s-150.667 -123.5 -246 -164.5s-195 -61.5 -299 -61.5z" />
    <glyph glyph-name="uni1F166" unicode="W&#x20dd;&#x25cf;" 
d="M838 875h4l151 -541h139l216 766h-168l-122 -566h-4l-145 566h-138l-145 -566h-4l-122 566h-168l217 -766h138zM840 -50c-104 0 -203.667 20.5 -299 61.5s-177.333 95.833 -246 164.5s-123.5 150.667 -164.5 246s-61.5 195 -61.5 299s20.5 203.667 61.5 299
s95.833 177.333 164.5 246s150.667 123.5 246 164.5s195 61.5 299 61.5s203.667 -20.5 299 -61.5s177.333 -95.833 246 -164.5s123.5 -150.667 164.5 -246s61.5 -195 61.5 -299s-20.5 -203.667 -61.5 -299s-95.833 -177.333 -164.5 -246s-150.667 -123.5 -246 -164.5
s-195 -61.5 -299 -61.5z" />
    <glyph glyph-name="uni1F167" unicode="X&#x20dd;&#x25cf;" 
d="M1192 1120h-174l-168 -279h-4l-173 279h-182l250 -380l-253 -386h170l175 275h3l175 -275h177l-254 381zM840 -50c-104 0 -203.667 20.5 -299 61.5s-177.333 95.833 -246 164.5s-123.5 150.667 -164.5 246s-61.5 195 -61.5 299s20.5 203.667 61.5 299
s95.833 177.333 164.5 246s150.667 123.5 246 164.5s195 61.5 299 61.5s203.667 -20.5 299 -61.5s177.333 -95.833 246 -164.5s123.5 -150.667 164.5 -246s61.5 -195 61.5 -299s-20.5 -203.667 -61.5 -299s-95.833 -177.333 -164.5 -246s-150.667 -123.5 -246 -164.5
s-195 -61.5 -299 -61.5z" />
    <glyph glyph-name="uni1F168" unicode="Y&#x20dd;&#x25cf;" 
d="M764 349h152v302l271 464h-169l-176 -324h-4l-176 324h-169l271 -464v-302zM840 -50c-104 0 -203.667 20.5 -299 61.5s-177.333 95.833 -246 164.5s-123.5 150.667 -164.5 246s-61.5 195 -61.5 299s20.5 203.667 61.5 299s95.833 177.333 164.5 246
s150.667 123.5 246 164.5s195 61.5 299 61.5s203.667 -20.5 299 -61.5s177.333 -95.833 246 -164.5s123.5 -150.667 164.5 -246s61.5 -195 61.5 -299s-20.5 -203.667 -61.5 -299s-95.833 -177.333 -164.5 -246s-150.667 -123.5 -246 -164.5s-195 -61.5 -299 -61.5z" />
    <glyph glyph-name="uni1F169" unicode="Z&#x20dd;&#x25cf;" 
d="M545 354h590v124h-405l394 545v97h-567v-124h383v-1l-395 -544v-97zM840 -50c-104 0 -203.667 20.5 -299 61.5s-177.333 95.833 -246 164.5s-123.5 150.667 -164.5 246s-61.5 195 -61.5 299s20.5 203.667 61.5 299s95.833 177.333 164.5 246s150.667 123.5 246 164.5
s195 61.5 299 61.5s203.667 -20.5 299 -61.5s177.333 -95.833 246 -164.5s123.5 -150.667 164.5 -246s61.5 -195 61.5 -299s-20.5 -203.667 -61.5 -299s-95.833 -177.333 -164.5 -246s-150.667 -123.5 -246 -164.5s-195 -61.5 -299 -61.5z" />
    <glyph glyph-name="uni1F170" unicode="A&#x20de;&#x25a0;" 
d="M941 670h-202l99 297h4zM638 354l67 202h270l67 -202h156l-273 766h-170l-273 -766h156zM356 1464h968c71.333 0 132.166 -24.833 182.499 -74.5s75.5 -109.5 75.5 -179.5v-976c0 -70 -25.167 -129.833 -75.5 -179.5s-111.166 -74.5 -182.499 -74.5h-968
c-71.333 0 -132.166 24.833 -182.499 74.5s-75.5 109.5 -75.5 179.5v976c0 70 25.167 129.833 75.5 179.5s111.166 74.5 182.499 74.5z" />
    <glyph glyph-name="uni1F171" unicode="B&#x20de;&#x25a0;" 
d="M569 354l322.999 -0.000976562c84.667 0 153 19.333 205 58s78 92 78 160c0 52.667 -15.667 95.334 -47 128.001s-72 53 -122 61c38.667 11.333 69.334 31.333 92.001 60s34 64.667 34 108c0 59.333 -21.5 106 -64.5 140s-100.5 51 -172.5 51h-326v-766zM719.999 1005
h145c36 0 64.333 -9 85 -27s31 -42 31 -72c0 -69.333 -52.667 -104 -158 -104h-103v203zM719.999 693.999l155 0.00195312c46 0 81.333 -10.333 106 -31s37 -49.334 37 -86.001s-14.333 -63.834 -43 -81.501s-74.667 -26.5 -138 -26.5h-117v225zM355.999 1464h968
c71.333 0 132.166 -24.833 182.499 -74.5s75.5 -109.5 75.5 -179.5v-976c0 -70 -25.167 -129.833 -75.5 -179.5s-111.166 -74.5 -182.499 -74.5h-968c-71.333 0 -132.166 24.833 -182.499 74.5s-75.5 109.5 -75.5 179.5v976c0 70 25.167 129.833 75.5 179.5
s111.166 74.5 182.499 74.5z" />
    <glyph glyph-name="uni1F172" unicode="C&#x20de;&#x25a0;" 
d="M1015 593c-6 -34 -25.499 -62.832 -58.499 -86.499s-71.5 -35.5 -115.5 -35.5c-60.667 0 -109.5 24 -146.5 72s-55.5 111.667 -55.5 191s18.5 143.166 55.5 191.499s85.833 72.5 146.5 72.5c45.333 0 84.833 -12.833 118.5 -38.5s53.5 -56.834 59.5 -93.501h155
c-10 80 -45.167 144.167 -105.5 192.5s-136.833 72.5 -229.5 72.5c-106.667 0 -192.834 -36.667 -258.501 -110s-98.5 -169 -98.5 -287s32.833 -213.5 98.5 -286.5s151.834 -109.5 258.501 -109.5c89.333 0 164.166 23.333 224.499 70s96.5 108.334 108.5 185.001h-157z
M356.001 1464h968c71.333 0 132.166 -24.833 182.499 -74.5s75.5 -109.5 75.5 -179.5v-976c0 -70 -25.167 -129.833 -75.5 -179.5s-111.166 -74.5 -182.499 -74.5h-968c-71.333 0 -132.166 24.833 -182.499 74.5s-75.5 109.5 -75.5 179.5v976
c0 70 25.167 129.833 75.5 179.5s111.166 74.5 182.499 74.5z" />
    <glyph glyph-name="uni1F173" unicode="D&#x20de;&#x25a0;" 
d="M538 1120v-766h285c118.667 0 207.834 33 267.501 99s89.5 161 89.5 285s-29.833 218.667 -89.5 284s-148.834 98 -267.501 98h-285zM690 997l115 -0.000976562c74.667 0 129.834 -21.667 165.501 -65s53.5 -108.666 53.5 -195.999s-17.833 -152.333 -53.5 -195
s-90.834 -64 -165.501 -64h-115v520zM356 1464h968c71.333 0 132.166 -24.833 182.499 -74.5s75.5 -109.5 75.5 -179.5v-976c0 -70 -25.167 -129.833 -75.5 -179.5s-111.166 -74.5 -182.499 -74.5h-968c-71.333 0 -132.166 24.833 -182.499 74.5s-75.5 109.5 -75.5 179.5
v976c0 70 25.167 129.833 75.5 179.5s111.166 74.5 182.499 74.5z" />
    <glyph glyph-name="uni1F174" unicode="E&#x20de;&#x25a0;" 
d="M1099 477h-361v206h339v117h-339v197h361v123h-514v-766h514v123zM356 1464h968c71.333 0 132.166 -24.833 182.499 -74.5s75.5 -109.5 75.5 -179.5v-976c0 -70 -25.167 -129.833 -75.5 -179.5s-111.166 -74.5 -182.499 -74.5h-968
c-71.333 0 -132.166 24.833 -182.499 74.5s-75.5 109.5 -75.5 179.5v976c0 70 25.167 129.833 75.5 179.5s111.166 74.5 182.499 74.5z" />
    <glyph glyph-name="uni1F175" unicode="F&#x20de;&#x25a0;" 
d="M770 354v307h324v123h-324v212h353v124h-505v-766h152zM356 1464h968c71.333 0 132.166 -24.833 182.499 -74.5s75.5 -109.5 75.5 -179.5v-976c0 -70 -25.167 -129.833 -75.5 -179.5s-111.166 -74.5 -182.499 -74.5h-968c-71.333 0 -132.166 24.833 -182.499 74.5
s-75.5 109.5 -75.5 179.5v976c0 70 25.167 129.833 75.5 179.5s111.166 74.5 182.499 74.5z" />
    <glyph glyph-name="uni1F176" unicode="G&#x20de;&#x25a0;" 
d="M1017 620c0 -40 -15.3301 -73.667 -45.9971 -101s-73.334 -41 -128.001 -41c-62 0 -111.333 22.833 -148 68.5s-55 108.167 -55 187.5c0 80 18.333 142.833 55 188.5s86 68.5 148 68.5c48 0 87.833 -10 119.5 -30s49.5 -44.667 53.5 -74h157
c-10.667 72 -46.334 130.5 -107.001 175.5s-135.334 67.5 -224.001 67.5c-107.333 0 -194.333 -36.5 -261 -109.5s-100 -168.5 -100 -286.5s33 -213.333 99 -286s152.667 -109 260 -109c98.667 0 177.667 28.667 237 86s89 129 89 215v134h-312v-127h163v-27zM356.003 1464
h968c71.333 0 132.166 -24.833 182.499 -74.5s75.5 -109.5 75.5 -179.5v-976c0 -70 -25.167 -129.833 -75.5 -179.5s-111.166 -74.5 -182.499 -74.5h-968c-71.333 0 -132.166 24.833 -182.499 74.5s-75.5 109.5 -75.5 179.5v976c0 70 25.167 129.833 75.5 179.5
s111.166 74.5 182.499 74.5z" />
    <glyph glyph-name="uni1F177" unicode="H&#x20de;&#x25a0;" 
d="M1162 354v766h-151v-312h-341v312h-152v-766h152v330h341v-330h151zM356 1464h968c71.333 0 132.166 -24.833 182.499 -74.5s75.5 -109.5 75.5 -179.5v-976c0 -70 -25.167 -129.833 -75.5 -179.5s-111.166 -74.5 -182.499 -74.5h-968
c-71.333 0 -132.166 24.833 -182.499 74.5s-75.5 109.5 -75.5 179.5v976c0 70 25.167 129.833 75.5 179.5s111.166 74.5 182.499 74.5z" />
    <glyph glyph-name="uni1F178" unicode="I&#x20de;&#x25a0;" 
d="M916 354v766h-152v-766h152zM356 1464h968c71.333 0 132.166 -24.833 182.499 -74.5s75.5 -109.5 75.5 -179.5v-976c0 -70 -25.167 -129.833 -75.5 -179.5s-111.166 -74.5 -182.499 -74.5h-968c-71.333 0 -132.166 24.833 -182.499 74.5s-75.5 109.5 -75.5 179.5v976
c0 70 25.167 129.833 75.5 179.5s111.166 74.5 182.499 74.5z" />
    <glyph glyph-name="uni1F179" unicode="J&#x20de;&#x25a0;" 
d="M546 570c0 -66.667 22.335 -121.666 67.002 -164.999s107 -65 187 -65c82.667 0 147.167 22 193.5 66s69.5 107 69.5 189v525h-153v-530c0 -79.333 -37.333 -119 -112 -119c-30.667 0 -55.334 9.16699 -74.001 27.5s-28.334 42.166 -29.001 71.499h-149zM356.002 1464
h968c71.333 0 132.166 -24.833 182.499 -74.5s75.5 -109.5 75.5 -179.5v-976c0 -70 -25.167 -129.833 -75.5 -179.5s-111.166 -74.5 -182.499 -74.5h-968c-71.333 0 -132.166 24.833 -182.499 74.5s-75.5 109.5 -75.5 179.5v976c0 70 25.167 129.833 75.5 179.5
s111.166 74.5 182.499 74.5z" />
    <glyph glyph-name="uni1F17A" unicode="K&#x20de;&#x25a0;" 
d="M1188 1120h-172l-311 -343v343h-152v-766h152v252l79 85l230 -337h185l-304 436zM356 1464h968c71.333 0 132.166 -24.833 182.499 -74.5s75.5 -109.5 75.5 -179.5v-976c0 -70 -25.167 -129.833 -75.5 -179.5s-111.166 -74.5 -182.499 -74.5h-968
c-71.333 0 -132.166 24.833 -182.499 74.5s-75.5 109.5 -75.5 179.5v976c0 70 25.167 129.833 75.5 179.5s111.166 74.5 182.499 74.5z" />
    <glyph glyph-name="uni1F17B" unicode="L&#x20de;&#x25a0;" 
d="M1140 481h-344v639h-153v-766h497v127zM356 1464h968c71.333 0 132.166 -24.833 182.499 -74.5s75.5 -109.5 75.5 -179.5v-976c0 -70 -25.167 -129.833 -75.5 -179.5s-111.166 -74.5 -182.499 -74.5h-968c-71.333 0 -132.166 24.833 -182.499 74.5
s-75.5 109.5 -75.5 179.5v976c0 70 25.167 129.833 75.5 179.5s111.166 74.5 182.499 74.5z" />
    <glyph glyph-name="uni1F17C" unicode="M&#x20de;&#x25a0;" 
d="M591 354v521l196 -495h106l195 491v-517h139v766h-152l-236 -582l-233 582h-153v-766h138zM356 1464h968c71.333 0 132.166 -24.833 182.499 -74.5s75.5 -109.5 75.5 -179.5v-976c0 -70 -25.167 -129.833 -75.5 -179.5s-111.166 -74.5 -182.499 -74.5h-968
c-71.333 0 -132.166 24.833 -182.499 74.5s-75.5 109.5 -75.5 179.5v976c0 70 25.167 129.833 75.5 179.5s111.166 74.5 182.499 74.5z" />
    <glyph glyph-name="uni1F17D" unicode="N&#x20de;&#x25a0;" 
d="M668 354v523l359 -523h131v766h-146v-524l-361 524h-129v-766h146zM356 1464h968c71.333 0 132.166 -24.833 182.499 -74.5s75.5 -109.5 75.5 -179.5v-976c0 -70 -25.167 -129.833 -75.5 -179.5s-111.166 -74.5 -182.499 -74.5h-968
c-71.333 0 -132.166 24.833 -182.499 74.5s-75.5 109.5 -75.5 179.5v976c0 70 25.167 129.833 75.5 179.5s111.166 74.5 182.499 74.5z" />
    <glyph glyph-name="uni1F17E" unicode="O&#x20de;&#x25a0;" 
d="M840 465c-59.333 0 -108.5 23.833 -147.5 71.5s-58.5 113.5 -58.5 197.5c0 84.667 19.5 150.834 58.5 198.501s88.167 71.5 147.5 71.5s108.5 -23.833 147.5 -71.5s58.5 -113.834 58.5 -198.501c0 -84 -19.5 -149.833 -58.5 -197.5s-88.167 -71.5 -147.5 -71.5zM840 338
c103.333 0 189.166 35.333 257.499 106s102.5 167.334 102.5 290.001c0 123.333 -34.167 220.333 -102.5 291s-154.166 106 -257.499 106s-189.166 -35.333 -257.499 -106s-102.5 -167.667 -102.5 -291c0 -122.667 34.167 -219.334 102.5 -290.001
s154.166 -106 257.499 -106zM356 1464h968c71.333 0 132.166 -24.833 182.499 -74.5s75.5 -109.5 75.5 -179.5v-976c0 -70 -25.167 -129.833 -75.5 -179.5s-111.166 -74.5 -182.499 -74.5h-968c-71.333 0 -132.166 24.833 -182.499 74.5s-75.5 109.5 -75.5 179.5v976
c0 70 25.167 129.833 75.5 179.5s111.166 74.5 182.499 74.5z" />
    <glyph glyph-name="uni1F17F" unicode="P&#x20de;&#x25a0;" 
d="M900 1120h-314v-766h152v263h161c83.333 0 149.5 23.333 198.5 70s73.5 106.667 73.5 180c0 74 -24.333 134.667 -73 182s-114.667 71 -198 71zM1015 867c0 -41.333 -12.168 -73.667 -36.501 -97s-58.166 -35 -101.499 -35h-139v264h139c44 0 78 -11.5 102 -34.5
s36 -55.5 36 -97.5zM355.999 1464h968c71.333 0 132.166 -24.833 182.499 -74.5s75.5 -109.5 75.5 -179.5v-976c0 -70 -25.167 -129.833 -75.5 -179.5s-111.166 -74.5 -182.499 -74.5h-968c-71.333 0 -132.166 24.833 -182.499 74.5s-75.5 109.5 -75.5 179.5v976
c0 70 25.167 129.833 75.5 179.5s111.166 74.5 182.499 74.5z" />
    <glyph glyph-name="uni1F180" unicode="Q&#x20de;&#x25a0;" 
d="M1180 280l-106.001 142.001c84 73.333 126 177.333 126 312c0 123.333 -34.167 220.333 -102.5 291s-154.166 106 -257.499 106s-189.166 -35.333 -257.499 -106s-102.5 -167.667 -102.5 -291c0 -122.667 34.167 -219.334 102.5 -290.001s154.166 -106 257.499 -106
c44 0 85.667 7 125 21l57 -79h158zM839.999 465.001c-59.333 0 -108.5 23.833 -147.5 71.5s-58.5 113.5 -58.5 197.5c0 84.667 19.5 150.834 58.5 198.501s88.167 71.5 147.5 71.5s108.5 -23.833 147.5 -71.5s58.5 -113.834 58.5 -198.501c0 -82.667 -19.333 -148 -58 -196
l-46 62h-152l94 -130c-15.333 -3.33301 -30 -5 -44 -5zM355.999 1464h968c71.333 0 132.166 -24.833 182.499 -74.5s75.5 -109.5 75.5 -179.5v-976c0 -70 -25.167 -129.833 -75.5 -179.5s-111.166 -74.5 -182.499 -74.5h-968c-71.333 0 -132.166 24.833 -182.499 74.5
s-75.5 109.5 -75.5 179.5v976c0 70 25.167 129.833 75.5 179.5s111.166 74.5 182.499 74.5z" />
    <glyph glyph-name="uni1F181" unicode="R&#x20de;&#x25a0;" 
d="M708 755v245.001h143c43.333 0 77.666 -10.833 102.999 -32.5s38 -52.5 38 -92.5c0 -38.667 -12.667 -68.334 -38 -89.001s-60.666 -31 -105.999 -31h-140zM871 1120l-313 -0.000976562v-766h150v287h147l139 -287h173l-161 310c41.333 15.333 75.333 41.833 102 79.5
s40 82.834 40 135.501c0 74 -24.5 132.667 -73.5 176s-116.833 65 -203.5 65zM356 1464h968c71.333 0 132.166 -24.833 182.499 -74.5s75.5 -109.5 75.5 -179.5v-976c0 -70 -25.167 -129.833 -75.5 -179.5s-111.166 -74.5 -182.499 -74.5h-968
c-71.333 0 -132.166 24.833 -182.499 74.5s-75.5 109.5 -75.5 179.5v976c0 70 25.167 129.833 75.5 179.5s111.166 74.5 182.499 74.5z" />
    <glyph glyph-name="uni1F182" unicode="S&#x20de;&#x25a0;" 
d="M529 576c2 -72.667 30.668 -130.333 86.001 -173s129.333 -64 222 -64c96.667 0 173.167 21.333 229.5 64s84.5 100.667 84.5 174c0 58 -17.5 104.5 -52.5 139.5s-89.5 61.167 -163.5 78.5l-127 28c-70 15.333 -105 45.333 -105 90c0 31.333 12.833 56.5 38.5 75.5
s59.834 28.5 102.501 28.5s77.667 -10.333 105 -31s42.666 -48 45.999 -82h145c-0.666992 68.667 -28.334 124.5 -83.001 167.5s-125.334 64.5 -212.001 64.5c-87.333 0 -158.333 -21.333 -213 -64s-82 -98.334 -82 -167.001c0 -54 17.167 -99 51.5 -135
s83.833 -61.333 148.5 -76l127 -30c42.667 -9.33301 73.667 -21.666 93 -36.999s29 -35.666 29 -60.999c0 -33.333 -13.833 -59.5 -41.5 -78.5s-65.167 -28.5 -112.5 -28.5s-86.166 10.667 -116.499 32s-46.833 49.666 -49.5 84.999h-150zM356.001 1464h968
c71.333 0 132.166 -24.833 182.499 -74.5s75.5 -109.5 75.5 -179.5v-976c0 -70 -25.167 -129.833 -75.5 -179.5s-111.166 -74.5 -182.499 -74.5h-968c-71.333 0 -132.166 24.833 -182.499 74.5s-75.5 109.5 -75.5 179.5v976c0 70 25.167 129.833 75.5 179.5
s111.166 74.5 182.499 74.5z" />
    <glyph glyph-name="uni1F183" unicode="T&#x20de;&#x25a0;" 
d="M916 354v641h229v125h-610v-125h229v-641h152zM356 1464h968c71.333 0 132.166 -24.833 182.499 -74.5s75.5 -109.5 75.5 -179.5v-976c0 -70 -25.167 -129.833 -75.5 -179.5s-111.166 -74.5 -182.499 -74.5h-968c-71.333 0 -132.166 24.833 -182.499 74.5
s-75.5 109.5 -75.5 179.5v976c0 70 25.167 129.833 75.5 179.5s111.166 74.5 182.499 74.5z" />
    <glyph glyph-name="uni1F184" unicode="U&#x20de;&#x25a0;" 
d="M840 468c-52.667 0 -93.667 14.5 -123 43.5s-44 69.167 -44 120.5v488h-153v-500c0 -84.667 29.167 -152.5 87.5 -203.5s135.833 -76.5 232.5 -76.5s174.167 25.667 232.5 77s87.5 119 87.5 203v500h-153v-488c0 -51.333 -14.833 -91.5 -44.5 -120.5
s-70.5 -43.5 -122.5 -43.5zM356 1464h968c71.333 0 132.166 -24.833 182.499 -74.5s75.5 -109.5 75.5 -179.5v-976c0 -70 -25.167 -129.833 -75.5 -179.5s-111.166 -74.5 -182.499 -74.5h-968c-71.333 0 -132.166 24.833 -182.499 74.5s-75.5 109.5 -75.5 179.5v976
c0 70 25.167 129.833 75.5 179.5s111.166 74.5 182.499 74.5z" />
    <glyph glyph-name="uni1F185" unicode="V&#x20de;&#x25a0;" 
d="M926 354l277 766h-175l-186 -608h-4l-186 608h-175l277 -766h172zM356 1464h968c71.333 0 132.166 -24.833 182.499 -74.5s75.5 -109.5 75.5 -179.5v-976c0 -70 -25.167 -129.833 -75.5 -179.5s-111.166 -74.5 -182.499 -74.5h-968
c-71.333 0 -132.166 24.833 -182.499 74.5s-75.5 109.5 -75.5 179.5v976c0 70 25.167 129.833 75.5 179.5s111.166 74.5 182.499 74.5z" />
    <glyph glyph-name="uni1F186" unicode="W&#x20de;&#x25a0;" 
d="M838 895h4l151 -541h139l216 766h-168l-122 -566h-4l-145 566h-138l-145 -566h-4l-122 566h-168l217 -766h138zM356 1464h968c71.333 0 132.166 -24.833 182.499 -74.5s75.5 -109.5 75.5 -179.5v-976c0 -70 -25.167 -129.833 -75.5 -179.5s-111.166 -74.5 -182.499 -74.5
h-968c-71.333 0 -132.166 24.833 -182.499 74.5s-75.5 109.5 -75.5 179.5v976c0 70 25.167 129.833 75.5 179.5s111.166 74.5 182.499 74.5z" />
    <glyph glyph-name="uni1F187" unicode="X&#x20de;&#x25a0;" 
d="M1192 1120h-174l-168 -279h-4l-173 279h-182l250 -380l-253 -386h170l175 275h3l175 -275h177l-254 381zM356 1464h968c71.333 0 132.166 -24.833 182.499 -74.5s75.5 -109.5 75.5 -179.5v-976c0 -70 -25.167 -129.833 -75.5 -179.5s-111.166 -74.5 -182.499 -74.5h-968
c-71.333 0 -132.166 24.833 -182.499 74.5s-75.5 109.5 -75.5 179.5v976c0 70 25.167 129.833 75.5 179.5s111.166 74.5 182.499 74.5z" />
    <glyph glyph-name="uni1F188" unicode="Y&#x20de;&#x25a0;" 
d="M764 354h152v302l271 464h-169l-176 -324h-4l-176 324h-169l271 -464v-302zM356 1464h968c71.333 0 132.166 -24.833 182.499 -74.5s75.5 -109.5 75.5 -179.5v-976c0 -70 -25.167 -129.833 -75.5 -179.5s-111.166 -74.5 -182.499 -74.5h-968
c-71.333 0 -132.166 24.833 -182.499 74.5s-75.5 109.5 -75.5 179.5v976c0 70 25.167 129.833 75.5 179.5s111.166 74.5 182.499 74.5z" />
    <glyph glyph-name="uni1F189" unicode="Z&#x20de;&#x25a0;" 
d="M545 354h590v124h-405l394 545v97h-567v-124h383v-1l-395 -544v-97zM356 1464h968c71.333 0 132.166 -24.833 182.499 -74.5s75.5 -109.5 75.5 -179.5v-976c0 -70 -25.167 -129.833 -75.5 -179.5s-111.166 -74.5 -182.499 -74.5h-968
c-71.333 0 -132.166 24.833 -182.499 74.5s-75.5 109.5 -75.5 179.5v976c0 70 25.167 129.833 75.5 179.5s111.166 74.5 182.499 74.5z" />
    <glyph glyph-name="plus.uc.whitecircle" unicode="&#x2b;&#x20dd;" 
d="M894 682v-217h-108v217h-212v102h212v209h108v-209h212v-102h-212zM840 78c117.333 0 224.666 28.667 321.999 86s173.833 135.166 229.5 233.499s83.5 205.833 83.5 322.5s-27.833 224.167 -83.5 322.5s-132.167 176.166 -229.5 233.499s-204.666 86 -321.999 86
s-224.666 -28.667 -321.999 -86s-173.833 -135.166 -229.5 -233.499s-83.5 -205.833 -83.5 -322.5s27.833 -224.167 83.5 -322.5s132.167 -176.166 229.5 -233.499s204.666 -86 321.999 -86zM840 -50c-104 0 -203.667 20.5 -299 61.5s-177.333 95.833 -246 164.5
s-123.5 150.667 -164.5 246s-61.5 195 -61.5 299s20.5 203.667 61.5 299s95.833 177.333 164.5 246s150.667 123.5 246 164.5s195 61.5 299 61.5s203.667 -20.5 299 -61.5s177.333 -95.833 246 -164.5s123.5 -150.667 164.5 -246s61.5 -195 61.5 -299
s-20.5 -203.667 -61.5 -299s-95.833 -177.333 -164.5 -246s-150.667 -123.5 -246 -164.5s-195 -61.5 -299 -61.5z" />
    <glyph glyph-name="minus.uc.whitecircle" unicode="&#x2212;&#x20dd;" 
d="M1095 677h-510v104h510v-104zM840 78c117.333 0 224.666 28.667 321.999 86s173.833 135.166 229.5 233.499s83.5 205.833 83.5 322.5s-27.833 224.167 -83.5 322.5s-132.167 176.166 -229.5 233.499s-204.666 86 -321.999 86s-224.666 -28.667 -321.999 -86
s-173.833 -135.166 -229.5 -233.499s-83.5 -205.833 -83.5 -322.5s27.833 -224.167 83.5 -322.5s132.167 -176.166 229.5 -233.499s204.666 -86 321.999 -86zM840 -50c-104 0 -203.667 20.5 -299 61.5s-177.333 95.833 -246 164.5s-123.5 150.667 -164.5 246
s-61.5 195 -61.5 299s20.5 203.667 61.5 299s95.833 177.333 164.5 246s150.667 123.5 246 164.5s195 61.5 299 61.5s203.667 -20.5 299 -61.5s177.333 -95.833 246 -164.5s123.5 -150.667 164.5 -246s61.5 -195 61.5 -299s-20.5 -203.667 -61.5 -299
s-95.833 -177.333 -164.5 -246s-150.667 -123.5 -246 -164.5s-195 -61.5 -299 -61.5z" />
    <glyph glyph-name="multiply.uc.whitecircle" unicode="&#xd7;&#x20dd;" 
d="M840 802l163 156l77 -73l-163 -156l163 -156l-77 -73l-163 156l-163 -156l-77 73l163 156l-163 156l77 73zM840 78c117.333 0 224.666 28.667 321.999 86s173.833 135.166 229.5 233.499s83.5 205.833 83.5 322.5s-27.833 224.167 -83.5 322.5
s-132.167 176.166 -229.5 233.499s-204.666 86 -321.999 86s-224.666 -28.667 -321.999 -86s-173.833 -135.166 -229.5 -233.499s-83.5 -205.833 -83.5 -322.5s27.833 -224.167 83.5 -322.5s132.167 -176.166 229.5 -233.499s204.666 -86 321.999 -86zM840 -50
c-104 0 -203.667 20.5 -299 61.5s-177.333 95.833 -246 164.5s-123.5 150.667 -164.5 246s-61.5 195 -61.5 299s20.5 203.667 61.5 299s95.833 177.333 164.5 246s150.667 123.5 246 164.5s195 61.5 299 61.5s203.667 -20.5 299 -61.5s177.333 -95.833 246 -164.5
s123.5 -150.667 164.5 -246s61.5 -195 61.5 -299s-20.5 -203.667 -61.5 -299s-95.833 -177.333 -164.5 -246s-150.667 -123.5 -246 -164.5s-195 -61.5 -299 -61.5z" />
    <glyph glyph-name="divide.uc.whitecircle" unicode="&#xf7;&#x20dd;" 
d="M1095 683h-510v91h510v-91zM761 934c0 22 7.5 40.167 22.5 54.5s33.5 21.5 55.5 21.5c24 0 43.667 -7.16699 59 -21.5s23 -32.5 23 -54.5c0 -20.667 -7.83301 -38 -23.5 -52s-35.167 -21 -58.5 -21c-22 0 -40.5 7 -55.5 21s-22.5 31.333 -22.5 52zM761 527
c0 22 7.5 40.167 22.5 54.5s33.833 21.5 56.5 21.5c23.333 0 42.666 -7.16699 57.999 -21.5s23 -32.5 23 -54.5c0 -20.667 -7.66699 -38 -23 -52s-34.666 -21 -57.999 -21c-22.667 0 -41.5 7 -56.5 21s-22.5 31.333 -22.5 52zM840 78c117.333 0 224.666 28.667 321.999 86
s173.833 135.166 229.5 233.499s83.5 205.833 83.5 322.5s-27.833 224.167 -83.5 322.5s-132.167 176.166 -229.5 233.499s-204.666 86 -321.999 86s-224.666 -28.667 -321.999 -86s-173.833 -135.166 -229.5 -233.499s-83.5 -205.833 -83.5 -322.5
s27.833 -224.167 83.5 -322.5s132.167 -176.166 229.5 -233.499s204.666 -86 321.999 -86zM840 -50c-104 0 -203.667 20.5 -299 61.5s-177.333 95.833 -246 164.5s-123.5 150.667 -164.5 246s-61.5 195 -61.5 299s20.5 203.667 61.5 299s95.833 177.333 164.5 246
s150.667 123.5 246 164.5s195 61.5 299 61.5s203.667 -20.5 299 -61.5s177.333 -95.833 246 -164.5s123.5 -150.667 164.5 -246s61.5 -195 61.5 -299s-20.5 -203.667 -61.5 -299s-95.833 -177.333 -164.5 -246s-150.667 -123.5 -246 -164.5s-195 -61.5 -299 -61.5z" />
    <glyph glyph-name="equal.uc.whitecircle" unicode="&#x3d;&#x20dd;" 
d="M1081 567h-482v95h482v-95zM1081 795h-482v96h482v-96zM840 78c117.333 0 224.666 28.667 321.999 86s173.833 135.166 229.5 233.499s83.5 205.833 83.5 322.5s-27.833 224.167 -83.5 322.5s-132.167 176.166 -229.5 233.499s-204.666 86 -321.999 86
s-224.666 -28.667 -321.999 -86s-173.833 -135.166 -229.5 -233.499s-83.5 -205.833 -83.5 -322.5s27.833 -224.167 83.5 -322.5s132.167 -176.166 229.5 -233.499s204.666 -86 321.999 -86zM840 -50c-104 0 -203.667 20.5 -299 61.5s-177.333 95.833 -246 164.5
s-123.5 150.667 -164.5 246s-61.5 195 -61.5 299s20.5 203.667 61.5 299s95.833 177.333 164.5 246s150.667 123.5 246 164.5s195 61.5 299 61.5s203.667 -20.5 299 -61.5s177.333 -95.833 246 -164.5s123.5 -150.667 164.5 -246s61.5 -195 61.5 -299
s-20.5 -203.667 -61.5 -299s-95.833 -177.333 -164.5 -246s-150.667 -123.5 -246 -164.5s-195 -61.5 -299 -61.5z" />
    <glyph glyph-name="greater.uc.whitecircle" unicode="&#x3e;&#x20dd;" 
d="M1106 764v-84l-482 -246v122l337 167v5l-337 173v124zM840 78c117.333 0 224.666 28.667 321.999 86s173.833 135.166 229.5 233.499s83.5 205.833 83.5 322.5s-27.833 224.167 -83.5 322.5s-132.167 176.166 -229.5 233.499s-204.666 86 -321.999 86
s-224.666 -28.667 -321.999 -86s-173.833 -135.166 -229.5 -233.499s-83.5 -205.833 -83.5 -322.5s27.833 -224.167 83.5 -322.5s132.167 -176.166 229.5 -233.499s204.666 -86 321.999 -86zM840 -50c-104 0 -203.667 20.5 -299 61.5s-177.333 95.833 -246 164.5
s-123.5 150.667 -164.5 246s-61.5 195 -61.5 299s20.5 203.667 61.5 299s95.833 177.333 164.5 246s150.667 123.5 246 164.5s195 61.5 299 61.5s203.667 -20.5 299 -61.5s177.333 -95.833 246 -164.5s123.5 -150.667 164.5 -246s61.5 -195 61.5 -299
s-20.5 -203.667 -61.5 -299s-95.833 -177.333 -164.5 -246s-150.667 -123.5 -246 -164.5s-195 -61.5 -299 -61.5z" />
    <glyph glyph-name="less.uc.whitecircle" unicode="&#x3c;&#x20dd;" 
d="M575 680v84l481 261v-124l-338 -173v-5l338 -167v-122zM840 78c117.333 0 224.666 28.667 321.999 86s173.833 135.166 229.5 233.499s83.5 205.833 83.5 322.5s-27.833 224.167 -83.5 322.5s-132.167 176.166 -229.5 233.499s-204.666 86 -321.999 86
s-224.666 -28.667 -321.999 -86s-173.833 -135.166 -229.5 -233.499s-83.5 -205.833 -83.5 -322.5s27.833 -224.167 83.5 -322.5s132.167 -176.166 229.5 -233.499s204.666 -86 321.999 -86zM840 -50c-104 0 -203.667 20.5 -299 61.5s-177.333 95.833 -246 164.5
s-123.5 150.667 -164.5 246s-61.5 195 -61.5 299s20.5 203.667 61.5 299s95.833 177.333 164.5 246s150.667 123.5 246 164.5s195 61.5 299 61.5s203.667 -20.5 299 -61.5s177.333 -95.833 246 -164.5s123.5 -150.667 164.5 -246s61.5 -195 61.5 -299
s-20.5 -203.667 -61.5 -299s-95.833 -177.333 -164.5 -246s-150.667 -123.5 -246 -164.5s-195 -61.5 -299 -61.5z" />
    <glyph glyph-name="numbersign.whitecircle" unicode="&#x30;&#x20dd;" 
d="M1127 802h-112l-30 -139h107l-19 -90h-107l-40 -190h-98l41 190h-131l-40 -190h-98l40 190h-105l18 90h106l30 139h-101l18 90h103l38 184h97l-38 -184h130l39 184h97l-38 -184h111zM782 806l-33 -153h144l33 153h-144zM840 78c117.333 0 224.666 28.667 321.999 86
s173.833 135.166 229.5 233.499s83.5 205.833 83.5 322.5s-27.833 224.167 -83.5 322.5s-132.167 176.166 -229.5 233.499s-204.666 86 -321.999 86s-224.666 -28.667 -321.999 -86s-173.833 -135.166 -229.5 -233.499s-83.5 -205.833 -83.5 -322.5
s27.833 -224.167 83.5 -322.5s132.167 -176.166 229.5 -233.499s204.666 -86 321.999 -86zM840 -50c-104 0 -203.667 20.5 -299 61.5s-177.333 95.833 -246 164.5s-123.5 150.667 -164.5 246s-61.5 195 -61.5 299s20.5 203.667 61.5 299s95.833 177.333 164.5 246
s150.667 123.5 246 164.5s195 61.5 299 61.5s203.667 -20.5 299 -61.5s177.333 -95.833 246 -164.5s123.5 -150.667 164.5 -246s61.5 -195 61.5 -299s-20.5 -203.667 -61.5 -299s-95.833 -177.333 -164.5 -246s-150.667 -123.5 -246 -164.5s-195 -61.5 -299 -61.5z" />
    <glyph glyph-name="uni25BC.whitecircle" unicode="&#x25bc;&#x20dd;" 
d="M1154 945l-314 -543l-313 543h627zM840 78c117.333 0 224.666 28.667 321.999 86s173.833 135.166 229.5 233.499s83.5 205.833 83.5 322.5s-27.833 224.167 -83.5 322.5s-132.167 176.166 -229.5 233.499s-204.666 86 -321.999 86s-224.666 -28.667 -321.999 -86
s-173.833 -135.166 -229.5 -233.499s-83.5 -205.833 -83.5 -322.5s27.833 -224.167 83.5 -322.5s132.167 -176.166 229.5 -233.499s204.666 -86 321.999 -86zM840 -50c-104 0 -203.667 20.5 -299 61.5s-177.333 95.833 -246 164.5s-123.5 150.667 -164.5 246
s-61.5 195 -61.5 299s20.5 203.667 61.5 299s95.833 177.333 164.5 246s150.667 123.5 246 164.5s195 61.5 299 61.5s203.667 -20.5 299 -61.5s177.333 -95.833 246 -164.5s123.5 -150.667 164.5 -246s61.5 -195 61.5 -299s-20.5 -203.667 -61.5 -299
s-95.833 -177.333 -164.5 -246s-150.667 -123.5 -246 -164.5s-195 -61.5 -299 -61.5z" />
    <glyph glyph-name="uni25B2.whitecircle" unicode="&#x25b2;&#x20dd;" 
d="M1154 513h-627l313 543zM840 78c117.333 0 224.666 28.667 321.999 86s173.833 135.166 229.5 233.499s83.5 205.833 83.5 322.5s-27.833 224.167 -83.5 322.5s-132.167 176.166 -229.5 233.499s-204.666 86 -321.999 86s-224.666 -28.667 -321.999 -86
s-173.833 -135.166 -229.5 -233.499s-83.5 -205.833 -83.5 -322.5s27.833 -224.167 83.5 -322.5s132.167 -176.166 229.5 -233.499s204.666 -86 321.999 -86zM840 -50c-104 0 -203.667 20.5 -299 61.5s-177.333 95.833 -246 164.5s-123.5 150.667 -164.5 246
s-61.5 195 -61.5 299s20.5 203.667 61.5 299s95.833 177.333 164.5 246s150.667 123.5 246 164.5s195 61.5 299 61.5s203.667 -20.5 299 -61.5s177.333 -95.833 246 -164.5s123.5 -150.667 164.5 -246s61.5 -195 61.5 -299s-20.5 -203.667 -61.5 -299
s-95.833 -177.333 -164.5 -246s-150.667 -123.5 -246 -164.5s-195 -61.5 -299 -61.5z" />
    <glyph glyph-name="uni25C0.whitecircle" unicode="&#x25c0;&#x20dd;" 
d="M1056 415l-543 314l543 313v-627zM840 78c117.333 0 224.666 28.667 321.999 86s173.833 135.166 229.5 233.499s83.5 205.833 83.5 322.5s-27.833 224.167 -83.5 322.5s-132.167 176.166 -229.5 233.499s-204.666 86 -321.999 86s-224.666 -28.667 -321.999 -86
s-173.833 -135.166 -229.5 -233.499s-83.5 -205.833 -83.5 -322.5s27.833 -224.167 83.5 -322.5s132.167 -176.166 229.5 -233.499s204.666 -86 321.999 -86zM840 -50c-104 0 -203.667 20.5 -299 61.5s-177.333 95.833 -246 164.5s-123.5 150.667 -164.5 246
s-61.5 195 -61.5 299s20.5 203.667 61.5 299s95.833 177.333 164.5 246s150.667 123.5 246 164.5s195 61.5 299 61.5s203.667 -20.5 299 -61.5s177.333 -95.833 246 -164.5s123.5 -150.667 164.5 -246s61.5 -195 61.5 -299s-20.5 -203.667 -61.5 -299
s-95.833 -177.333 -164.5 -246s-150.667 -123.5 -246 -164.5s-195 -61.5 -299 -61.5z" />
    <glyph glyph-name="uni25B6.whitecircle" unicode="&#x25b6;&#x20dd;" 
d="M624 415v627l543 -313zM840 78c117.333 0 224.666 28.667 321.999 86s173.833 135.166 229.5 233.499s83.5 205.833 83.5 322.5s-27.833 224.167 -83.5 322.5s-132.167 176.166 -229.5 233.499s-204.666 86 -321.999 86s-224.666 -28.667 -321.999 -86
s-173.833 -135.166 -229.5 -233.499s-83.5 -205.833 -83.5 -322.5s27.833 -224.167 83.5 -322.5s132.167 -176.166 229.5 -233.499s204.666 -86 321.999 -86zM840 -50c-104 0 -203.667 20.5 -299 61.5s-177.333 95.833 -246 164.5s-123.5 150.667 -164.5 246
s-61.5 195 -61.5 299s20.5 203.667 61.5 299s95.833 177.333 164.5 246s150.667 123.5 246 164.5s195 61.5 299 61.5s203.667 -20.5 299 -61.5s177.333 -95.833 246 -164.5s123.5 -150.667 164.5 -246s61.5 -195 61.5 -299s-20.5 -203.667 -61.5 -299
s-95.833 -177.333 -164.5 -246s-150.667 -123.5 -246 -164.5s-195 -61.5 -299 -61.5z" />
    <glyph glyph-name="question.whitecircle" unicode="&#x3f;&#x20dd;" 
d="M738 454c0 22.667 8.16699 41.168 24.5 55.501s37.5 21.5 63.5 21.5c26.667 0 48.334 -7 65.001 -21s25 -32.667 25 -56c0 -22 -8.33301 -40 -25 -54s-38.334 -21 -65.001 -21c-25.333 0 -46.333 7.16699 -63 21.5s-25 32.166 -25 53.499zM764 606.001v33.0029
c-2 35.333 5.33301 65.5 22 90.5s41.334 48.833 74.001 71.5c21.333 14.667 36.5 25.667 45.5 33s17.333 17.5 25 30.5s11.5 27.5 11.5 43.5c0 29.333 -10.167 51.666 -30.5 66.999s-45.5 23 -75.5 23c-34.667 0 -61.5 -10 -80.5 -30s-28.5 -45.333 -28.5 -76h-119
c-0.666992 36 5.66602 67.5 18.999 94.5s31.5 48.167 54.5 63.5s48 26.666 75 33.999s55.5 11 85.5 11c64.667 0 119 -15.667 163 -47s66 -76 66 -134c0 -27.333 -5.83301 -52 -17.5 -74s-23.667 -38.333 -36 -49s-29.5 -24 -51.5 -40
c-25.333 -18.667 -42.5 -31.834 -51.5 -39.501s-17 -18 -24 -31s-10.5 -28.833 -10.5 -47.5v-27h-116zM840 78.0039c117.333 0 224.666 28.667 321.999 86s173.833 135.166 229.5 233.499s83.5 205.833 83.5 322.5s-27.833 224.167 -83.5 322.5
s-132.167 176.166 -229.5 233.499s-204.666 86 -321.999 86s-224.666 -28.667 -321.999 -86s-173.833 -135.166 -229.5 -233.499s-83.5 -205.833 -83.5 -322.5s27.833 -224.167 83.5 -322.5s132.167 -176.166 229.5 -233.499s204.666 -86 321.999 -86zM840 -49.9961
c-104 0 -203.667 20.5 -299 61.5s-177.333 95.833 -246 164.5s-123.5 150.667 -164.5 246s-61.5 195 -61.5 299s20.5 203.667 61.5 299s95.833 177.333 164.5 246s150.667 123.5 246 164.5s195 61.5 299 61.5s203.667 -20.5 299 -61.5s177.333 -95.833 246 -164.5
s123.5 -150.667 164.5 -246s61.5 -195 61.5 -299s-20.5 -203.667 -61.5 -299s-95.833 -177.333 -164.5 -246s-150.667 -123.5 -246 -164.5s-195 -61.5 -299 -61.5z" />
    <glyph glyph-name="exclam.whitecircle" unicode="&#x21;&#x20dd;" 
d="M751 454c0 23.333 8.16699 42.166 24.5 56.499s37.833 21.5 64.5 21.5s48.167 -7.16699 64.5 -21.5s24.5 -33.166 24.5 -56.499c0 -22 -8.33301 -40 -25 -54s-38 -21 -64 -21s-47.333 7 -64 21s-25 32 -25 54zM770 1081h141l-15 -454h-111zM840 78
c117.333 0 224.666 28.667 321.999 86s173.833 135.166 229.5 233.499s83.5 205.833 83.5 322.5s-27.833 224.167 -83.5 322.5s-132.167 176.166 -229.5 233.499s-204.666 86 -321.999 86s-224.666 -28.667 -321.999 -86s-173.833 -135.166 -229.5 -233.499
s-83.5 -205.833 -83.5 -322.5s27.833 -224.167 83.5 -322.5s132.167 -176.166 229.5 -233.499s204.666 -86 321.999 -86zM840 -50c-104 0 -203.667 20.5 -299 61.5s-177.333 95.833 -246 164.5s-123.5 150.667 -164.5 246s-61.5 195 -61.5 299s20.5 203.667 61.5 299
s95.833 177.333 164.5 246s150.667 123.5 246 164.5s195 61.5 299 61.5s203.667 -20.5 299 -61.5s177.333 -95.833 246 -164.5s123.5 -150.667 164.5 -246s61.5 -195 61.5 -299s-20.5 -203.667 -61.5 -299s-95.833 -177.333 -164.5 -246s-150.667 -123.5 -246 -164.5
s-195 -61.5 -299 -61.5z" />
    <glyph glyph-name="uni2717.whitecircle" unicode="&#x2717;&#x20dd;" 
d="M844 806l259 258l82 -81l-258 -259l258 -259l-82 -83l-259 258l-259 -258l-83 83l258 259l-259 260l82 82zM840 78c117.333 0 224.666 28.667 321.999 86s173.833 135.166 229.5 233.499s83.5 205.833 83.5 322.5s-27.833 224.167 -83.5 322.5
s-132.167 176.166 -229.5 233.499s-204.666 86 -321.999 86s-224.666 -28.667 -321.999 -86s-173.833 -135.166 -229.5 -233.499s-83.5 -205.833 -83.5 -322.5s27.833 -224.167 83.5 -322.5s132.167 -176.166 229.5 -233.499s204.666 -86 321.999 -86zM840 -50
c-104 0 -203.667 20.5 -299 61.5s-177.333 95.833 -246 164.5s-123.5 150.667 -164.5 246s-61.5 195 -61.5 299s20.5 203.667 61.5 299s95.833 177.333 164.5 246s150.667 123.5 246 164.5s195 61.5 299 61.5s203.667 -20.5 299 -61.5s177.333 -95.833 246 -164.5
s123.5 -150.667 164.5 -246s61.5 -195 61.5 -299s-20.5 -203.667 -61.5 -299s-95.833 -177.333 -164.5 -246s-150.667 -123.5 -246 -164.5s-195 -61.5 -299 -61.5z" />
    <glyph glyph-name="uni2713.whitecircle" unicode="&#x2713;&#x20dd;" 
d="M1263 950l-546 -544l-288 285l88 87l199 -198l459 458zM840 78c117.333 0 224.666 28.667 321.999 86s173.833 135.166 229.5 233.499s83.5 205.833 83.5 322.5s-27.833 224.167 -83.5 322.5s-132.167 176.166 -229.5 233.499s-204.666 86 -321.999 86
s-224.666 -28.667 -321.999 -86s-173.833 -135.166 -229.5 -233.499s-83.5 -205.833 -83.5 -322.5s27.833 -224.167 83.5 -322.5s132.167 -176.166 229.5 -233.499s204.666 -86 321.999 -86zM840 -50c-104 0 -203.667 20.5 -299 61.5s-177.333 95.833 -246 164.5
s-123.5 150.667 -164.5 246s-61.5 195 -61.5 299s20.5 203.667 61.5 299s95.833 177.333 164.5 246s150.667 123.5 246 164.5s195 61.5 299 61.5s203.667 -20.5 299 -61.5s177.333 -95.833 246 -164.5s123.5 -150.667 164.5 -246s61.5 -195 61.5 -299
s-20.5 -203.667 -61.5 -299s-95.833 -177.333 -164.5 -246s-150.667 -123.5 -246 -164.5s-195 -61.5 -299 -61.5z" />
    <glyph glyph-name="zero.whitesquare" unicode="&#x30;&#x20de;" 
d="M840 486c44.667 0 79.834 21.833 105.501 65.5s38.5 104.834 38.5 183.501s-12.833 139.834 -38.5 183.501s-60.834 65.5 -105.501 65.5s-79.834 -21.833 -105.501 -65.5s-38.5 -104.834 -38.5 -183.501s12.833 -139.834 38.5 -183.501s60.834 -65.5 105.501 -65.5z
M840 376c-80 0 -144.667 31.833 -194 95.5s-74 151.5 -74 263.5s24.667 199.833 74 263.5s114 95.5 194 95.5s144.667 -31.833 194 -95.5s74 -151.5 74 -263.5s-24.667 -199.833 -74 -263.5s-114 -95.5 -194 -95.5zM356 1464h968c71.333 0 132.166 -24.833 182.499 -74.5
s75.5 -109.5 75.5 -179.5v-976c0 -70 -25.167 -129.833 -75.5 -179.5s-111.166 -74.5 -182.499 -74.5h-968c-71.333 0 -132.166 24.833 -182.499 74.5s-75.5 109.5 -75.5 179.5v976c0 70 25.167 129.833 75.5 179.5s111.166 74.5 182.499 74.5zM1453 1208
c0 37.333 -14.167 69.667 -42.5 97s-61.833 41 -100.5 41h-940c-38.667 0 -72.167 -13.5 -100.5 -40.5s-42.5 -59.5 -42.5 -97.5v-972c0 -37.333 14.167 -69.666 42.5 -96.999s61.833 -41 100.5 -41h940c38.667 0 72.167 13.667 100.5 41s42.5 59.666 42.5 96.999v972z" />
    <glyph glyph-name="one.whitesquare" unicode="&#x31;&#x20de;" 
d="M949 388h-130v571h-6l-166 -114v117l172 119h130v-693zM356 1464h968c71.333 0 132.166 -24.833 182.499 -74.5s75.5 -109.5 75.5 -179.5v-976c0 -70 -25.167 -129.833 -75.5 -179.5s-111.166 -74.5 -182.499 -74.5h-968c-71.333 0 -132.166 24.833 -182.499 74.5
s-75.5 109.5 -75.5 179.5v976c0 70 25.167 129.833 75.5 179.5s111.166 74.5 182.499 74.5zM1453 1208c0 37.333 -14.167 69.667 -42.5 97s-61.833 41 -100.5 41h-940c-38.667 0 -72.167 -13.5 -100.5 -40.5s-42.5 -59.5 -42.5 -97.5v-972
c0 -37.333 14.167 -69.666 42.5 -96.999s61.833 -41 100.5 -41h940c38.667 0 72.167 13.667 100.5 41s42.5 59.666 42.5 96.999v972z" />
    <glyph glyph-name="two.whitesquare" unicode="&#x32;&#x20de;" 
d="M722 878l-123.999 -0.000976562v6c0 57.333 21.167 106.666 63.5 147.999s102.166 62 179.499 62c72 0 130.167 -18.167 174.5 -54.5s66.5 -82.5 66.5 -138.5c0 -22 -3 -42.5 -9 -61.5s-16.5 -38.667 -31.5 -59s-27.167 -35.833 -36.5 -46.5s-25.666 -28 -48.999 -52
l-174 -185v-6h313v-103h-492v77l268 280c17.333 17.333 30.833 31.833 40.5 43.5s19 26.834 28 45.501s13.5 37.334 13.5 56.001c0 30 -10.833 54.667 -32.5 74s-48.834 29 -81.501 29c-36 0 -64.5 -10.5 -85.5 -31.5s-31.5 -46.833 -31.5 -77.5v-6zM356.001 1464h968
c71.333 0 132.166 -24.833 182.499 -74.5s75.5 -109.5 75.5 -179.5v-976c0 -70 -25.167 -129.833 -75.5 -179.5s-111.166 -74.5 -182.499 -74.5h-968c-71.333 0 -132.166 24.833 -182.499 74.5s-75.5 109.5 -75.5 179.5v976c0 70 25.167 129.833 75.5 179.5
s111.166 74.5 182.499 74.5zM1453 1208c0 37.333 -14.167 69.667 -42.5 97s-61.833 41 -100.5 41h-940c-38.667 0 -72.167 -13.5 -100.5 -40.5s-42.5 -59.5 -42.5 -97.5v-972c0 -37.333 14.167 -69.666 42.5 -96.999s61.833 -41 100.5 -41h940
c38.667 0 72.167 13.667 100.5 41s42.5 59.666 42.5 96.999v972z" />
    <glyph glyph-name="three.whitesquare" unicode="&#x33;&#x20de;" 
d="M760 696l0.00390625 98.002h77c34 0 62.167 9.83301 84.5 29.5s33.5 44.167 33.5 73.5c-0.666992 28.667 -12 52.334 -34 71.001s-50 28 -84 28s-62 -8.83301 -84 -26.5s-33.667 -38.5 -35 -62.5h-122c1.33301 53.333 23.666 97.666 66.999 132.999
s102.333 53.333 177 54c72.667 0 131.167 -16.667 175.5 -50s67.166 -76.333 68.499 -129c0.666992 -44.667 -13.5 -81.334 -42.5 -110.001s-59.833 -45.667 -92.5 -51v-6c39.333 -4 75.166 -20.167 107.499 -48.5s48.833 -67.833 49.5 -118.5
c0.666992 -62 -24.833 -111.833 -76.5 -149.5s-116.167 -56.5 -193.5 -56.5c-76.667 0 -137.834 17.833 -183.501 53.5s-69.5 80.5 -71.5 134.5h120c2.66699 -26 16.5 -47.333 41.5 -64s56.5 -25.334 94.5 -26.001c41.333 0 75 10.667 101 32s39 48.333 39 81
c-1.33301 32.667 -14.333 59.167 -39 79.5s-57 30.5 -97 30.5h-81zM356.004 1464h968c71.333 0 132.166 -24.833 182.499 -74.5s75.5 -109.5 75.5 -179.5v-976c0 -70 -25.167 -129.833 -75.5 -179.5s-111.166 -74.5 -182.499 -74.5h-968
c-71.333 0 -132.166 24.833 -182.499 74.5s-75.5 109.5 -75.5 179.5v976c0 70 25.167 129.833 75.5 179.5s111.166 74.5 182.499 74.5zM1453 1208c0 37.333 -14.167 69.667 -42.5 97s-61.833 41 -100.5 41h-940c-38.667 0 -72.167 -13.5 -100.5 -40.5
s-42.5 -59.5 -42.5 -97.5v-972c0 -37.333 14.167 -69.666 42.5 -96.999s61.833 -41 100.5 -41h940c38.667 0 72.167 13.667 100.5 41s42.5 59.666 42.5 96.999v972z" />
    <glyph glyph-name="four.whitesquare" unicode="&#x34;&#x20de;" 
d="M835 1081h189v-458h91v-102h-91v-133h-123v133h-352v103c20 36 43.167 75.167 69.5 117.5l68 108.5l77 119.5zM670 623h231v361h-6c-90 -132 -165 -251 -225 -357v-4zM356 1464h968c71.333 0 132.166 -24.833 182.499 -74.5s75.5 -109.5 75.5 -179.5v-976
c0 -70 -25.167 -129.833 -75.5 -179.5s-111.166 -74.5 -182.499 -74.5h-968c-71.333 0 -132.166 24.833 -182.499 74.5s-75.5 109.5 -75.5 179.5v976c0 70 25.167 129.833 75.5 179.5s111.166 74.5 182.499 74.5zM1453 1208c0 37.333 -14.167 69.667 -42.5 97
s-61.833 41 -100.5 41h-940c-38.667 0 -72.167 -13.5 -100.5 -40.5s-42.5 -59.5 -42.5 -97.5v-972c0 -37.333 14.167 -69.666 42.5 -96.999s61.833 -41 100.5 -41h940c38.667 0 72.167 13.667 100.5 41s42.5 59.666 42.5 96.999v972z" />
    <glyph glyph-name="five.whitesquare" unicode="&#x35;&#x20de;" 
d="M592 562l121.001 -0.000976562c6 -28.667 21.5 -50.334 46.5 -65.001s54.5 -22 88.5 -22c37.333 0 69.666 12.833 96.999 38.5s41 59.834 41 102.501c0 38.667 -13.5 70.167 -40.5 94.5s-59.833 36.5 -98.5 36.5c-30.667 0 -57 -6.83301 -79 -20.5
s-37.667 -29.5 -47 -47.5h-114l32 402h434v-102h-329l-17 -195h6c10 14 27.833 27.5 53.5 40.5s56.834 19.5 93.501 19.5c66 0 121.333 -20.167 166 -60.5s67 -95.166 67 -164.499c0 -72.667 -24.833 -131.5 -74.5 -176.5s-114.834 -67.5 -195.501 -67.5
c-72 0 -131 17.667 -177 53s-70.667 80 -74 134zM356.001 1464h968c71.333 0 132.166 -24.833 182.499 -74.5s75.5 -109.5 75.5 -179.5v-976c0 -70 -25.167 -129.833 -75.5 -179.5s-111.166 -74.5 -182.499 -74.5h-968c-71.333 0 -132.166 24.833 -182.499 74.5
s-75.5 109.5 -75.5 179.5v976c0 70 25.167 129.833 75.5 179.5s111.166 74.5 182.499 74.5zM1453 1208c0 37.333 -14.167 69.667 -42.5 97s-61.833 41 -100.5 41h-940c-38.667 0 -72.167 -13.5 -100.5 -40.5s-42.5 -59.5 -42.5 -97.5v-972
c0 -37.333 14.167 -69.666 42.5 -96.999s61.833 -41 100.5 -41h940c38.667 0 72.167 13.667 100.5 41s42.5 59.666 42.5 96.999v972z" />
    <glyph glyph-name="six.whitesquare" unicode="&#x36;&#x20de;" 
d="M1099 926l-125.001 0.000976562c-5.33301 18 -17.833 33.833 -37.5 47.5s-45.5 20.5 -77.5 20.5c-48.667 0 -87.334 -22.833 -116.001 -68.5s-42.667 -107.834 -42 -186.501h7c12 27.333 33.167 50.666 63.5 69.999s68.5 29 114.5 29c62 0 115.5 -19.667 160.5 -59
s67.5 -93.666 67.5 -162.999c0 -74.667 -24.333 -133.5 -73 -176.5s-112 -64.5 -190 -64.5c-100.667 0 -174.667 36.667 -222 110c-36 56 -54 132.333 -54 229c0 126 25.5 220.667 76.5 284s120.833 95 209.5 95c70.667 0 127.334 -17 170.001 -51
s65.334 -72.667 68.001 -116zM715.999 611.001c0 -42 13 -75.333 39 -100s58.333 -37 97 -37c40 0 72.667 11.833 98 35.5s38 57.167 38 100.5c0 42 -13.167 74.5 -39.5 97.5s-58.5 34.5 -96.5 34.5c-40 0 -72.667 -12.167 -98 -36.5s-38 -55.833 -38 -94.5zM355.999 1464
h968c71.333 0 132.166 -24.833 182.499 -74.5s75.5 -109.5 75.5 -179.5v-976c0 -70 -25.167 -129.833 -75.5 -179.5s-111.166 -74.5 -182.499 -74.5h-968c-71.333 0 -132.166 24.833 -182.499 74.5s-75.5 109.5 -75.5 179.5v976c0 70 25.167 129.833 75.5 179.5
s111.166 74.5 182.499 74.5zM1453 1208c0 37.333 -14.167 69.667 -42.5 97s-61.833 41 -100.5 41h-940c-38.667 0 -72.167 -13.5 -100.5 -40.5s-42.5 -59.5 -42.5 -97.5v-972c0 -37.333 14.167 -69.666 42.5 -96.999s61.833 -41 100.5 -41h940
c38.667 0 72.167 13.667 100.5 41s42.5 59.666 42.5 96.999v972z" />
    <glyph glyph-name="seven.whitesquare" unicode="&#x37;&#x20de;" 
d="M602 1081h491v-105l-296 -588h-137l301 584v6h-359v103zM356 1464h968c71.333 0 132.166 -24.833 182.499 -74.5s75.5 -109.5 75.5 -179.5v-976c0 -70 -25.167 -129.833 -75.5 -179.5s-111.166 -74.5 -182.499 -74.5h-968c-71.333 0 -132.166 24.833 -182.499 74.5
s-75.5 109.5 -75.5 179.5v976c0 70 25.167 129.833 75.5 179.5s111.166 74.5 182.499 74.5zM1453 1208c0 37.333 -14.167 69.667 -42.5 97s-61.833 41 -100.5 41h-940c-38.667 0 -72.167 -13.5 -100.5 -40.5s-42.5 -59.5 -42.5 -97.5v-972
c0 -37.333 14.167 -69.666 42.5 -96.999s61.833 -41 100.5 -41h940c38.667 0 72.167 13.667 100.5 41s42.5 59.666 42.5 96.999v972z" />
    <glyph glyph-name="eight.whitesquare" unicode="&#x38;&#x20de;" 
d="M840 467c42 0 76.667 11.167 104 33.5s41 50.833 41 85.5s-13.5 63.167 -40.5 85.5s-61.833 33.5 -104.5 33.5c-42 0 -76.833 -11.333 -104.5 -34s-41.5 -51 -41.5 -85c0 -34.667 13.667 -63.167 41 -85.5s62.333 -33.5 105 -33.5zM840 793
c35.333 0 64.333 9.83301 87 29.5s34 44.834 34 75.501s-11.333 55.5 -34 74.5s-51.667 28.5 -87 28.5s-64.333 -9.5 -87 -28.5s-34 -43.833 -34 -74.5s11.333 -55.834 34 -75.501s51.667 -29.5 87 -29.5zM838 375c-81.333 0 -147.167 18.666 -197.5 55.999
s-75.5 86.333 -75.5 147c0 42.667 13.833 79.834 41.5 111.501s64.167 52.167 109.5 61.5v5c-38 12 -67.833 31.667 -89.5 59s-32.5 59.333 -32.5 96c0 53.333 23 97.166 69 131.499s105 51.5 177 51.5s131 -17.167 177 -51.5s69 -78.166 69 -131.499
c0 -36.667 -11 -69 -33 -97s-51.667 -47.333 -89 -58v-5c45.333 -9.33301 81.833 -29.666 109.5 -60.999s41.5 -68.333 41.5 -111c0 -60.667 -25.667 -109.834 -77 -147.501s-118 -56.5 -200 -56.5zM355.999 1464h968c71.333 0 132.166 -24.833 182.499 -74.5
s75.5 -109.5 75.5 -179.5v-976c0 -70 -25.167 -129.833 -75.5 -179.5s-111.166 -74.5 -182.499 -74.5h-968c-71.333 0 -132.166 24.833 -182.499 74.5s-75.5 109.5 -75.5 179.5v976c0 70 25.167 129.833 75.5 179.5s111.166 74.5 182.499 74.5zM1453 1208
c0 37.333 -14.167 69.667 -42.5 97s-61.833 41 -100.5 41h-940c-38.667 0 -72.167 -13.5 -100.5 -40.5s-42.5 -59.5 -42.5 -97.5v-972c0 -37.333 14.167 -69.666 42.5 -96.999s61.833 -41 100.5 -41h940c38.667 0 72.167 13.667 100.5 41s42.5 59.666 42.5 96.999v972z" />
    <glyph glyph-name="nine.whitesquare" unicode="&#x39;&#x20de;" 
d="M567 858c0 72.667 24.666 130.167 73.999 172.5s112.666 63.5 189.999 63.5c38 0 72.5 -5.66699 103.5 -17s59.667 -29.5 86 -54.5s47 -61 62 -108s22.5 -102.833 22.5 -167.5c0 -247.333 -95.667 -371 -287 -371c-70 0 -125.333 15.833 -166 47.5s-63 69.167 -67 112.5
h125c4.66699 -16 16.834 -30.167 36.501 -42.5s44.167 -18.5 73.5 -18.5c56.667 0 98.5 23.5 125.5 70.5s38.833 107.833 35.5 182.5h-6c-11.333 -28.667 -32.166 -52.5 -62.499 -71.5s-67.833 -28.5 -112.5 -28.5c-65.333 0 -120.5 20.5 -165.5 61.5
s-67.5 97.167 -67.5 168.5zM961.999 857c0 43.333 -12.668 77.334 -38.001 102.001s-58 37 -98 37c-38 0 -69.667 -12.333 -95 -37s-38 -58 -38 -100c0 -42.667 12.833 -75.834 38.5 -99.501s57.834 -35.5 96.501 -35.5c38 0 69.833 11.667 95.5 35s38.5 56 38.5 98z
M355.998 1464h968c71.333 0 132.166 -24.833 182.499 -74.5s75.5 -109.5 75.5 -179.5v-976c0 -70 -25.167 -129.833 -75.5 -179.5s-111.166 -74.5 -182.499 -74.5h-968c-71.333 0 -132.166 24.833 -182.499 74.5s-75.5 109.5 -75.5 179.5v976
c0 70 25.167 129.833 75.5 179.5s111.166 74.5 182.499 74.5zM1453 1208c0 37.333 -14.167 69.667 -42.5 97s-61.833 41 -100.5 41h-940c-38.667 0 -72.167 -13.5 -100.5 -40.5s-42.5 -59.5 -42.5 -97.5v-972c0 -37.333 14.167 -69.666 42.5 -96.999s61.833 -41 100.5 -41
h940c38.667 0 72.167 13.667 100.5 41s42.5 59.666 42.5 96.999v972z" />
    <glyph glyph-name="plus.uc.whitesquare" unicode="&#x2b;&#x20de;" 
d="M894 682v-217h-108v217h-212v102h212v209h108v-209h212v-102h-212zM356 1464h968c71.333 0 132.166 -24.833 182.499 -74.5s75.5 -109.5 75.5 -179.5v-976c0 -70 -25.167 -129.833 -75.5 -179.5s-111.166 -74.5 -182.499 -74.5h-968
c-71.333 0 -132.166 24.833 -182.499 74.5s-75.5 109.5 -75.5 179.5v976c0 70 25.167 129.833 75.5 179.5s111.166 74.5 182.499 74.5zM1453 1208c0 37.333 -14.167 69.667 -42.5 97s-61.833 41 -100.5 41h-940c-38.667 0 -72.167 -13.5 -100.5 -40.5
s-42.5 -59.5 -42.5 -97.5v-972c0 -37.333 14.167 -69.666 42.5 -96.999s61.833 -41 100.5 -41h940c38.667 0 72.167 13.667 100.5 41s42.5 59.666 42.5 96.999v972z" />
    <glyph glyph-name="minus.uc.whitesquare" unicode="&#x2212;&#x20de;" 
d="M1095 677h-510v104h510v-104zM356 1464h968c71.333 0 132.166 -24.833 182.499 -74.5s75.5 -109.5 75.5 -179.5v-976c0 -70 -25.167 -129.833 -75.5 -179.5s-111.166 -74.5 -182.499 -74.5h-968c-71.333 0 -132.166 24.833 -182.499 74.5s-75.5 109.5 -75.5 179.5v976
c0 70 25.167 129.833 75.5 179.5s111.166 74.5 182.499 74.5zM1453 1208c0 37.333 -14.167 69.667 -42.5 97s-61.833 41 -100.5 41h-940c-38.667 0 -72.167 -13.5 -100.5 -40.5s-42.5 -59.5 -42.5 -97.5v-972c0 -37.333 14.167 -69.666 42.5 -96.999s61.833 -41 100.5 -41
h940c38.667 0 72.167 13.667 100.5 41s42.5 59.666 42.5 96.999v972z" />
    <glyph glyph-name="multiply.uc.whitesquare" unicode="&#xd7;&#x20de;" 
d="M840 802l163 156l77 -73l-163 -156l163 -156l-77 -73l-163 156l-163 -156l-77 73l163 156l-163 156l77 73zM356 1464h968c71.333 0 132.166 -24.833 182.499 -74.5s75.5 -109.5 75.5 -179.5v-976c0 -70 -25.167 -129.833 -75.5 -179.5s-111.166 -74.5 -182.499 -74.5
h-968c-71.333 0 -132.166 24.833 -182.499 74.5s-75.5 109.5 -75.5 179.5v976c0 70 25.167 129.833 75.5 179.5s111.166 74.5 182.499 74.5zM1453 1208c0 37.333 -14.167 69.667 -42.5 97s-61.833 41 -100.5 41h-940c-38.667 0 -72.167 -13.5 -100.5 -40.5
s-42.5 -59.5 -42.5 -97.5v-972c0 -37.333 14.167 -69.666 42.5 -96.999s61.833 -41 100.5 -41h940c38.667 0 72.167 13.667 100.5 41s42.5 59.666 42.5 96.999v972z" />
    <glyph glyph-name="divide.uc.whitesquare" unicode="&#xf7;&#x20de;" 
d="M1095 683h-510v91h510v-91zM761 934c0 22 7.5 40.167 22.5 54.5s33.5 21.5 55.5 21.5c24 0 43.667 -7.16699 59 -21.5s23 -32.5 23 -54.5c0 -20.667 -7.83301 -38 -23.5 -52s-35.167 -21 -58.5 -21c-22 0 -40.5 7 -55.5 21s-22.5 31.333 -22.5 52zM761 527
c0 22 7.5 40.167 22.5 54.5s33.833 21.5 56.5 21.5c23.333 0 42.666 -7.16699 57.999 -21.5s23 -32.5 23 -54.5c0 -20.667 -7.66699 -38 -23 -52s-34.666 -21 -57.999 -21c-22.667 0 -41.5 7 -56.5 21s-22.5 31.333 -22.5 52zM356 1464h968
c71.333 0 132.166 -24.833 182.499 -74.5s75.5 -109.5 75.5 -179.5v-976c0 -70 -25.167 -129.833 -75.5 -179.5s-111.166 -74.5 -182.499 -74.5h-968c-71.333 0 -132.166 24.833 -182.499 74.5s-75.5 109.5 -75.5 179.5v976c0 70 25.167 129.833 75.5 179.5
s111.166 74.5 182.499 74.5zM1453 1208c0 37.333 -14.167 69.667 -42.5 97s-61.833 41 -100.5 41h-940c-38.667 0 -72.167 -13.5 -100.5 -40.5s-42.5 -59.5 -42.5 -97.5v-972c0 -37.333 14.167 -69.666 42.5 -96.999s61.833 -41 100.5 -41h940
c38.667 0 72.167 13.667 100.5 41s42.5 59.666 42.5 96.999v972z" />
    <glyph glyph-name="equal.uc.whitesquare" unicode="&#x3d;&#x20de;" 
d="M1081 567h-482v95h482v-95zM1081 795h-482v96h482v-96zM356 1464h968c71.333 0 132.166 -24.833 182.499 -74.5s75.5 -109.5 75.5 -179.5v-976c0 -70 -25.167 -129.833 -75.5 -179.5s-111.166 -74.5 -182.499 -74.5h-968c-71.333 0 -132.166 24.833 -182.499 74.5
s-75.5 109.5 -75.5 179.5v976c0 70 25.167 129.833 75.5 179.5s111.166 74.5 182.499 74.5zM1453 1208c0 37.333 -14.167 69.667 -42.5 97s-61.833 41 -100.5 41h-940c-38.667 0 -72.167 -13.5 -100.5 -40.5s-42.5 -59.5 -42.5 -97.5v-972
c0 -37.333 14.167 -69.666 42.5 -96.999s61.833 -41 100.5 -41h940c38.667 0 72.167 13.667 100.5 41s42.5 59.666 42.5 96.999v972z" />
    <glyph glyph-name="greater.uc.whitesquare" unicode="&#x3e;&#x20de;" 
d="M1106 764v-84l-482 -246v122l337 167v5l-337 173v124zM356 1464h968c71.333 0 132.166 -24.833 182.499 -74.5s75.5 -109.5 75.5 -179.5v-976c0 -70 -25.167 -129.833 -75.5 -179.5s-111.166 -74.5 -182.499 -74.5h-968c-71.333 0 -132.166 24.833 -182.499 74.5
s-75.5 109.5 -75.5 179.5v976c0 70 25.167 129.833 75.5 179.5s111.166 74.5 182.499 74.5zM1453 1208c0 37.333 -14.167 69.667 -42.5 97s-61.833 41 -100.5 41h-940c-38.667 0 -72.167 -13.5 -100.5 -40.5s-42.5 -59.5 -42.5 -97.5v-972
c0 -37.333 14.167 -69.666 42.5 -96.999s61.833 -41 100.5 -41h940c38.667 0 72.167 13.667 100.5 41s42.5 59.666 42.5 96.999v972z" />
    <glyph glyph-name="less.uc.whitesquare" unicode="&#x3c;&#x20de;" 
d="M575 680v84l481 261v-124l-338 -173v-5l338 -167v-122zM356 1464h968c71.333 0 132.166 -24.833 182.499 -74.5s75.5 -109.5 75.5 -179.5v-976c0 -70 -25.167 -129.833 -75.5 -179.5s-111.166 -74.5 -182.499 -74.5h-968c-71.333 0 -132.166 24.833 -182.499 74.5
s-75.5 109.5 -75.5 179.5v976c0 70 25.167 129.833 75.5 179.5s111.166 74.5 182.499 74.5zM1453 1208c0 37.333 -14.167 69.667 -42.5 97s-61.833 41 -100.5 41h-940c-38.667 0 -72.167 -13.5 -100.5 -40.5s-42.5 -59.5 -42.5 -97.5v-972
c0 -37.333 14.167 -69.666 42.5 -96.999s61.833 -41 100.5 -41h940c38.667 0 72.167 13.667 100.5 41s42.5 59.666 42.5 96.999v972z" />
    <glyph glyph-name="numbersign.whitesquare" unicode="&#x23;&#x20de;" 
d="M1127 802h-112l-30 -139h107l-19 -90h-107l-40 -190h-98l41 190h-131l-40 -190h-98l40 190h-105l18 90h106l30 139h-101l18 90h103l38 184h97l-38 -184h130l39 184h97l-38 -184h111zM782 806l-33 -153h144l33 153h-144zM356 1464h968
c71.333 0 132.166 -24.833 182.499 -74.5s75.5 -109.5 75.5 -179.5v-976c0 -70 -25.167 -129.833 -75.5 -179.5s-111.166 -74.5 -182.499 -74.5h-968c-71.333 0 -132.166 24.833 -182.499 74.5s-75.5 109.5 -75.5 179.5v976c0 70 25.167 129.833 75.5 179.5
s111.166 74.5 182.499 74.5zM1453 1208c0 37.333 -14.167 69.667 -42.5 97s-61.833 41 -100.5 41h-940c-38.667 0 -72.167 -13.5 -100.5 -40.5s-42.5 -59.5 -42.5 -97.5v-972c0 -37.333 14.167 -69.666 42.5 -96.999s61.833 -41 100.5 -41h940
c38.667 0 72.167 13.667 100.5 41s42.5 59.666 42.5 96.999v972z" />
    <glyph glyph-name="uni25BC.whitesquare" unicode="&#x25bc;&#x20de;" 
d="M1155 945l-314 -543l-314 543h628zM356 1464h968c71.333 0 132.166 -24.833 182.499 -74.5s75.5 -109.5 75.5 -179.5v-976c0 -70 -25.167 -129.833 -75.5 -179.5s-111.166 -74.5 -182.499 -74.5h-968c-71.333 0 -132.166 24.833 -182.499 74.5s-75.5 109.5 -75.5 179.5
v976c0 70 25.167 129.833 75.5 179.5s111.166 74.5 182.499 74.5zM1453 1208c0 37.333 -14.167 69.667 -42.5 97s-61.833 41 -100.5 41h-940c-38.667 0 -72.167 -13.5 -100.5 -40.5s-42.5 -59.5 -42.5 -97.5v-972c0 -37.333 14.167 -69.666 42.5 -96.999
s61.833 -41 100.5 -41h940c38.667 0 72.167 13.667 100.5 41s42.5 59.666 42.5 96.999v972z" />
    <glyph glyph-name="uni25B2.whitesquare" unicode="&#x25b2;&#x20de;" 
d="M1154 513h-627l313 543zM356 1464h968c71.333 0 132.166 -24.833 182.499 -74.5s75.5 -109.5 75.5 -179.5v-976c0 -70 -25.167 -129.833 -75.5 -179.5s-111.166 -74.5 -182.499 -74.5h-968c-71.333 0 -132.166 24.833 -182.499 74.5s-75.5 109.5 -75.5 179.5v976
c0 70 25.167 129.833 75.5 179.5s111.166 74.5 182.499 74.5zM1453 1208c0 37.333 -14.167 69.667 -42.5 97s-61.833 41 -100.5 41h-940c-38.667 0 -72.167 -13.5 -100.5 -40.5s-42.5 -59.5 -42.5 -97.5v-972c0 -37.333 14.167 -69.666 42.5 -96.999s61.833 -41 100.5 -41
h940c38.667 0 72.167 13.667 100.5 41s42.5 59.666 42.5 96.999v972z" />
    <glyph glyph-name="uni25C0.whitesquare" unicode="&#x25c0;&#x20de;" 
d="M1056 415l-543 314l543 313v-627zM356 1464h968c71.333 0 132.166 -24.833 182.499 -74.5s75.5 -109.5 75.5 -179.5v-976c0 -70 -25.167 -129.833 -75.5 -179.5s-111.166 -74.5 -182.499 -74.5h-968c-71.333 0 -132.166 24.833 -182.499 74.5s-75.5 109.5 -75.5 179.5
v976c0 70 25.167 129.833 75.5 179.5s111.166 74.5 182.499 74.5zM1453 1208c0 37.333 -14.167 69.667 -42.5 97s-61.833 41 -100.5 41h-940c-38.667 0 -72.167 -13.5 -100.5 -40.5s-42.5 -59.5 -42.5 -97.5v-972c0 -37.333 14.167 -69.666 42.5 -96.999
s61.833 -41 100.5 -41h940c38.667 0 72.167 13.667 100.5 41s42.5 59.666 42.5 96.999v972z" />
    <glyph glyph-name="uni25B6.whitesquare" unicode="&#x25b6;&#x20de;" 
d="M624 415v627l543 -313zM356 1464h968c71.333 0 132.166 -24.833 182.499 -74.5s75.5 -109.5 75.5 -179.5v-976c0 -70 -25.167 -129.833 -75.5 -179.5s-111.166 -74.5 -182.499 -74.5h-968c-71.333 0 -132.166 24.833 -182.499 74.5s-75.5 109.5 -75.5 179.5v976
c0 70 25.167 129.833 75.5 179.5s111.166 74.5 182.499 74.5zM1453 1208c0 37.333 -14.167 69.667 -42.5 97s-61.833 41 -100.5 41h-940c-38.667 0 -72.167 -13.5 -100.5 -40.5s-42.5 -59.5 -42.5 -97.5v-972c0 -37.333 14.167 -69.666 42.5 -96.999s61.833 -41 100.5 -41
h940c38.667 0 72.167 13.667 100.5 41s42.5 59.666 42.5 96.999v972z" />
    <glyph glyph-name="question.whitesquare" unicode="&#x3f;&#x20de;" 
d="M738 454c0 22.667 8.16699 41.168 24.5 55.501s37.5 21.5 63.5 21.5c26.667 0 48.334 -7 65.001 -21s25 -32.667 25 -56c0 -22 -8.33301 -40 -25 -54s-38.334 -21 -65.001 -21c-25.333 0 -46.333 7.16699 -63 21.5s-25 32.166 -25 53.499zM608 892.001
c-0.666992 36 5.66602 67.5029 18.999 94.5029s31.5 48.167 54.5 63.5s48 26.666 75 33.999s55.5 11 85.5 11c64.667 0 119 -15.667 163 -47s66 -76 66 -134c0 -27.333 -5.83301 -52 -17.5 -74s-23.667 -38.333 -36 -49s-29.5 -24 -51.5 -40
c-25.333 -18.667 -42.5 -31.834 -51.5 -39.501s-17 -18 -24 -31s-10.5 -28.833 -10.5 -47.5v-27h-116v33c-2 35.333 5.33301 65.5 22 90.5s41.334 48.833 74.001 71.5c21.333 14.667 36.5 25.667 45.5 33s17.333 17.5 25 30.5s11.5 27.5 11.5 43.5
c0 29.333 -10.167 51.666 -30.5 66.999s-45.5 23 -75.5 23c-34.667 0 -61.5 -10 -80.5 -30s-28.5 -45.333 -28.5 -76h-119zM356 1464h968c71.333 0 132.166 -24.833 182.499 -74.5s75.5 -109.5 75.5 -179.5v-976c0 -70 -25.167 -129.833 -75.5 -179.5
s-111.166 -74.5 -182.499 -74.5h-968c-71.333 0 -132.166 24.833 -182.499 74.5s-75.5 109.5 -75.5 179.5v976c0 70 25.167 129.833 75.5 179.5s111.166 74.5 182.499 74.5zM1453 1208c0 37.333 -14.167 69.667 -42.5 97s-61.833 41 -100.5 41h-940
c-38.667 0 -72.167 -13.5 -100.5 -40.5s-42.5 -59.5 -42.5 -97.5v-972c0 -37.333 14.167 -69.666 42.5 -96.999s61.833 -41 100.5 -41h940c38.667 0 72.167 13.667 100.5 41s42.5 59.666 42.5 96.999v972z" />
    <glyph glyph-name="exclam.whitesquare" unicode="&#x21;&#x20de;" 
d="M751 454c0 23.333 8.16699 42.166 24.5 56.499s37.833 21.5 64.5 21.5s48.167 -7.16699 64.5 -21.5s24.5 -33.166 24.5 -56.499c0 -22 -8.33301 -40 -25 -54s-38 -21 -64 -21s-47.333 7 -64 21s-25 32 -25 54zM770 1081h141l-15 -454h-111zM356 1464h968
c71.333 0 132.166 -24.833 182.499 -74.5s75.5 -109.5 75.5 -179.5v-976c0 -70 -25.167 -129.833 -75.5 -179.5s-111.166 -74.5 -182.499 -74.5h-968c-71.333 0 -132.166 24.833 -182.499 74.5s-75.5 109.5 -75.5 179.5v976c0 70 25.167 129.833 75.5 179.5
s111.166 74.5 182.499 74.5zM1453 1208c0 37.333 -14.167 69.667 -42.5 97s-61.833 41 -100.5 41h-940c-38.667 0 -72.167 -13.5 -100.5 -40.5s-42.5 -59.5 -42.5 -97.5v-972c0 -37.333 14.167 -69.666 42.5 -96.999s61.833 -41 100.5 -41h940
c38.667 0 72.167 13.667 100.5 41s42.5 59.666 42.5 96.999v972z" />
    <glyph glyph-name="uni2717.whitesquare" unicode="&#x2717;&#x20de;" 
d="M844 806l259 258l82 -81l-258 -259l258 -259l-82 -83l-259 258l-259 -258l-83 83l258 259l-259 260l82 82zM356 1464h968c71.333 0 132.166 -24.833 182.499 -74.5s75.5 -109.5 75.5 -179.5v-976c0 -70 -25.167 -129.833 -75.5 -179.5s-111.166 -74.5 -182.499 -74.5
h-968c-71.333 0 -132.166 24.833 -182.499 74.5s-75.5 109.5 -75.5 179.5v976c0 70 25.167 129.833 75.5 179.5s111.166 74.5 182.499 74.5zM1453 1208c0 37.333 -14.167 69.667 -42.5 97s-61.833 41 -100.5 41h-940c-38.667 0 -72.167 -13.5 -100.5 -40.5
s-42.5 -59.5 -42.5 -97.5v-972c0 -37.333 14.167 -69.666 42.5 -96.999s61.833 -41 100.5 -41h940c38.667 0 72.167 13.667 100.5 41s42.5 59.666 42.5 96.999v972z" />
    <glyph glyph-name="uni2713.whitesquare" unicode="&#x2713;&#x20de;" 
d="M1263 950l-546 -544l-288 285l88 87l199 -198l459 458zM356 1464h968c71.333 0 132.166 -24.833 182.499 -74.5s75.5 -109.5 75.5 -179.5v-976c0 -70 -25.167 -129.833 -75.5 -179.5s-111.166 -74.5 -182.499 -74.5h-968c-71.333 0 -132.166 24.833 -182.499 74.5
s-75.5 109.5 -75.5 179.5v976c0 70 25.167 129.833 75.5 179.5s111.166 74.5 182.499 74.5zM1453 1208c0 37.333 -14.167 69.667 -42.5 97s-61.833 41 -100.5 41h-940c-38.667 0 -72.167 -13.5 -100.5 -40.5s-42.5 -59.5 -42.5 -97.5v-972
c0 -37.333 14.167 -69.666 42.5 -96.999s61.833 -41 100.5 -41h940c38.667 0 72.167 13.667 100.5 41s42.5 59.666 42.5 96.999v972z" />
    <glyph glyph-name="plus.uc.blackcircle" unicode="&#x2b;&#x20dd;&#x25cf;" 
d="M905 674h231v121h-231v228h-130v-228h-231v-121h231v-237h130v237zM840 -50c-104 0 -203.667 20.5 -299 61.5s-177.333 95.833 -246 164.5s-123.5 150.667 -164.5 246s-61.5 195 -61.5 299s20.5 203.667 61.5 299s95.833 177.333 164.5 246s150.667 123.5 246 164.5
s195 61.5 299 61.5s203.667 -20.5 299 -61.5s177.333 -95.833 246 -164.5s123.5 -150.667 164.5 -246s61.5 -195 61.5 -299s-20.5 -203.667 -61.5 -299s-95.833 -177.333 -164.5 -246s-150.667 -123.5 -246 -164.5s-195 -61.5 -299 -61.5z" />
    <glyph glyph-name="minus.uc.blackcircle" unicode="&#x2212;&#x20dd;&#x25cf;" 
d="M1124 668v124h-568v-124h568zM840 -50c-104 0 -203.667 20.5 -299 61.5s-177.333 95.833 -246 164.5s-123.5 150.667 -164.5 246s-61.5 195 -61.5 299s20.5 203.667 61.5 299s95.833 177.333 164.5 246s150.667 123.5 246 164.5s195 61.5 299 61.5
s203.667 -20.5 299 -61.5s177.333 -95.833 246 -164.5s123.5 -150.667 164.5 -246s61.5 -195 61.5 -299s-20.5 -203.667 -61.5 -299s-95.833 -177.333 -164.5 -246s-150.667 -123.5 -246 -164.5s-195 -61.5 -299 -61.5z" />
    <glyph glyph-name="multiply.uc.blackcircle" unicode="&#xd7;&#x20dd;&#x25cf;" 
d="M840 817l-178 170l-91 -87l178 -171l-178 -169l91 -87l178 169l178 -169l91 87l-178 169l178 171l-91 87zM840 -50c-104 0 -203.667 20.5 -299 61.5s-177.333 95.833 -246 164.5s-123.5 150.667 -164.5 246s-61.5 195 -61.5 299s20.5 203.667 61.5 299
s95.833 177.333 164.5 246s150.667 123.5 246 164.5s195 61.5 299 61.5s203.667 -20.5 299 -61.5s177.333 -95.833 246 -164.5s123.5 -150.667 164.5 -246s61.5 -195 61.5 -299s-20.5 -203.667 -61.5 -299s-95.833 -177.333 -164.5 -246s-150.667 -123.5 -246 -164.5
s-195 -61.5 -299 -61.5z" />
    <glyph glyph-name="divide.uc.blackcircle" unicode="&#xf7;&#x20dd;&#x25cf;" 
d="M748 953c0 -24.667 8.66699 -45 26 -61s39 -24 65 -24s48.167 8.16699 66.5 24.5s27.5 36.5 27.5 60.5c0 26 -9 47.167 -27 63.5s-40.333 24.5 -67 24.5c-26 0 -47.667 -8.16699 -65 -24.5s-26 -37.5 -26 -63.5zM1124 674v110h-568v-110h568zM748 510
c0 -24.667 8.83398 -45 26.501 -61s39.5 -24 65.5 -24s48 8.16699 66 24.5s27 36.5 27 60.5c0 26 -8.83301 47.167 -26.5 63.5s-39.834 24.5 -66.501 24.5c-26 0 -47.833 -8.16699 -65.5 -24.5s-26.5 -37.5 -26.5 -63.5zM840.001 -50c-104 0 -203.667 20.5 -299 61.5
s-177.333 95.833 -246 164.5s-123.5 150.667 -164.5 246s-61.5 195 -61.5 299s20.5 203.667 61.5 299s95.833 177.333 164.5 246s150.667 123.5 246 164.5s195 61.5 299 61.5s203.667 -20.5 299 -61.5s177.333 -95.833 246 -164.5s123.5 -150.667 164.5 -246
s61.5 -195 61.5 -299s-20.5 -203.667 -61.5 -299s-95.833 -177.333 -164.5 -246s-150.667 -123.5 -246 -164.5s-195 -61.5 -299 -61.5z" />
    <glyph glyph-name="equal.uc.blackcircle" unicode="&#x3d;&#x20dd;&#x25cf;" 
d="M1107 796v116h-534v-116h534zM1107 548v115h-534v-115h534zM840 -50c-104 0 -203.667 20.5 -299 61.5s-177.333 95.833 -246 164.5s-123.5 150.667 -164.5 246s-61.5 195 -61.5 299s20.5 203.667 61.5 299s95.833 177.333 164.5 246s150.667 123.5 246 164.5
s195 61.5 299 61.5s203.667 -20.5 299 -61.5s177.333 -95.833 246 -164.5s123.5 -150.667 164.5 -246s61.5 -195 61.5 -299s-20.5 -203.667 -61.5 -299s-95.833 -177.333 -164.5 -246s-150.667 -123.5 -246 -164.5s-195 -61.5 -299 -61.5z" />
    <glyph glyph-name="greater.uc.blackcircle" unicode="&#x3e;&#x20dd;&#x25cf;" 
d="M1128 770l-535 290v-145l368 -190l1 -1l-369 -179v-145l535 274v96zM840 -50c-104 0 -203.667 20.5 -299 61.5s-177.333 95.833 -246 164.5s-123.5 150.667 -164.5 246s-61.5 195 -61.5 299s20.5 203.667 61.5 299s95.833 177.333 164.5 246s150.667 123.5 246 164.5
s195 61.5 299 61.5s203.667 -20.5 299 -61.5s177.333 -95.833 246 -164.5s123.5 -150.667 164.5 -246s61.5 -195 61.5 -299s-20.5 -203.667 -61.5 -299s-95.833 -177.333 -164.5 -246s-150.667 -123.5 -246 -164.5s-195 -61.5 -299 -61.5z" />
    <glyph glyph-name="less.uc.blackcircle" unicode="&#x3c;&#x20dd;&#x25cf;" 
d="M544 674l534 -274v145l-367 179v1l367 190v145l-534 -290v-96zM840 -50c-104 0 -203.667 20.5 -299 61.5s-177.333 95.833 -246 164.5s-123.5 150.667 -164.5 246s-61.5 195 -61.5 299s20.5 203.667 61.5 299s95.833 177.333 164.5 246s150.667 123.5 246 164.5
s195 61.5 299 61.5s203.667 -20.5 299 -61.5s177.333 -95.833 246 -164.5s123.5 -150.667 164.5 -246s61.5 -195 61.5 -299s-20.5 -203.667 -61.5 -299s-95.833 -177.333 -164.5 -246s-150.667 -123.5 -246 -164.5s-195 -61.5 -299 -61.5z" />
    <glyph glyph-name="numbersign.blackcircle" unicode="&#x23;&#x20dd;&#x25cf;" 
d="M780 809h147l-34 -157h-146zM1157 805l22 108h-122l42 200h-117l-41 -200h-132l42 200h-117l-41 -200h-113l-22 -108h111l-30 -141h-116l-22 -110h114l-43 -206h117l44 206h132l-44 -206h117l43 206h117l23 110h-116l29 141h123zM840 -50c-104 0 -203.667 20.5 -299 61.5
s-177.333 95.833 -246 164.5s-123.5 150.667 -164.5 246s-61.5 195 -61.5 299s20.5 203.667 61.5 299s95.833 177.333 164.5 246s150.667 123.5 246 164.5s195 61.5 299 61.5s203.667 -20.5 299 -61.5s177.333 -95.833 246 -164.5s123.5 -150.667 164.5 -246
s61.5 -195 61.5 -299s-20.5 -203.667 -61.5 -299s-95.833 -177.333 -164.5 -246s-150.667 -123.5 -246 -164.5s-195 -61.5 -299 -61.5z" />
    <glyph glyph-name="uni25BC.blackcircle" unicode="&#x25bc;&#x20dd;&#x25cf;" 
d="M1186 980h-691l345 -598zM840 -50c-104 0 -203.667 20.5 -299 61.5s-177.333 95.833 -246 164.5s-123.5 150.667 -164.5 246s-61.5 195 -61.5 299s20.5 203.667 61.5 299s95.833 177.333 164.5 246s150.667 123.5 246 164.5s195 61.5 299 61.5s203.667 -20.5 299 -61.5
s177.333 -95.833 246 -164.5s123.5 -150.667 164.5 -246s61.5 -195 61.5 -299s-20.5 -203.667 -61.5 -299s-95.833 -177.333 -164.5 -246s-150.667 -123.5 -246 -164.5s-195 -61.5 -299 -61.5z" />
    <glyph glyph-name="uni25B2.blackcircle" unicode="&#x25b2;&#x20dd;&#x25cf;" 
d="M1186 493l-346 598l-345 -598h691zM840 -50c-104 0 -203.667 20.5 -299 61.5s-177.333 95.833 -246 164.5s-123.5 150.667 -164.5 246s-61.5 195 -61.5 299s20.5 203.667 61.5 299s95.833 177.333 164.5 246s150.667 123.5 246 164.5s195 61.5 299 61.5
s203.667 -20.5 299 -61.5s177.333 -95.833 246 -164.5s123.5 -150.667 164.5 -246s61.5 -195 61.5 -299s-20.5 -203.667 -61.5 -299s-95.833 -177.333 -164.5 -246s-150.667 -123.5 -246 -164.5s-195 -61.5 -299 -61.5z" />
    <glyph glyph-name="uni25C0.blackcircle" unicode="&#x25c0;&#x20dd;&#x25cf;" 
d="M1084 392v689l-599 -344zM840 -50c-104 0 -203.667 20.5 -299 61.5s-177.333 95.833 -246 164.5s-123.5 150.667 -164.5 246s-61.5 195 -61.5 299s20.5 203.667 61.5 299s95.833 177.333 164.5 246s150.667 123.5 246 164.5s195 61.5 299 61.5s203.667 -20.5 299 -61.5
s177.333 -95.833 246 -164.5s123.5 -150.667 164.5 -246s61.5 -195 61.5 -299s-20.5 -203.667 -61.5 -299s-95.833 -177.333 -164.5 -246s-150.667 -123.5 -246 -164.5s-195 -61.5 -299 -61.5z" />
    <glyph glyph-name="uni25B6.blackcircle" unicode="&#x25b6;&#x20dd;&#x25cf;" 
d="M596 392l599 345l-599 344v-689zM840 -50c-104 0 -203.667 20.5 -299 61.5s-177.333 95.833 -246 164.5s-123.5 150.667 -164.5 246s-61.5 195 -61.5 299s20.5 203.667 61.5 299s95.833 177.333 164.5 246s150.667 123.5 246 164.5s195 61.5 299 61.5
s203.667 -20.5 299 -61.5s177.333 -95.833 246 -164.5s123.5 -150.667 164.5 -246s61.5 -195 61.5 -299s-20.5 -203.667 -61.5 -299s-95.833 -177.333 -164.5 -246s-150.667 -123.5 -246 -164.5s-195 -61.5 -299 -61.5z" />
    <glyph glyph-name="question.blackcircle" unicode="&#x3f;&#x20dd;&#x25cf;" 
d="M719 429c0 -25.333 9.66797 -46.1641 29.001 -62.4971s43.666 -24.5 72.999 -24.5c30.667 0 55.5 8.16699 74.5 24.5s28.5 37.166 28.5 62.499c0 27.333 -9.5 49.166 -28.5 65.499s-43.833 24.5 -74.5 24.5c-30 0 -54.5 -8.33301 -73.5 -25s-28.5 -38.334 -28.5 -65.001z
M748.001 590.002l137.001 0.00195312v34c0 28 5.83301 49.167 17.5 63.5s36.167 34.5 73.5 60.5c24.667 18 43.834 33 57.501 45s27 30.5 40 55.5s19.5 52.5 19.5 82.5c0 64.667 -24.5 114.667 -73.5 150s-109.5 53 -181.5 53c-33.333 0 -64.833 -4.16699 -94.5 -12.5
s-57.334 -21 -83.001 -38s-46 -40.667 -61 -71s-22.5 -65.5 -22.5 -105.5v-5h140c0 33.333 10 60.833 30 82.5s48.333 32.5 85 32.5c30.667 0 56.667 -7.83301 78 -23.5s32 -38.834 32 -69.501c0 -16.667 -4.33301 -31.834 -13 -45.501s-17.834 -24.5 -27.501 -32.5
s-25.167 -19.333 -46.5 -34c-36.667 -25.333 -64.167 -52 -82.5 -80s-26.5 -61.667 -24.5 -101v-41zM840.002 -49.9961c-104 0 -203.667 20.5 -299 61.5s-177.333 95.833 -246 164.5s-123.5 150.667 -164.5 246s-61.5 195 -61.5 299s20.5 203.667 61.5 299
s95.833 177.333 164.5 246s150.667 123.5 246 164.5s195 61.5 299 61.5s203.667 -20.5 299 -61.5s177.333 -95.833 246 -164.5s123.5 -150.667 164.5 -246s61.5 -195 61.5 -299s-20.5 -203.667 -61.5 -299s-95.833 -177.333 -164.5 -246s-150.667 -123.5 -246 -164.5
s-195 -61.5 -299 -61.5z" />
    <glyph glyph-name="exclam.blackcircle" unicode="&#x21;&#x20dd;&#x25cf;" 
d="M757 1118l17 -505h132l17 505h-166zM738 430c0 -24.667 9.5 -45.334 28.5 -62.001s43.5 -25 73.5 -25s54.5 8.33301 73.5 25s28.5 37.334 28.5 62.001c0 26.667 -9.5 48.167 -28.5 64.5s-43.5 24.5 -73.5 24.5s-54.5 -8.16699 -73.5 -24.5s-28.5 -37.833 -28.5 -64.5z
M840 -50c-104 0 -203.667 20.5 -299 61.5s-177.333 95.833 -246 164.5s-123.5 150.667 -164.5 246s-61.5 195 -61.5 299s20.5 203.667 61.5 299s95.833 177.333 164.5 246s150.667 123.5 246 164.5s195 61.5 299 61.5s203.667 -20.5 299 -61.5s177.333 -95.833 246 -164.5
s123.5 -150.667 164.5 -246s61.5 -195 61.5 -299s-20.5 -203.667 -61.5 -299s-95.833 -177.333 -164.5 -246s-150.667 -123.5 -246 -164.5s-195 -61.5 -299 -61.5z" />
    <glyph glyph-name="uni2717.blackcircle" unicode="&#x2717;&#x20dd;&#x25cf;" 
d="M844 816l-286 287l-91 -90l285 -287l-284 -284l92 -92l284 284l285 -284l90 92l-284 284l284 284l-90 91zM840 -50c-104 0 -203.667 20.5 -299 61.5s-177.333 95.833 -246 164.5s-123.5 150.667 -164.5 246s-61.5 195 -61.5 299s20.5 203.667 61.5 299
s95.833 177.333 164.5 246s150.667 123.5 246 164.5s195 61.5 299 61.5s203.667 -20.5 299 -61.5s177.333 -95.833 246 -164.5s123.5 -150.667 164.5 -246s61.5 -195 61.5 -299s-20.5 -203.667 -61.5 -299s-95.833 -177.333 -164.5 -246s-150.667 -123.5 -246 -164.5
s-195 -61.5 -299 -61.5z" />
    <glyph glyph-name="uni2713.blackcircle" unicode="&#x2713;&#x20dd;&#x25cf;" 
d="M704 377l600 599l-97 96l-504 -503l-218 217l-97 -96zM840 -50c-104 0 -203.667 20.5 -299 61.5s-177.333 95.833 -246 164.5s-123.5 150.667 -164.5 246s-61.5 195 -61.5 299s20.5 203.667 61.5 299s95.833 177.333 164.5 246s150.667 123.5 246 164.5
s195 61.5 299 61.5s203.667 -20.5 299 -61.5s177.333 -95.833 246 -164.5s123.5 -150.667 164.5 -246s61.5 -195 61.5 -299s-20.5 -203.667 -61.5 -299s-95.833 -177.333 -164.5 -246s-150.667 -123.5 -246 -164.5s-195 -61.5 -299 -61.5z" />
    <glyph glyph-name="zero.blacksquare" unicode="&#x30;&#x20de;&#x25a0;" 
d="M836 461c-46.667 0 -83 23.667 -109 71s-39 115 -39 203s13 155.667 39 203s62.333 71 109 71s83 -23.667 109 -71s39 -115 39 -203s-13 -155.667 -39 -203s-62.333 -71 -109 -71zM836 338c92 0 165.333 35.5 220 106.5s82 167.833 82 290.5s-27.333 219.5 -82 290.5
s-128 106.5 -220 106.5s-165.333 -35.5 -220 -106.5s-82 -167.833 -82 -290.5s27.333 -219.5 82 -290.5s128 -106.5 220 -106.5zM356 1464h968c71.333 0 132.166 -24.833 182.499 -74.5s75.5 -109.5 75.5 -179.5v-976c0 -70 -25.167 -129.833 -75.5 -179.5
s-111.166 -74.5 -182.499 -74.5h-968c-71.333 0 -132.166 24.833 -182.499 74.5s-75.5 109.5 -75.5 179.5v976c0 70 25.167 129.833 75.5 179.5s111.166 74.5 182.499 74.5z" />
    <glyph glyph-name="one.blacksquare" unicode="&#x31;&#x20de;&#x25a0;" 
d="M963 353v765h-148l-191 -132v-140l187 128h1v-621h151zM356 1464h968c71.333 0 132.166 -24.833 182.499 -74.5s75.5 -109.5 75.5 -179.5v-976c0 -70 -25.167 -129.833 -75.5 -179.5s-111.166 -74.5 -182.499 -74.5h-968c-71.333 0 -132.166 24.833 -182.499 74.5
s-75.5 109.5 -75.5 179.5v976c0 70 25.167 129.833 75.5 179.5s111.166 74.5 182.499 74.5z" />
    <glyph glyph-name="two.blacksquare" unicode="&#x32;&#x20de;&#x25a0;" 
d="M712 886l0.000976562 10.999c0 32 10.833 59.167 32.5 81.5s51.5 33.5 89.5 33.5c34 0 62.333 -10.167 85 -30.5s34 -45.833 34 -76.5c0 -20 -4.83301 -40.167 -14.5 -60.5s-19.667 -36.666 -30 -48.999s-24.833 -27.833 -43.5 -46.5l-293 -306v-91h546v122h-342l203 212
l48.5 54c10.333 12 22.666 28.333 36.999 49s24.5 41.167 30.5 61.5s9 42.166 9 65.499c0 62 -24.667 113.333 -74 154s-114 61 -194 61c-86 0 -152.5 -23.167 -199.5 -69.5s-70.5 -101.166 -70.5 -164.499v-11h146zM356.001 1464h968
c71.333 0 132.166 -24.833 182.499 -74.5s75.5 -109.5 75.5 -179.5v-976c0 -70 -25.167 -129.833 -75.5 -179.5s-111.166 -74.5 -182.499 -74.5h-968c-71.333 0 -132.166 24.833 -182.499 74.5s-75.5 109.5 -75.5 179.5v976c0 70 25.167 129.833 75.5 179.5
s111.166 74.5 182.499 74.5z" />
    <glyph glyph-name="three.blacksquare" unicode="&#x33;&#x20de;&#x25a0;" 
d="M744 688h93c42 0 75.833 -10.667 101.5 -32s38.834 -49 39.501 -83c0 -34.667 -13.333 -62.834 -40 -84.501s-62 -32.5 -106 -32.5c-39.333 0.666992 -72.333 10.167 -99 28.5s-41.667 41.5 -45 69.5h-140c2.66699 -61.333 29.167 -112.666 79.5 -153.999
s118.166 -62 203.499 -62c86 0 157.667 21 215 63s85.666 98 84.999 168c-2 55.333 -20.167 98.833 -54.5 130.5s-72.5 49.834 -114.5 54.501c35.333 7.33301 68.333 27 99 59s45.667 72 45 120c-1.33301 58.667 -26.666 106.667 -75.999 144s-114 56 -194 56
c-83.333 -0.666992 -149 -21.334 -197 -62.001s-73 -91.667 -75 -153h144c1.33301 26.667 13.5 49.5 36.5 68.5s52.167 28.5 87.5 28.5c36 0 65.5 -9.5 88.5 -28.5s34.833 -43.833 35.5 -74.5c0 -30.667 -11.667 -56 -35 -76s-53 -30 -89 -30h-88v-118zM356 1464h968
c71.333 0 132.166 -24.833 182.499 -74.5s75.5 -109.5 75.5 -179.5v-976c0 -70 -25.167 -129.833 -75.5 -179.5s-111.166 -74.5 -182.499 -74.5h-968c-71.333 0 -132.166 24.833 -182.499 74.5s-75.5 109.5 -75.5 179.5v976c0 70 25.167 129.833 75.5 179.5
s111.166 74.5 182.499 74.5z" />
    <glyph glyph-name="four.blacksquare" unicode="&#x34;&#x20de;&#x25a0;" 
d="M828 1118c-162.667 -253.333 -267.333 -421 -314 -503v-117h383v-145h145v145h100v120h-100v500h-214zM656.001 618l0.000976562 1c51.333 89.333 131.666 216 240.999 380v-381h-241zM356.002 1464h968c71.333 0 132.166 -24.833 182.499 -74.5s75.5 -109.5 75.5 -179.5
v-976c0 -70 -25.167 -129.833 -75.5 -179.5s-111.166 -74.5 -182.499 -74.5h-968c-71.333 0 -132.166 24.833 -182.499 74.5s-75.5 109.5 -75.5 179.5v976c0 70 25.167 129.833 75.5 179.5s111.166 74.5 182.499 74.5z" />
    <glyph glyph-name="five.blacksquare" unicode="&#x35;&#x20de;&#x25a0;" 
d="M559 552c3.33301 -62 30.501 -113.001 81.501 -153.001s116.833 -60 197.5 -60c88.667 0 160.667 25 216 75s83 115.667 83 197c0 76 -25 136.5 -75 181.5s-111.333 67.5 -184 67.5c-38 0 -70.833 -6.5 -98.5 -19.5s-48.167 -27.5 -61.5 -43.5
c7.33301 98.667 13 165.667 17 201h359v120h-483l-35 -448h131c10.667 19.333 27.667 36.5 51 51.5s51.333 22.5 84 22.5c40.667 0 75.167 -12.667 103.5 -38s42.5 -58.666 42.5 -99.999c0 -45.333 -14.333 -81.333 -43 -108s-62.334 -40 -101.001 -40
c-35.333 0 -66.5 8.16699 -93.5 24.5s-43.5 39.5 -49.5 69.5h-142zM356.001 1464h968c71.333 0 132.166 -24.833 182.499 -74.5s75.5 -109.5 75.5 -179.5v-976c0 -70 -25.167 -129.833 -75.5 -179.5s-111.166 -74.5 -182.499 -74.5h-968
c-71.333 0 -132.166 24.833 -182.499 74.5s-75.5 109.5 -75.5 179.5v976c0 70 25.167 129.833 75.5 179.5s111.166 74.5 182.499 74.5z" />
    <glyph glyph-name="six.blacksquare" unicode="&#x36;&#x20de;&#x25a0;" 
d="M1139 607c0 76.667 -24.998 136.835 -74.998 180.502s-109.333 65.5 -178 65.5c-52 0 -94.5 -10.333 -127.5 -31s-56.833 -46.334 -71.5 -77.001l-2 -3c-0.666992 83.333 14.5 149.166 45.5 197.499s72.833 72.5 125.5 72.5c33.333 0 60.333 -7.33301 81 -22
s34 -31.667 40 -51h146c-2.66699 50 -27.667 94.667 -75 134s-110.333 59 -189 59c-98.667 0 -176.334 -35.333 -233.001 -106s-85 -175 -85 -313c0 -108 20.333 -192.333 61 -253c27.333 -40.667 62.666 -71.167 105.999 -91.5s90 -30.5 140 -30.5
c86 0 156 23.833 210 71.5s81 113.5 81 197.5zM705.002 601.001c0 40.667 13.5 73.833 40.5 99.5s61.833 38.5 104.5 38.5c39.333 0 72.833 -12.167 100.5 -36.5s41.5 -58.5 41.5 -102.5c0 -46 -13.333 -81.333 -40 -106s-60.667 -37 -102 -37s-75.833 13 -103.5 39
s-41.5 61 -41.5 105zM356.002 1464h968c71.333 0 132.166 -24.833 182.499 -74.5s75.5 -109.5 75.5 -179.5v-976c0 -70 -25.167 -129.833 -75.5 -179.5s-111.166 -74.5 -182.499 -74.5h-968c-71.333 0 -132.166 24.833 -182.499 74.5s-75.5 109.5 -75.5 179.5v976
c0 70 25.167 129.833 75.5 179.5s111.166 74.5 182.499 74.5z" />
    <glyph glyph-name="seven.blacksquare" unicode="&#x37;&#x20de;&#x25a0;" 
d="M571 1118v-123h392v-1l-332 -641h159l325 645v120h-544zM356 1464h968c71.333 0 132.166 -24.833 182.499 -74.5s75.5 -109.5 75.5 -179.5v-976c0 -70 -25.167 -129.833 -75.5 -179.5s-111.166 -74.5 -182.499 -74.5h-968c-71.333 0 -132.166 24.833 -182.499 74.5
s-75.5 109.5 -75.5 179.5v976c0 70 25.167 129.833 75.5 179.5s111.166 74.5 182.499 74.5z" />
    <glyph glyph-name="eight.blacksquare" unicode="&#x38;&#x20de;&#x25a0;" 
d="M836 805c-37.333 0 -67.5 10 -90.5 30s-34.5 46 -34.5 78s11.5 58 34.5 78s53.167 30 90.5 30s67.5 -10 90.5 -30s34.5 -46 34.5 -78s-11.5 -58 -34.5 -78s-53.167 -30 -90.5 -30zM836 449c-44.667 0 -81.5 11.833 -110.5 35.5s-43.5 53.167 -43.5 88.5
c0 36 14.5 65.833 43.5 89.5s65.833 35.5 110.5 35.5s81.5 -11.833 110.5 -35.5s43.5 -53.5 43.5 -89.5c0 -35.333 -14.5 -64.833 -43.5 -88.5s-65.833 -35.5 -110.5 -35.5zM836 338c90.667 0 164 20.833 220 62.5s84 96.5 84 164.5c0 46.667 -14.667 87.167 -44 121.5
s-69 56.833 -119 67.5c41.333 14 73.5 36.167 96.5 66.5s34.5 66.166 34.5 107.499c0 60.667 -25.167 110 -75.5 148s-115.833 57 -196.5 57s-146.167 -19 -196.5 -57s-75.5 -87.333 -75.5 -148c0 -41.333 11.5 -77.166 34.5 -107.499s55.167 -52.5 96.5 -66.5
c-50 -10.667 -89.667 -33.167 -119 -67.5s-44 -74.833 -44 -121.5c0 -68 28 -122.833 84 -164.5s129.333 -62.5 220 -62.5zM356 1464h968c71.333 0 132.166 -24.833 182.499 -74.5s75.5 -109.5 75.5 -179.5v-976c0 -70 -25.167 -129.833 -75.5 -179.5
s-111.166 -74.5 -182.499 -74.5h-968c-71.333 0 -132.166 24.833 -182.499 74.5s-75.5 109.5 -75.5 179.5v976c0 70 25.167 129.833 75.5 179.5s111.166 74.5 182.499 74.5z" />
    <glyph glyph-name="nine.blacksquare" unicode="&#x39;&#x20de;&#x25a0;" 
d="M533 870c0 -79.333 25 -142.001 75 -188.001s111.667 -69 185 -69c48.667 0 89.334 9.83301 122.001 29.5s56 45.167 70 76.5c1.33301 -77.333 -12.167 -140.166 -40.5 -188.499s-71.833 -72.5 -130.5 -72.5c-30 0 -55.5 6.5 -76.5 19.5s-34.167 28.167 -39.5 45.5h-146
c4.66699 -50 29.667 -93.167 75 -129.5s107 -54.5 185 -54.5c105.333 0 184.666 34.5 237.999 103.5s80 170.833 80 305.5c0 72 -8.16699 134 -24.5 186s-39.333 92 -69 120s-61.667 48.167 -96 60.5s-72.5 18.5 -114.5 18.5c-86 0 -156.333 -23.667 -211 -71
s-82 -111.333 -82 -192zM965 867.999c0 -44 -13.833 -78.168 -41.5 -102.501s-61.5 -36.5 -101.5 -36.5s-73.667 12.5 -101 37.5s-41 59.833 -41 104.5c0 44 13.5 79 40.5 105s60.5 39 100.5 39c42 0 76.5 -13.167 103.5 -39.5s40.5 -62.166 40.5 -107.499zM356 1464h968
c71.333 0 132.166 -24.833 182.499 -74.5s75.5 -109.5 75.5 -179.5v-976c0 -70 -25.167 -129.833 -75.5 -179.5s-111.166 -74.5 -182.499 -74.5h-968c-71.333 0 -132.166 24.833 -182.499 74.5s-75.5 109.5 -75.5 179.5v976c0 70 25.167 129.833 75.5 179.5
s111.166 74.5 182.499 74.5z" />
    <glyph glyph-name="plus.uc.blacksquare" unicode="&#x2b;&#x20de;&#x25a0;" 
d="M905 674h231v121h-231v228h-130v-228h-231v-121h231v-237h130v237zM356 1464h968c71.333 0 132.166 -24.833 182.499 -74.5s75.5 -109.5 75.5 -179.5v-976c0 -70 -25.167 -129.833 -75.5 -179.5s-111.166 -74.5 -182.499 -74.5h-968
c-71.333 0 -132.166 24.833 -182.499 74.5s-75.5 109.5 -75.5 179.5v976c0 70 25.167 129.833 75.5 179.5s111.166 74.5 182.499 74.5z" />
    <glyph glyph-name="minus.uc.blacksquare" unicode="&#x2212;&#x20de;&#x25a0;" 
d="M1124 668v124h-568v-124h568zM356 1464h968c71.333 0 132.166 -24.833 182.499 -74.5s75.5 -109.5 75.5 -179.5v-976c0 -70 -25.167 -129.833 -75.5 -179.5s-111.166 -74.5 -182.499 -74.5h-968c-71.333 0 -132.166 24.833 -182.499 74.5s-75.5 109.5 -75.5 179.5v976
c0 70 25.167 129.833 75.5 179.5s111.166 74.5 182.499 74.5z" />
    <glyph glyph-name="multiply.uc.blacksquare" unicode="&#xd7;&#x20de;&#x25a0;" 
d="M840 817l-178 170l-91 -87l178 -171l-178 -169l91 -87l178 169l178 -169l91 87l-178 169l178 171l-91 87zM356 1464h968c71.333 0 132.166 -24.833 182.499 -74.5s75.5 -109.5 75.5 -179.5v-976c0 -70 -25.167 -129.833 -75.5 -179.5s-111.166 -74.5 -182.499 -74.5h-968
c-71.333 0 -132.166 24.833 -182.499 74.5s-75.5 109.5 -75.5 179.5v976c0 70 25.167 129.833 75.5 179.5s111.166 74.5 182.499 74.5z" />
    <glyph glyph-name="divide.uc.blacksquare" unicode="&#xf7;&#x20de;&#x25a0;" 
d="M748 953c0 -24.667 8.66699 -45 26 -61s39 -24 65 -24s48.167 8.16699 66.5 24.5s27.5 36.5 27.5 60.5c0 26 -9 47.167 -27 63.5s-40.333 24.5 -67 24.5c-26 0 -47.667 -8.16699 -65 -24.5s-26 -37.5 -26 -63.5zM1124 674v110h-568v-110h568zM748 510
c0 -24.667 8.83398 -45 26.501 -61s39.5 -24 65.5 -24s48 8.16699 66 24.5s27 36.5 27 60.5c0 26 -8.83301 47.167 -26.5 63.5s-39.834 24.5 -66.501 24.5c-26 0 -47.833 -8.16699 -65.5 -24.5s-26.5 -37.5 -26.5 -63.5zM356.001 1464h968
c71.333 0 132.166 -24.833 182.499 -74.5s75.5 -109.5 75.5 -179.5v-976c0 -70 -25.167 -129.833 -75.5 -179.5s-111.166 -74.5 -182.499 -74.5h-968c-71.333 0 -132.166 24.833 -182.499 74.5s-75.5 109.5 -75.5 179.5v976c0 70 25.167 129.833 75.5 179.5
s111.166 74.5 182.499 74.5z" />
    <glyph glyph-name="equal.uc.blacksquare" unicode="&#x3d;&#x20de;&#x25a0;" 
d="M1107 796v116h-534v-116h534zM1107 548v115h-534v-115h534zM356 1464h968c71.333 0 132.166 -24.833 182.499 -74.5s75.5 -109.5 75.5 -179.5v-976c0 -70 -25.167 -129.833 -75.5 -179.5s-111.166 -74.5 -182.499 -74.5h-968c-71.333 0 -132.166 24.833 -182.499 74.5
s-75.5 109.5 -75.5 179.5v976c0 70 25.167 129.833 75.5 179.5s111.166 74.5 182.499 74.5z" />
    <glyph glyph-name="greater.uc.blacksquare" unicode="&#x3e;&#x20de;&#x25a0;" 
d="M1128 770l-535 290v-145l368 -190l1 -1l-369 -179v-145l535 274v96zM356 1464h968c71.333 0 132.166 -24.833 182.499 -74.5s75.5 -109.5 75.5 -179.5v-976c0 -70 -25.167 -129.833 -75.5 -179.5s-111.166 -74.5 -182.499 -74.5h-968
c-71.333 0 -132.166 24.833 -182.499 74.5s-75.5 109.5 -75.5 179.5v976c0 70 25.167 129.833 75.5 179.5s111.166 74.5 182.499 74.5z" />
    <glyph glyph-name="less.uc.blacksquare" unicode="&#x3c;&#x20de;&#x25a0;" 
d="M544 674l534 -274v145l-367 179v1l367 190v145l-534 -290v-96zM356 1464h968c71.333 0 132.166 -24.833 182.499 -74.5s75.5 -109.5 75.5 -179.5v-976c0 -70 -25.167 -129.833 -75.5 -179.5s-111.166 -74.5 -182.499 -74.5h-968c-71.333 0 -132.166 24.833 -182.499 74.5
s-75.5 109.5 -75.5 179.5v976c0 70 25.167 129.833 75.5 179.5s111.166 74.5 182.499 74.5z" />
    <glyph glyph-name="numbersign.blacksquare" unicode="&#x23;&#x20de;&#x25a0;" 
d="M780 809h147l-34 -157h-146zM1157 805l22 108h-122l42 200h-117l-41 -200h-132l42 200h-117l-41 -200h-113l-22 -108h111l-30 -141h-116l-22 -110h114l-43 -206h117l44 206h132l-44 -206h117l43 206h117l23 110h-116l29 141h123zM356 1464h968
c71.333 0 132.166 -24.833 182.499 -74.5s75.5 -109.5 75.5 -179.5v-976c0 -70 -25.167 -129.833 -75.5 -179.5s-111.166 -74.5 -182.499 -74.5h-968c-71.333 0 -132.166 24.833 -182.499 74.5s-75.5 109.5 -75.5 179.5v976c0 70 25.167 129.833 75.5 179.5
s111.166 74.5 182.499 74.5z" />
    <glyph glyph-name="uni25BC.blacksquare" unicode="&#x25bc;&#x20de;&#x25a0;" 
d="M1186 975h-691l345 -599zM356 1464h968c71.333 0 132.166 -24.833 182.499 -74.5s75.5 -109.5 75.5 -179.5v-976c0 -70 -25.167 -129.833 -75.5 -179.5s-111.166 -74.5 -182.499 -74.5h-968c-71.333 0 -132.166 24.833 -182.499 74.5s-75.5 109.5 -75.5 179.5v976
c0 70 25.167 129.833 75.5 179.5s111.166 74.5 182.499 74.5z" />
    <glyph glyph-name="uni25B2.blacksquare" unicode="&#x25b2;&#x20de;&#x25a0;" 
d="M1186 493l-346 598l-345 -598h691zM356 1464h968c71.333 0 132.166 -24.833 182.499 -74.5s75.5 -109.5 75.5 -179.5v-976c0 -70 -25.167 -129.833 -75.5 -179.5s-111.166 -74.5 -182.499 -74.5h-968c-71.333 0 -132.166 24.833 -182.499 74.5s-75.5 109.5 -75.5 179.5
v976c0 70 25.167 129.833 75.5 179.5s111.166 74.5 182.499 74.5z" />
    <glyph glyph-name="uni25C0.blacksquare" unicode="&#x25c0;&#x20de;&#x25a0;" 
d="M1084 392v689l-599 -344zM356 1464h968c71.333 0 132.166 -24.833 182.499 -74.5s75.5 -109.5 75.5 -179.5v-976c0 -70 -25.167 -129.833 -75.5 -179.5s-111.166 -74.5 -182.499 -74.5h-968c-71.333 0 -132.166 24.833 -182.499 74.5s-75.5 109.5 -75.5 179.5v976
c0 70 25.167 129.833 75.5 179.5s111.166 74.5 182.499 74.5z" />
    <glyph glyph-name="uni25B6.blacksquare" unicode="&#x25b6;&#x20de;&#x25a0;" 
d="M596 392l599 345l-599 344v-689zM356 1464h968c71.333 0 132.166 -24.833 182.499 -74.5s75.5 -109.5 75.5 -179.5v-976c0 -70 -25.167 -129.833 -75.5 -179.5s-111.166 -74.5 -182.499 -74.5h-968c-71.333 0 -132.166 24.833 -182.499 74.5s-75.5 109.5 -75.5 179.5v976
c0 70 25.167 129.833 75.5 179.5s111.166 74.5 182.499 74.5z" />
    <glyph glyph-name="question.blacksquare" unicode="&#x3f;&#x20de;&#x25a0;" 
d="M719 429c0 -25.333 9.66797 -46.1641 29.001 -62.4971s43.666 -24.5 72.999 -24.5c30.667 0 55.5 8.16699 74.5 24.5s28.5 37.166 28.5 62.499c0 27.333 -9.5 49.166 -28.5 65.499s-43.833 24.5 -74.5 24.5c-30 0 -54.5 -8.33301 -73.5 -25s-28.5 -38.334 -28.5 -65.001z
M838.001 1134c-33.333 0 -64.832 -4.16504 -94.499 -12.498s-57.334 -21 -83.001 -38s-46 -40.667 -61 -71s-22.5 -65.5 -22.5 -105.5v-5h140c0 33.333 10 60.833 30 82.5s48.333 32.5 85 32.5c30.667 0 56.667 -7.83301 78 -23.5s32 -38.834 32 -69.501
c0 -16.667 -4.33301 -31.834 -13 -45.501s-17.834 -24.5 -27.501 -32.5s-25.167 -19.333 -46.5 -34c-36.667 -25.333 -64.167 -52 -82.5 -80s-26.5 -61.667 -24.5 -101v-41h137v34c0 28 5.83301 49.167 17.5 63.5s36.167 34.5 73.5 60.5c24.667 18 43.834 33 57.501 45
s27 30.5 40 55.5s19.5 52.5 19.5 82.5c0 64.667 -24.5 114.667 -73.5 150s-109.5 53 -181.5 53zM356.002 1464h968c71.333 0 132.166 -24.833 182.499 -74.5s75.5 -109.5 75.5 -179.5v-976c0 -70 -25.167 -129.833 -75.5 -179.5s-111.166 -74.5 -182.499 -74.5h-968
c-71.333 0 -132.166 24.833 -182.499 74.5s-75.5 109.5 -75.5 179.5v976c0 70 25.167 129.833 75.5 179.5s111.166 74.5 182.499 74.5z" />
    <glyph glyph-name="exclam.blacksquare" unicode="&#x21;&#x20de;&#x25a0;" 
d="M757 1118l17 -505h132l17 505h-166zM738 430c0 -24.667 9.5 -45.334 28.5 -62.001s43.5 -25 73.5 -25s54.5 8.33301 73.5 25s28.5 37.334 28.5 62.001c0 26.667 -9.5 48.167 -28.5 64.5s-43.5 24.5 -73.5 24.5s-54.5 -8.16699 -73.5 -24.5s-28.5 -37.833 -28.5 -64.5z
M356 1464h968c71.333 0 132.166 -24.833 182.499 -74.5s75.5 -109.5 75.5 -179.5v-976c0 -70 -25.167 -129.833 -75.5 -179.5s-111.166 -74.5 -182.499 -74.5h-968c-71.333 0 -132.166 24.833 -182.499 74.5s-75.5 109.5 -75.5 179.5v976c0 70 25.167 129.833 75.5 179.5
s111.166 74.5 182.499 74.5z" />
    <glyph glyph-name="uni2717.blacksquare" unicode="&#x2717;&#x20de;&#x25a0;" 
d="M467 1013l285 -287l-284 -284l92 -92l284 284l285 -284l90 92l-284 284l284 284l-90 91l-285 -285l-286 287zM356 1464h968c71.333 0 132.166 -24.833 182.499 -74.5s75.5 -109.5 75.5 -179.5v-976c0 -70 -25.167 -129.833 -75.5 -179.5s-111.166 -74.5 -182.499 -74.5
h-968c-71.333 0 -132.166 24.833 -182.499 74.5s-75.5 109.5 -75.5 179.5v976c0 70 25.167 129.833 75.5 179.5s111.166 74.5 182.499 74.5z" />
    <glyph glyph-name="uni2713.blacksquare" unicode="&#x2713;&#x20de;&#x25a0;" 
d="M704 377l600 599l-97 96l-504 -503l-218 217l-97 -96zM356 1464h968c71.333 0 132.166 -24.833 182.499 -74.5s75.5 -109.5 75.5 -179.5v-976c0 -70 -25.167 -129.833 -75.5 -179.5s-111.166 -74.5 -182.499 -74.5h-968c-71.333 0 -132.166 24.833 -182.499 74.5
s-75.5 109.5 -75.5 179.5v976c0 70 25.167 129.833 75.5 179.5s111.166 74.5 182.499 74.5z" />
    <glyph glyph-name=".notdef" horiz-adv-x="2048" 
d="M100 -494v284h1848v-284h-1848zM100 -62v284h1848v-284h-1848zM100 370v284h1848v-284h-1848zM100 802v284h1848v-284h-1848zM100 1234v284h1848v-284h-1848zM100 1666v284h1848v-284h-1848z" />
    <glyph glyph-name="space" unicode=" " horiz-adv-x="420" 
 />
    <glyph glyph-name="exclam" unicode="!" horiz-adv-x="546" 
d="M183 1443h180l-12 -964h-156zM273 -10c-32 0 -59 11 -81 33s-33 49 -33 81c0 32.667 11 59.834 33 81.501s49 32.5 81 32.5c32.667 0 59.834 -10.833 81.501 -32.5s32.5 -48.834 32.5 -81.501c0 -32 -10.833 -59 -32.5 -81s-48.834 -33 -81.501 -33z" />
    <glyph glyph-name="quotedbl" unicode="&#x22;" horiz-adv-x="807" 
d="M295 934h-160v509h160v-509zM672 934h-160v509h160v-509z" />
    <glyph glyph-name="numbersign" unicode="#" horiz-adv-x="1231" 
d="M623 0l82 403h-328l-82 -403h-142l81 403h-234l28 144h237l73 364h-247l29 143h247l81 389h142l-78 -389h326l81 389h143l-80 -389h249l-28 -143h-251l-75 -364h261l-28 -144h-262l-82 -403h-143zM405 544h330l75 369h-330z" />
    <glyph glyph-name="dollar" unicode="$" horiz-adv-x="1239" 
d="M688 -137l-133.999 0.00195312v134c-135.333 10 -243.833 51 -325.5 123s-122.834 163.667 -123.501 275h171c5.33301 -66.667 32.333 -121.334 81 -164.001s114.334 -69 197.001 -79v520l-80 22c-107.333 28 -189.833 74 -247.5 138s-86.5 142.333 -86.5 235
c0 109.333 37 199 111 269s175 111.333 303 124v140h134v-139c124.667 -10.667 225.167 -51.667 301.5 -123s116.166 -161 119.499 -269h-170c-2 62 -25.833 114.833 -71.5 158.5s-105.5 69.834 -179.5 78.501v-489l85 -21c122.667 -32.667 213.5 -80.334 272.5 -143.001
s88.5 -144.334 88.5 -245.001c0 -118 -39.167 -213 -117.5 -285s-187.833 -113.667 -328.5 -125v-135zM961.001 394.002c0 66 -22.001 119.332 -66.001 159.999s-113 71 -207 91v-496c86.667 4.66699 153.834 28.334 201.501 71.001s71.5 100.667 71.5 174zM312 1077
c0 -120 80.667 -197 242 -231v460c-70 -4 -127.833 -27.5 -173.5 -70.5s-68.5 -95.833 -68.5 -158.5z" />
    <glyph glyph-name="percent" unicode="%" horiz-adv-x="1498" 
d="M656 1102c0 -108.667 -27.667 -195.667 -83 -261s-128.666 -98 -219.999 -98s-164.666 32.667 -219.999 98s-83 152.333 -83 261s27.667 195.667 83 261s128.666 98 219.999 98s164.666 -32.667 219.999 -98s83 -152.333 83 -261zM353 865c44 0 78.833 21.167 104.5 63.5
s38.5 100.166 38.5 173.499s-12.833 131.166 -38.5 173.499s-60.5 63.5 -104.5 63.5s-78.833 -21.167 -104.5 -63.5s-38.5 -100.166 -38.5 -173.499s12.833 -131.166 38.5 -173.499s60.5 -63.5 104.5 -63.5zM309 0h-174l557 761l499 682h172l-542 -742zM1449 344
c0 -108.667 -27.667 -195.667 -83 -261s-128.666 -98 -219.999 -98s-164.666 32.667 -219.999 98s-83 152.333 -83 261s27.667 195.667 83 261s128.666 98 219.999 98s164.666 -32.667 219.999 -98s83 -152.333 83 -261zM1146 107c44 0 78.833 21.167 104.5 63.5
s38.5 100.166 38.5 173.499s-12.833 131.166 -38.5 173.499s-60.5 63.5 -104.5 63.5s-78.833 -21.167 -104.5 -63.5s-38.5 -100.166 -38.5 -173.499s12.833 -131.166 38.5 -173.499s60.5 -63.5 104.5 -63.5z" />
    <glyph glyph-name="ampersand" unicode="&#x26;" horiz-adv-x="1370" 
d="M1161 0l-134 145c-60.667 -54 -131.167 -95.667 -211.5 -125s-163.5 -44 -249.5 -44c-142.667 0 -259 38 -349 114s-135 174 -135 294c0 166.667 94.333 300 283 400c34.667 18 53 27.333 55 28c-64.667 68.667 -110.667 128.5 -138 179.5s-41 102.833 -41 155.5
c0 91.333 34.667 167.5 104 228.5s156 91.5 260 91.5c106 0 193.333 -30.333 262 -91s103 -137.667 103 -231c0 -73.333 -24 -138.833 -72 -196.5s-127 -115.5 -237 -173.5l357 -385c46 86 69 214 69 384v43h166v-44c0 -211.333 -39.667 -379.333 -119 -504l253 -269h-226z
M468 679c-74.667 -45.333 -128.002 -89.998 -160.002 -133.998s-48 -93.667 -48 -149c0 -80.667 29.667 -145.834 89 -195.501s137 -74.5 233 -74.5c64.667 0 127.834 12.167 189.501 36.5s111.834 56.833 150.501 97.5l-406 445
c-19.333 -8.66699 -35.333 -17.334 -48 -26.001zM564.998 876.002c86 44 147.001 85.998 183.001 125.998s54 85.667 54 137c0 55.333 -18.167 100.333 -54.5 135s-83.5 52 -141.5 52c-56.667 0 -103.334 -17.667 -140.001 -53s-55 -80.666 -55 -135.999
c0 -39.333 11.667 -78.666 35 -117.999s63 -87 119 -143z" />
    <glyph glyph-name="quotesingle" unicode="'" horiz-adv-x="430" 
d="M295 934h-160v509h160v-509z" />
    <glyph glyph-name="parenleft" unicode="(" horiz-adv-x="660" 
d="M190 568c0 342.667 94.667 634.334 284 875.001h146c-71.333 -82.667 -131.333 -208.334 -180 -377.001s-73 -334.667 -73 -498s24.333 -329.333 73 -498s108.667 -294.334 180 -377.001h-146c-189.333 240.667 -284 532.334 -284 875.001z" />
    <glyph glyph-name="parenright" unicode=")" horiz-adv-x="660" 
d="M470 568c0 -108.667 -8.16406 -209.505 -24.4971 -302.505s-39.5 -175.167 -69.5 -246.5s-59.5 -131.166 -88.5 -179.499s-62.833 -97.166 -101.5 -146.499h-146c24.667 28.667 50.5 68.167 77.5 118.5s54.167 112 81.5 185s49.833 159.833 67.5 260.5
s26.5 204.334 26.5 311.001s-8.83301 210.5 -26.5 311.5s-40.334 187.833 -68.001 260.5s-54.834 134.167 -81.501 184.5s-52.334 89.833 -77.001 118.5h146c38.667 -49.333 72.5 -98.166 101.5 -146.499s58.5 -108.166 88.5 -179.499s53.167 -153.5 69.5 -246.5
s24.5 -193.833 24.5 -302.5z" />
    <glyph glyph-name="asterisk" unicode="*" horiz-adv-x="988" 
d="M794 883l-243 153l10 -287h-131l11 287l-246 -154l-62 120l252 128l-251 129l62 116l245 -151l-10 285h130l-10 -286l244 152l64 -116l-254 -130l254 -128z" />
    <glyph glyph-name="plus" unicode="+" horiz-adv-x="1239" 
d="M700 488v-458h-162v458h-427v162h427v447h162v-447h427v-162h-427z" />
    <glyph glyph-name="comma" unicode="," horiz-adv-x="520" 
d="M232 -287h-145l97 509h185z" />
    <glyph glyph-name="hyphen" unicode="&#x2011;" horiz-adv-x="878" 
d="M767 504h-656v162h656v-162z" />
    <glyph glyph-name="hyphen" unicode="-" horiz-adv-x="878" 
d="M767 504h-656v162h656v-162z" />
    <glyph glyph-name="period" unicode="." horiz-adv-x="520" 
d="M260 -10c-32 0 -59 11 -81 33s-33 49 -33 81s11 59 33 81s49 33 81 33s59 -11 81 -33s33 -49 33 -81s-11 -59 -33 -81s-49 -33 -81 -33z" />
    <glyph glyph-name="slash" unicode="/" horiz-adv-x="660" 
d="M149 -307h-149l511 1750h149z" />
    <glyph glyph-name="zero" unicode="0" horiz-adv-x="1242" 
d="M622 -24c-167.333 0 -297.833 66.834 -391.5 200.501s-140.5 315.5 -140.5 545.5c0 228 47.167 409.167 141.5 543.5s224.5 201.5 390.5 201.5s295.833 -66.833 389.5 -200.5s140.5 -314.834 140.5 -543.501c0 -230 -46.667 -412 -140 -546s-223.333 -201 -390 -201z
M622 133.001c111.333 0 197.334 52.5 258.001 157.5s91 248.833 91 431.5c0 180 -30.667 322.833 -92 428.5s-147 158.5 -257 158.5s-196 -53 -258 -159s-93 -248.333 -93 -427c0 -182.667 30.667 -326.667 92 -432s147.666 -158 258.999 -158z" />
    <glyph glyph-name="one" unicode="1" horiz-adv-x="908" 
d="M485 0v1252h-4l-382 -275v190l384 276h176v-1443h-174z" />
    <glyph glyph-name="two" unicode="2" horiz-adv-x="1159" 
d="M108 1027c0 126 45.333 230.834 136 314.501s204 125.5 340 125.5c128.667 0 237.667 -38.333 327 -115s134 -170.334 134 -281.001c0 -80 -22 -157 -66 -231s-126.667 -173.667 -248 -299l-365 -377v-4h703v-160h-952v124l508 535
c96.667 102 160.834 179.333 192.501 232s47.5 109 47.5 169c0 69.333 -27.833 128.333 -83.5 177s-123.167 73 -202.5 73c-84.667 0 -155.334 -27 -212.001 -81s-85 -121.333 -85 -202v-1h-174v1z" />
    <glyph glyph-name="three" unicode="3" horiz-adv-x="1212" 
d="M411 666l-0.00195312 152.001h173c82.667 0 150.334 23.833 203.001 71.5s79 108.167 79 181.5s-24.333 131.666 -73 174.999s-117.667 65 -207 65c-82.667 0 -150 -22 -202 -66s-82 -104 -90 -180h-173c10 122.667 57.5 220.334 142.5 293.001s195.167 109 330.5 109
c130 0 238 -35 324 -105s129 -159 129 -267c0 -90 -26.667 -165.667 -80 -227s-125.333 -100 -216 -116v-4c109.333 -6.66699 196.333 -41.5 261 -104.5s97 -145.167 97 -246.5c0 -80.667 -22.667 -153.334 -68 -218.001s-106.666 -114.667 -183.999 -150s-163 -53 -257 -53
c-149.333 0 -269.666 37.333 -360.999 112s-140.333 172.667 -147 294h173c8 -75.333 41.667 -135.833 101 -181.5s136.666 -68.5 231.999 -68.5s173.833 24.333 235.5 73s92.5 110.667 92.5 186c0 84.667 -29.833 151.667 -89.5 201s-141.167 74 -244.5 74h-181z" />
    <glyph glyph-name="four" unicode="4" horiz-adv-x="1239" 
d="M803 0v300h-725v163c62 115.333 140.833 247 236.5 395l396.5 585h266v-985h204v-158h-204v-300h-174zM256 462v-4h547v835h-3c-252.667 -360.667 -434 -637.667 -544 -831z" />
    <glyph glyph-name="five" unicode="5" horiz-adv-x="1198" 
d="M613 -24c-138 0 -253.169 39.0029 -345.502 117.003s-142.166 178.333 -149.499 301h177c8 -76.667 41.667 -139.167 101 -187.5s132.333 -72.5 219 -72.5c98 0 177.833 30.667 239.5 92s92.5 140.666 92.5 237.999s-30.833 177.166 -92.5 239.499
s-140.5 93.5 -236.5 93.5c-67.333 0 -128.333 -14.333 -183 -43s-96.667 -68.334 -126 -119.001h-169l79 808h826v-160h-678l-44 -470h4c32.667 43.333 77.5 77.333 134.5 102s119.833 37 188.5 37c138.667 0 252.834 -45.5 342.501 -136.5s134.5 -206.5 134.5 -346.5
c0 -144.667 -48 -263 -144 -355s-219.333 -138 -370 -138z" />
    <glyph glyph-name="six" unicode="6" horiz-adv-x="1226" 
d="M639 -25c-108 0 -203.332 28.1689 -285.999 84.502s-146.334 136.5 -191.001 240.5c-47.333 109.333 -71 241.666 -71 396.999c0 243.333 49.167 432.666 147.5 567.999s235.833 203 412.5 203c122.667 0 227.334 -34 314.001 -102s141.667 -158.667 165 -272h-183
c-19.333 65.333 -56 117.5 -110 156.5s-116.667 58.5 -188 58.5c-120.667 0 -214 -51.667 -280 -155s-100.667 -251 -104 -443h3c32.667 70.667 85.667 127.334 159 170.001s154.666 64 243.999 64c137.333 0 251.5 -45.333 342.5 -136s136.5 -204.334 136.5 -341.001
c0 -142.667 -48.167 -260.5 -144.5 -353.5s-218.5 -139.5 -366.5 -139.5zM637.001 135.002c92 0 169.999 31.668 233.999 95.001s96 140.666 96 231.999c0 94.667 -30.667 172.5 -92 233.5s-139.666 91.5 -234.999 91.5s-174.5 -30.333 -237.5 -91s-94.5 -137 -94.5 -229
c0 -92.667 31.833 -171.167 95.5 -235.5s141.5 -96.5 233.5 -96.5z" />
    <glyph glyph-name="seven" unicode="7" horiz-adv-x="1120" 
d="M200 0l653 1279v4h-777v160h955v-167l-642 -1276h-189z" />
    <glyph glyph-name="eight" unicode="8" horiz-adv-x="1227" 
d="M613 -24c-152.667 0 -278 38.832 -376 116.499s-147 176.834 -147 297.501c0 90 28.333 169 85 237s131.667 112.667 225 134v4c-78 24 -139.667 64.833 -185 122.5s-68 124.5 -68 200.5c0 108.667 44.167 199 132.5 271s199.5 108 333.5 108
c134.667 0 245.834 -35.833 333.501 -107.5s131.5 -162.5 131.5 -272.5c0 -75.333 -22.333 -141.666 -67 -198.999s-106.334 -98.333 -185.001 -123v-4c93.333 -22 168.5 -67 225.5 -135s85.5 -146.667 85.5 -236c0 -120.667 -49 -219.834 -147 -297.501
s-223.667 -116.5 -377 -116.5zM613 132.999c99.333 0 180.833 25.333 244.5 76s95.5 115.334 95.5 194.001c0 79.333 -31.833 144.333 -95.5 195s-145.167 76 -244.5 76s-180.833 -25.5 -244.5 -76.5s-95.5 -115.833 -95.5 -194.5s32 -143.334 96 -194.001
s145.333 -76 244 -76zM613 831.999c84 0 152.833 22.333 206.5 67s80.5 102 80.5 172c0 70.667 -26.667 128.5 -80 173.5s-122.333 67.5 -207 67.5s-153.667 -22.5 -207 -67.5s-80 -102.833 -80 -173.5c0 -70 26.667 -127.333 80 -172s122.333 -67 207 -67z" />
    <glyph glyph-name="nine" unicode="9" horiz-adv-x="1226" 
d="M576 -24c-122.667 0 -227.668 33.998 -315.001 101.998s-142 158.667 -164 272h183c19.333 -65.333 56 -117.833 110 -157.5s116.667 -59.5 188 -59.5c120 0 213.167 52.167 279.5 156.5s100.833 252.5 103.5 444.5h-1h-2c-30.667 -71.333 -82.5 -128.5 -155.5 -171.5
s-155.5 -64.5 -247.5 -64.5c-137.333 0 -251.5 45.333 -342.5 136s-136.5 204.334 -136.5 341.001c0 142.667 48.167 260.5 144.5 353.5s218.5 139.5 366.5 139.5c108.667 0 204.334 -28.167 287.001 -84.5s146 -136.166 190 -239.499c47.333 -109.333 71 -242 71 -398
c0 -243.333 -49 -432.5 -147 -567.5s-235.333 -202.5 -412 -202.5zM585.999 655.998c95.333 0 174.668 30.332 238.001 90.999s95 137 95 229c0 92.667 -31.833 170.834 -95.5 234.501s-141.834 95.5 -234.501 95.5s-171 -31.5 -235 -94.5s-96 -139.833 -96 -230.5
c0 -94 31 -171.667 93 -233s140.333 -92 235 -92z" />
    <glyph glyph-name="colon" unicode=":" horiz-adv-x="520" 
d="M260 -10c-32 0 -59 11 -81 33s-33 49 -33 81s11 59 33 81s49 33 81 33s59 -11 81 -33s33 -49 33 -81s-11 -59 -33 -81s-49 -33 -81 -33zM260 726c-32 0 -59 11 -81 33s-33 49 -33 81s11 59 33 81s49 33 81 33s59 -11 81 -33s33 -49 33 -81s-11 -59 -33 -81
s-49 -33 -81 -33z" />
    <glyph glyph-name="semicolon" unicode=";" horiz-adv-x="520" 
d="M260 726c-32 0 -59 11 -81 33s-33 49 -33 81s11 59 33 81s49 33 81 33s59 -11 81 -33s33 -49 33 -81s-11 -59 -33 -81s-49 -33 -81 -33zM232 -287h-145l97 509h185z" />
    <glyph glyph-name="less" unicode="&#x3c;" horiz-adv-x="1239" 
d="M1059 980l-707 -400v-9l707 -378v-186l-879 491v142l879 526v-186z" />
    <glyph glyph-name="equal" unicode="=" horiz-adv-x="1239" 
d="M1108 301h-977v154h977v-154zM1108 684h-977v154h977v-154z" />
    <glyph glyph-name="greater" unicode="&#x3e;" horiz-adv-x="1239" 
d="M180 981v186l879 -526v-142l-879 -491v186l707 378v9z" />
    <glyph glyph-name="question" unicode="?" horiz-adv-x="1002" 
d="M56 1066c6 114 46.502 207.165 121.502 279.498s179.833 108.5 314.5 108.5c124.667 0 226.5 -34.333 305.5 -103s118.5 -155 118.5 -259c0 -146 -69.667 -261 -209 -345c-62.667 -37.333 -105.5 -72.666 -128.5 -105.999s-34.5 -76.666 -34.5 -129.999v-65h-175v92
c-0.666992 65.333 15.166 122 47.499 170s83.166 92.667 152.499 134c58.667 36 100.167 72 124.5 108s36.5 80.333 36.5 133c0 62.667 -22.5 114.167 -67.5 154.5s-104.167 60.5 -177.5 60.5c-75.333 0 -135.833 -20.667 -181.5 -62s-71.167 -98 -76.5 -170h-171z
M457.002 -10.002c-32 0 -59 11 -81 33s-33 49 -33 81c0 32.667 11 59.834 33 81.501s49 32.5 81 32.5c32.667 0 59.834 -10.833 81.501 -32.5s32.5 -48.834 32.5 -81.501c0 -32 -10.833 -59 -32.5 -81s-48.834 -33 -81.501 -33z" />
    <glyph glyph-name="at" unicode="@" horiz-adv-x="1791" 
d="M889 875c-66.667 0 -118.834 -24.667 -156.501 -74s-56.5 -117.666 -56.5 -204.999c0 -86.667 18.833 -155 56.5 -205s89.167 -75 154.5 -75c68.667 0 123.334 25.333 164.001 76s61 118.667 61 204s-20.167 153.166 -60.5 203.499s-94.5 75.5 -162.5 75.5zM924 1435
c115.333 0 222.497 -17.8281 321.497 -53.4951s183.833 -85.334 254.5 -149.001s126 -141.334 166 -233.001s60 -191.834 60 -300.501c0 -161.333 -33.667 -290.5 -101 -387.5s-159 -145.5 -275 -145.5c-58 0 -108.333 15.667 -151 47s-67 71.666 -73 120.999h-8
c-21.333 -50.667 -54.166 -89.834 -98.499 -117.501s-96.166 -41.5 -155.499 -41.5c-104 0 -188 39 -252 117s-96 180.667 -96 308c0 121.333 32.333 220.5 97 297.5s148.334 115.5 251.001 115.5c53.333 0 102.333 -12.833 147 -38.5s76.334 -59.834 95.001 -102.501h8v122
h151v-587c0 -34 9.5 -61 28.5 -81s47.167 -30 84.5 -30c61.333 0 111.166 35.833 149.499 107.5s57.5 170.834 57.5 297.501c0 119.333 -28.333 225.166 -85 317.499s-136.167 163.833 -238.5 214.5s-219.166 76 -350.499 76c-128 0 -243.167 -30.167 -345.5 -90.5
s-182.333 -145 -240 -254s-86.5 -232.167 -86.5 -369.5c0 -110.667 17.833 -210.667 53.5 -300s85 -163.166 148 -221.499s137.333 -103 223 -134s178.834 -46.5 279.501 -46.5c67.333 0 132 4.33301 194 13s109 20.334 141 35.001v-126c-92.667 -32.667 -205 -49 -337 -49
c-122.667 0 -235.334 18.5 -338.001 55.5s-191.5 90.167 -266.5 159.5s-133.5 157 -175.5 263s-63 225 -63 357c0 123.333 20.333 236.833 61 340.5s97.167 191.667 169.5 264s159.666 128.666 261.999 168.999s213.5 60.5 333.5 60.5z" />
    <glyph glyph-name="A" unicode="A" horiz-adv-x="1292" 
d="M1078 0l-145 413h-574l-145 -413h-189l532 1443h178l532 -1443h-189zM643 1224l-231 -658h468l-231 658h-6z" />
    <glyph glyph-name="B" unicode="B" horiz-adv-x="1238" 
d="M685 0l-545.001 -0.000976562v1443h547c123.333 0 223.166 -33 299.499 -99s114.5 -153 114.5 -261c0 -75.333 -24.167 -143.5 -72.5 -204.5s-107.166 -97.833 -176.499 -110.5v-8c98 -12.667 176.167 -51 234.5 -115s87.5 -144 87.5 -240
c0 -127.333 -43.167 -226.666 -129.5 -297.999s-206.166 -107 -359.499 -107zM319.999 1284l-0.000976562 -462.999h270c106.667 0 188.167 20.667 244.5 62s84.5 101 84.5 179c0 71.333 -23.667 126.166 -71 164.499s-114.666 57.5 -201.999 57.5h-326zM319.998 159
l338 0.000976562c108.667 0 191 21.667 247 65s84 106.666 84 189.999c0 168 -116 252 -348 252h-321v-507z" />
    <glyph glyph-name="C" unicode="C" horiz-adv-x="1405" 
d="M734 -24c-199.333 0 -357.502 67.167 -474.502 201.5s-175.5 315.833 -175.5 544.5c0 226.667 59 407.5 177 542.5s275.667 202.5 473 202.5c157.333 0 290.833 -43.833 400.5 -131.5s175.834 -203.5 198.501 -347.5h-182c-23.333 94.667 -73 170.5 -149 227.5
s-165.333 85.5 -268 85.5c-140.667 0 -253.334 -52.667 -338.001 -158s-127 -245.666 -127 -420.999c0 -177.333 42 -318.333 126 -423s197.333 -157 340 -157c106 0 195.333 24.333 268 73s122 117 148 205h182c-33.333 -142.667 -101.666 -252.334 -204.999 -329.001
s-234.666 -115 -393.999 -115z" />
    <glyph glyph-name="D" unicode="D" horiz-adv-x="1389" 
d="M140 1443h485.001c214 0 381 -63.5 501 -190.5s180 -303.833 180 -530.5c0 -227.333 -59.833 -404.5 -179.5 -531.5s-286.834 -190.5 -501.501 -190.5h-485v1443zM320.001 1281v-1119h293c163.333 0 289 48.167 377 144.5s132 234.166 132 413.499
c0 180.667 -43.833 319.334 -131.5 416.001s-213.5 145 -377.5 145h-293z" />
    <glyph glyph-name="E" unicode="E" horiz-adv-x="1131" 
d="M1034 162v-162h-894v1443h894v-162h-714v-463h677v-160h-677v-496h714z" />
    <glyph glyph-name="F" unicode="F" horiz-adv-x="1081" 
d="M320 0h-180v1443h876v-162h-696v-496h639v-160h-639v-625z" />
    <glyph glyph-name="G" unicode="G" horiz-adv-x="1447" 
d="M1357 597c0 -195.333 -53.834 -347.666 -161.501 -456.999s-257.834 -164 -450.501 -164c-201.333 0 -361.833 68.167 -481.5 204.5s-179.5 319.166 -179.5 548.499c0 225.333 59.667 404.666 179 537.999s280 200 482 200c156 0 288.833 -42.833 398.5 -128.5
s177.834 -200.167 204.501 -343.5h-189c-30 97.333 -81.167 172.666 -153.5 225.999s-159.166 80 -260.499 80c-148.667 0 -265.167 -50.5 -349.5 -151.5s-126.5 -240.833 -126.5 -419.5c0 -181.333 42.667 -324.666 128 -429.999s201.333 -158 348 -158
c128 0 232 37.833 312 113.5s120 173.834 120 294.501v26h-407v158h587v-137z" />
    <glyph glyph-name="H" unicode="H" horiz-adv-x="1432" 
d="M1292 0h-180v657h-792v-657h-180v1443h180v-624h792v624h180v-1443z" />
    <glyph glyph-name="I" unicode="I" horiz-adv-x="460" 
d="M320 0h-180v1443h180v-1443z" />
    <glyph glyph-name="J" unicode="J" horiz-adv-x="1014" 
d="M42 339l179.001 -0.000976562c2 -61.333 24.167 -111.166 66.5 -149.499s96.166 -57.5 161.499 -57.5c79.333 0 140 23.167 182 69.5s63 113.5 63 201.5v1040h180v-1041c0 -136.667 -37.333 -243.5 -112 -320.5s-178.667 -115.5 -312 -115.5
c-120 0 -218 34.833 -294 104.5s-114 159.167 -114 268.5z" />
    <glyph glyph-name="K" unicode="K" horiz-adv-x="1260" 
d="M320 0h-180v1443h180v-704h10l637 704h227l-593 -639l646 -804h-230l-541 676l-156 -172v-504z" />
    <glyph glyph-name="L" unicode="L" horiz-adv-x="1074" 
d="M1016 162v-162h-876v1443h180v-1281h696z" />
    <glyph glyph-name="M" unicode="M" horiz-adv-x="1702" 
d="M1562 0h-168v1112h-7l-460 -1102h-152l-460 1102h-7v-1112h-168v1443h209l498 -1204h8l498 1204h209v-1443z" />
    <glyph glyph-name="N" unicode="N" horiz-adv-x="1432" 
d="M318 0h-178v1443h175l790 -1133h9v1133h178v-1443h-175l-790 1129h-9v-1129z" />
    <glyph glyph-name="O" unicode="O" horiz-adv-x="1498" 
d="M749 1467c204.667 0 366.667 -67 486 -201s179 -315.667 179 -545s-59.667 -410.833 -179 -544.5s-281.333 -200.5 -486 -200.5s-366.667 66.833 -486 200.5s-179 315.167 -179 544.5s59.667 411 179 545s281.333 201 486 201zM749 1301
c-147.333 0 -264.166 -52.167 -350.499 -156.5s-129.5 -245.5 -129.5 -423.5c0 -177.333 43.167 -318.166 129.5 -422.499s203.166 -156.5 350.499 -156.5s264.166 52.167 350.499 156.5s129.5 245.166 129.5 422.499c0 178 -43.167 319.167 -129.5 423.5
s-203.166 156.5 -350.499 156.5z" />
    <glyph glyph-name="P" unicode="P" horiz-adv-x="1183" 
d="M140 1443l515.001 0.000976562c135.333 0 246.166 -43.167 332.499 -129.5s129.5 -197.5 129.5 -333.5c0 -136.667 -43.333 -248.334 -130 -335.001s-198 -130 -334 -130h-333v-515h-180v1443zM320.001 1283l-0.00195312 -608h288c102.667 0 182.334 26.833 239.001 80.5
s85 128.5 85 224.5s-28.167 170.5 -84.5 223.5s-136.166 79.5 -239.499 79.5h-288z" />
    <glyph glyph-name="Q" unicode="Q" horiz-adv-x="1498" 
d="M749 -24c-204.667 0 -366.667 66.833 -486 200.5s-179 315.167 -179 544.5s59.667 411 179 545s281.333 201 486 201s366.667 -67 486 -201s179 -315.667 179 -545c0 -138.667 -22.667 -261 -68 -367s-110 -190.667 -194 -254l191 -263h-202l-134 184
c-76.667 -30 -162.667 -45 -258 -45zM749 142c54 0 104.999 7.66797 152.999 23.001l-180 248h202l123 -168c58.667 49.333 103.667 114.666 135 195.999s47 174.666 47 279.999c0 178 -43.167 319.167 -129.5 423.5s-203.166 156.5 -350.499 156.5
s-264.166 -52.167 -350.499 -156.5s-129.5 -245.5 -129.5 -423.5c0 -177.333 43.167 -318.166 129.5 -422.499s203.166 -156.5 350.499 -156.5z" />
    <glyph glyph-name="R" unicode="R" horiz-adv-x="1227" 
d="M320 1283v-553.001h345c92.667 0 164.167 24 214.5 72s75.5 116.333 75.5 205c0 86.667 -26.333 154.334 -79 203.001s-125.667 73 -219 73h-337zM320 570.999v-571h-180v1443h541c139.333 0 250.833 -39.167 334.5 -117.5s125.5 -182.5 125.5 -312.5
c0 -100.667 -25.667 -187.667 -77 -261s-122.333 -124.333 -213 -153l334 -599h-211l-309 571h-345z" />
    <glyph glyph-name="S" unicode="S" horiz-adv-x="1216" 
d="M71 397l180.997 0.000976562c8.66699 -78 46.834 -140.667 114.501 -188s153.167 -71 256.5 -71c97.333 0 177.833 23.167 241.5 69.5s95.5 104.833 95.5 175.5c0 60.667 -22.167 110.667 -66.5 150s-115.166 71.666 -212.499 96.999l-185 48
c-133.333 34 -230.666 81.5 -291.999 142.5s-92 140.5 -92 238.5c0 120 47.5 218 142.5 294s217.5 114 367.5 114c143.333 0 262 -38.5 356 -115.5s143 -175.833 147 -296.5h-180c-8 77.333 -41.333 138.333 -100 183s-135 67 -229 67c-93.333 0 -169.5 -22 -228.5 -66
s-88.5 -101.333 -88.5 -172c0 -54.667 21.5 -99.5 64.5 -134.5s113.5 -65.167 211.5 -90.5l151 -40c149.333 -37.333 256.666 -87 321.999 -149s98 -144.667 98 -248c0 -132 -48.5 -236.5 -145.5 -313.5s-228.5 -115.5 -394.5 -115.5
c-153.333 0 -278.666 38.333 -375.999 115s-150.333 178.667 -159 306z" />
    <glyph glyph-name="T" unicode="T" horiz-adv-x="1190" 
d="M685 0h-180v1281h-455v162h1090v-162h-455v-1281z" />
    <glyph glyph-name="U" unicode="U" horiz-adv-x="1426" 
d="M320 1443l-0.00195312 -925c0 -111.333 34.833 -201.833 104.5 -271.5s165.834 -104.5 288.501 -104.5s218.834 34.833 288.501 104.5s104.5 160.167 104.5 271.5v925h180v-937c0 -156.667 -51.5 -284.167 -154.5 -382.5s-242.5 -147.5 -418.5 -147.5
s-315.5 49.167 -418.5 147.5s-154.5 225.833 -154.5 382.5v937h180z" />
    <glyph glyph-name="V" unicode="V" horiz-adv-x="1292" 
d="M735 0h-178l-532 1443h189l429 -1224h6l429 1224h189z" />
    <glyph glyph-name="W" unicode="W" horiz-adv-x="1892" 
d="M941 1145l-333 -1145h-170l-393 1443h188l289 -1178h8l325 1178h182l325 -1178h8l289 1178h188l-393 -1443h-170l-333 1145h-10z" />
    <glyph glyph-name="X" unicode="X" horiz-adv-x="1300" 
d="M45 0l491 723v7l-485 713h217l385 -580h7l390 580h205l-498 -722v-6l487 -715h-216l-383 575h-7l-389 -575h-204z" />
    <glyph glyph-name="Y" unicode="Y" horiz-adv-x="1254" 
d="M717 0h-180v621l-512 822h205l394 -648h6l394 648h205l-512 -822v-621z" />
    <glyph glyph-name="Z" unicode="Z" horiz-adv-x="1263" 
d="M98 0v128l823 1146v7h-795v162h1022v-128l-819 -1146v-7h836v-162h-1067z" />
    <glyph glyph-name="bracketleft" unicode="[" horiz-adv-x="660" 
d="M206 1443h434v-136h-266v-1479h266v-135h-434v1750z" />
    <glyph glyph-name="backslash" unicode="\" horiz-adv-x="660" 
d="M511 -307l-511 1750h149l511 -1750h-149z" />
    <glyph glyph-name="bracketright" unicode="]" horiz-adv-x="660" 
d="M454 1443v-1750h-434v135h266v1479h-266v136h434z" />
    <glyph glyph-name="asciicircum" unicode="^" horiz-adv-x="896" 
d="M440 1291l-218 -475h-167l298 627h190l298 -627h-167l-218 475h-16z" />
    <glyph glyph-name="underscore" unicode="_" horiz-adv-x="828" 
d="M882 -235h-936v128h936v-128z" />
    <glyph glyph-name="grave" unicode="`" horiz-adv-x="1005" 
d="M704 1288h-152l-246 300h188z" />
    <glyph glyph-name="a" unicode="a" horiz-adv-x="1028" 
d="M456 130c82 0 150.833 25.499 206.5 76.499s83.5 113.833 83.5 188.5v85l-278 -17c-70 -4.66699 -124.167 -21.667 -162.5 -51s-57.5 -68.666 -57.5 -117.999s19 -89 57 -119s88.333 -45 151 -45zM417 -18.001c-103.333 0 -186.834 28.667 -250.501 86
s-95.5 132.666 -95.5 225.999c0 89.333 32.833 160.666 98.5 213.999s158.5 83.333 278.5 90l298 17v87c0 63.333 -20 113 -60 149s-96 54 -168 54c-66 0 -119.667 -14.5 -161 -43.5s-67.666 -69.5 -78.999 -121.5h-168c6 92.667 46.167 168.834 120.5 228.501
s171.5 89.5 291.5 89.5c122 0 218.833 -30.667 290.5 -92s107.5 -143.666 107.5 -246.999v-719h-165v179h-4c-31.333 -59.333 -77.333 -107 -138 -143s-126 -54 -196 -54z" />
    <glyph glyph-name="b" unicode="b" horiz-adv-x="1135" 
d="M630 -18c-74.667 0 -141.167 17 -199.5 51s-104.5 81.667 -138.5 143h-4v-176h-166v1443h174v-577h4c32.667 60 78.167 107 136.5 141s123.833 51 196.5 51c131.333 0 237.333 -49 318 -147s121 -228.333 121 -391c0 -163.333 -40.333 -293.833 -121 -391.5
s-187.667 -146.5 -321 -146.5zM596 905c-88.667 0 -161 -35.5 -217 -106.5s-84 -163.833 -84 -278.5c0 -115.333 28 -208.333 84 -279s128.333 -106 217 -106c92 0 164.667 34.5 218 103.5s80 162.833 80 281.5c0 118 -26.667 211.667 -80 281s-126 104 -218 104z" />
    <glyph glyph-name="c" unicode="c" horiz-adv-x="1026" 
d="M977 699h-170.002c-13.333 60 -42.833 109.333 -88.5 148s-104.834 58 -177.501 58c-90.667 0 -163.667 -34.833 -219 -104.5s-83 -163.167 -83 -280.5c0 -119.333 27.833 -213.333 83.5 -282s129.167 -103 220.5 -103c70 0 127.833 17.5 173.5 52.5
s76.167 84.167 91.5 147.5h171c-13.333 -104 -60.166 -188.833 -140.499 -254.5s-179.166 -98.5 -296.499 -98.5c-145.333 0 -261.666 48.167 -348.999 144.5s-131 227.5 -131 393.5c0 163.333 43.667 293.833 131 391.5s203 146.5 347 146.5c124 0 224.833 -35 302.5 -105
s122.5 -154.667 134.5 -254z" />
    <glyph glyph-name="d" unicode="d" horiz-adv-x="1134" 
d="M507 -18c-133.333 0 -240.832 49 -322.499 147s-122.5 228.333 -122.5 391c0 162 40.667 292.167 122 390.5s187.666 147.5 318.999 147.5c73.333 0 139 -16.667 197 -50s102.667 -79 134 -137h4v572h174v-1443h-166v176h-3c-34 -60.667 -80 -108.167 -138 -142.5
s-124 -51.5 -198 -51.5zM540.001 905c-92 0 -165 -34.833 -219 -104.5s-81 -163.167 -81 -280.5c0 -118 27 -211.667 81 -281s127 -104 219 -104c90 0 162.333 35.167 217 105.5s82 163.5 82 279.5s-27.5 209.167 -82.5 279.5s-127.167 105.5 -216.5 105.5z" />
    <glyph glyph-name="e" unicode="e" horiz-adv-x="1049" 
d="M530 907c-80.667 0 -147.5 -27.833 -200.5 -83.5s-82.167 -127.167 -87.5 -214.5h565c-2 88 -28.333 159.667 -79 215s-116.667 83 -198 83zM803 298h170.998c-15.333 -92 -63.166 -167.667 -143.499 -227s-176.833 -89 -289.5 -89c-148.667 0 -265.667 48 -351 144
s-128 226 -128 390c0 162.667 42.833 293.667 128.5 393s199.834 149 342.501 149c140 0 250.667 -47 332 -141s122 -220 122 -378v-66h-746v-10c0 -100 27.333 -180 82 -240s128.667 -90 222 -90c65.333 0 121 15 167 45s76.333 70 91 120z" />
    <glyph glyph-name="f" unicode="f" horiz-adv-x="622" 
d="M169 0l0.000976562 897h-145v143h145v116c0 100 23.5 174.167 70.5 222.5s118.5 72.5 214.5 72.5c37.333 0 72.666 -2.66699 105.999 -8v-141c-28 4 -54.333 6 -79 6c-92.667 0 -139 -51 -139 -153v-115h213v-143h-212v-897h-174z" />
    <glyph glyph-name="g" unicode="g" horiz-adv-x="1125" 
d="M536 145c90.667 0 163.667 34.666 219 103.999s83 161 83 275c0 114.667 -27.667 206.834 -83 276.501s-128.333 104.5 -219 104.5c-90 0 -161.833 -34.5 -215.5 -103.5s-80.5 -161.5 -80.5 -277.5s26.833 -208.167 80.5 -276.5s125.5 -102.5 215.5 -102.5zM542 -392.001
c-114 0 -212 28.8311 -294 86.498s-130.333 130.834 -145 219.501h179c17.333 -48 50 -86.333 98 -115s104.333 -43 169 -43c89.333 0 159.833 23.667 211.5 71s77.5 110 77.5 188v164h-4c-32.667 -57.333 -78.334 -102.833 -137.001 -136.5s-124 -50.5 -196 -50.5
c-132.667 0 -239 48.333 -319 145s-120 225.667 -120 387c0 162.667 40.167 292.334 120.5 389.001s187.833 145 322.5 145c73.333 0 139.333 -17 198 -51s105.334 -81.333 140.001 -142h3v175h166v-1019c0 -124.667 -42.667 -224.667 -128 -300s-199.333 -113 -342 -113z
" />
    <glyph glyph-name="h" unicode="h" horiz-adv-x="1104" 
d="M122 0l0.00292969 1443h174v-569h4c29.333 58.667 72.166 104 128.499 136s123.5 48 201.5 48c113.333 0 202.666 -35 267.999 -105s98 -163.667 98 -281v-672h-174v640c0 84 -20.833 149 -62.5 195s-102.834 69 -183.501 69c-86 0 -154.167 -27 -204.5 -81
s-75.5 -126.333 -75.5 -217v-606h-174z" />
    <glyph glyph-name="i" unicode="i" horiz-adv-x="418" 
d="M122 0v1040h174v-1040h-174zM209 1215c-29.333 0 -54.666 10.667 -75.999 32s-32 46.666 -32 75.999c0 30 10.667 55.5 32 76.5s46.666 31.5 75.999 31.5c30 0 55.667 -10.5 77 -31.5s32 -46.5 32 -76.5c0 -29.333 -10.667 -54.666 -32 -75.999s-47 -32 -77 -32z" />
    <glyph glyph-name="j" unicode="j" horiz-adv-x="418" 
d="M296 1040v-1091c0 -105.333 -26 -182.833 -78 -232.5s-133.333 -74.5 -244 -74.5c-20.667 0 -31.667 0.333008 -33 1v145h27c56.667 0 96.5 12 119.5 36s34.5 65 34.5 123v1093h174zM209 1215c-29.333 0 -54.666 10.667 -75.999 32s-32 46.666 -32 75.999
c0 30 10.667 55.5 32 76.5s46.666 31.5 75.999 31.5c30 0 55.667 -10.5 77 -31.5s32 -46.5 32 -76.5c0 -29.333 -10.667 -54.666 -32 -75.999s-47 -32 -77 -32z" />
    <glyph glyph-name="k" unicode="k" horiz-adv-x="994" 
d="M296 578l460 462h211l-451 -449l465 -591h-202l-386 484l-97 -92v-392h-174v1443h174v-865z" />
    <glyph glyph-name="l" unicode="l" horiz-adv-x="418" 
d="M122 0v1443h174v-1443h-174z" />
    <glyph glyph-name="m" unicode="m" horiz-adv-x="1645" 
d="M113 0l-0.000976562 1040h164v-166h4c25.333 56.667 63.666 101.5 114.999 134.5s111.333 49.5 180 49.5c70.667 0 131.334 -17.167 182.001 -51.5s87.334 -83.166 110.001 -146.499h4c28.667 62 71.834 110.5 129.501 145.5s123.167 52.5 196.5 52.5
c102.667 0 184.834 -30.833 246.501 -92.5s92.5 -144.167 92.5 -247.5v-718h-174v678c0 71.333 -18.833 126.833 -56.5 166.5s-90.834 59.5 -159.501 59.5s-125 -22.833 -169 -68.5s-66 -103.834 -66 -174.501v-661h-174v697c0 62.667 -19.333 112.834 -58 150.501
s-90.334 56.5 -155.001 56.5c-68.667 0 -125.5 -24 -170.5 -72s-67.5 -108 -67.5 -180v-652h-174z" />
    <glyph glyph-name="n" unicode="n" horiz-adv-x="1079" 
d="M113 0l0.000976562 1040h164v-166h4c30 58 73 103.167 129 135.5s123 48.5 201 48.5c113.333 0 201.666 -34.167 264.999 -102.5s95 -161.833 95 -280.5v-675h-174v644c0 84.667 -20 149.167 -60 193.5s-99.667 66.5 -179 66.5c-82 0 -147.667 -26.667 -197 -80
s-74 -124 -74 -212v-612h-174z" />
    </font>
</defs>
</svg>
