<?xml version="1.0" standalone="no"?>
<!DOCTYPE svg PUBLIC "-//W3C//DTD SVG 1.1//EN" "http://www.w3.org/Graphics/SVG/1.1/DTD/svg11.dtd" >
<svg>
<metadata>
Created by FontForge 20090914 at Thu Oct 14 05:00:46 2021
 By www-data
&#194;&#169; 2015-2017 Apple Inc. All rights reserved.
</metadata>
<defs>
<font id="SFProDisplay-Semibold" horiz-adv-x="1694" >
  <font-face 
    font-family="SF Pro Display"
    font-weight="600"
    font-stretch="normal"
    units-per-em="2048"
    panose-1="0 0 7 0 0 0 0 0 0 0"
    ascent="1638"
    descent="-410"
    x-height="1060"
    cap-height="1443"
    bbox="-558 -513 2606 2181"
    underline-thickness="165"
    underline-position="-373"
    unicode-range="U+0020-U+1F189"
  />
<missing-glyph horiz-adv-x="2048" 
d="M100 -494v234h1848v-234h-1848zM100 -52v234h1848v-234h-1848zM100 390v234h1848v-234h-1848zM100 832v234h1848v-234h-1848zM100 1274v234h1848v-234h-1848zM100 1716v234h1848v-234h-1848z" />
    <glyph glyph-name="uni2460" unicode="&#x31;&#x20dd;" 
d="M969 385h-175v536h-7l-162 -110v152l169 114h175v-692zM847 105c111.333 0 213.666 27.5 306.999 82.5s166.666 129.667 219.999 224s80 197.166 80 308.499s-26.667 214.166 -80 308.499s-126.666 169 -219.999 224s-195.666 82.5 -306.999 82.5
s-213.666 -27.5 -306.999 -82.5s-166.666 -129.667 -219.999 -224s-80 -197.166 -80 -308.499s26.667 -214.166 80 -308.499s126.666 -169 219.999 -224s195.666 -82.5 306.999 -82.5zM847 -53c-105.333 0 -205.666 20.333 -300.999 61s-177.5 95.5 -246.5 164.5
s-123.833 151.333 -164.5 247s-61 196.167 -61 301.5s20.333 205.666 61 300.999s95.5 177.5 164.5 246.5s151.167 123.833 246.5 164.5s195.666 61 300.999 61s205.666 -20.333 300.999 -61s177.5 -95.5 246.5 -164.5s123.833 -151.167 164.5 -246.5
s61 -195.666 61 -300.999s-20.333 -205.833 -61 -301.5s-95.5 -178 -164.5 -247s-151.167 -123.833 -246.5 -164.5s-195.666 -61 -300.999 -61z" />
    <glyph glyph-name="uni2461" unicode="&#x32;&#x20dd;" 
d="M750 859l-163.001 0.000976562v4c0 64 23 117.667 69 161s110 65 192 65c76 0 137.667 -18.833 185 -56.5s71 -85.834 71 -144.501c0 -38.667 -10.667 -74 -32 -106s-54 -68.667 -98 -110l-140 -145v-6h281v-137h-519v106l257 254c26.667 26 46.334 48.5 59.001 67.5
s19 39.5 19 61.5c0 24 -8.33301 43.5 -25 58.5s-38 22.5 -64 22.5c-28.667 0 -51.167 -8.66699 -67.5 -26s-24.5 -39 -24.5 -65v-4zM846.999 105.001c111.333 0 213.666 27.5 306.999 82.5s166.666 129.667 219.999 224s80 197.166 80 308.499s-26.667 214.166 -80 308.499
s-126.666 169 -219.999 224s-195.666 82.5 -306.999 82.5s-213.666 -27.5 -306.999 -82.5s-166.666 -129.667 -219.999 -224s-80 -197.166 -80 -308.499s26.667 -214.166 80 -308.499s126.666 -169 219.999 -224s195.666 -82.5 306.999 -82.5zM846.999 -52.999
c-105.333 0 -205.666 20.333 -300.999 61s-177.5 95.5 -246.5 164.5s-123.833 151.333 -164.5 247s-61 196.167 -61 301.5s20.333 205.666 61 300.999s95.5 177.5 164.5 246.5s151.167 123.833 246.5 164.5s195.666 61 300.999 61s205.666 -20.333 300.999 -61
s177.5 -95.5 246.5 -164.5s123.833 -151.167 164.5 -246.5s61 -195.666 61 -300.999s-20.333 -205.833 -61 -301.5s-95.5 -178 -164.5 -247s-151.167 -123.833 -246.5 -164.5s-195.666 -61 -300.999 -61z" />
    <glyph glyph-name="uni2462" unicode="&#x33;&#x20dd;" 
d="M770 674v128.004h72c28.667 0 52 7.83301 70 23.5s27 35.5 27 59.5c-0.666992 23.333 -9.83398 42.166 -27.501 56.499s-40.834 21.5 -69.501 21.5s-52.167 -7.83301 -70.5 -23.5s-28.166 -34.834 -29.499 -57.501h-162c2.66699 62.667 27 112.667 73 150
s110.333 56.333 193 57c78 0 140.667 -16.833 188 -50.5s71.666 -77.834 72.999 -132.501c0.666992 -40.667 -13 -75.167 -41 -103.5s-58.667 -45.166 -92 -50.499v-8c39.333 -3.33301 74.5 -19.5 105.5 -48.5s46.833 -67.833 47.5 -116.5
c0.666992 -62.667 -25.666 -112.834 -78.999 -150.501s-121.666 -56.5 -204.999 -56.5c-82.667 0 -148.5 19.5 -197.5 58.5s-74.167 88.833 -75.5 149.5h160c1.33301 -23.333 12.333 -42.333 33 -57s47 -22.334 79 -23.001c34 0 61.5 8.16699 82.5 24.5s31.5 37.5 31.5 63.5
c-0.666992 26 -11 46.833 -31 62.5s-46.667 23.5 -80 23.5h-75zM847 105.004c111.333 0 213.666 27.5 306.999 82.5s166.666 129.667 219.999 224s80 197.166 80 308.499s-26.667 214.166 -80 308.499s-126.666 169 -219.999 224s-195.666 82.5 -306.999 82.5
s-213.666 -27.5 -306.999 -82.5s-166.666 -129.667 -219.999 -224s-80 -197.166 -80 -308.499s26.667 -214.166 80 -308.499s126.666 -169 219.999 -224s195.666 -82.5 306.999 -82.5zM847 -52.9961c-105.333 0 -205.666 20.333 -300.999 61s-177.5 95.5 -246.5 164.5
s-123.833 151.333 -164.5 247s-61 196.167 -61 301.5s20.333 205.666 61 300.999s95.5 177.5 164.5 246.5s151.167 123.833 246.5 164.5s195.666 61 300.999 61s205.666 -20.333 300.999 -61s177.5 -95.5 246.5 -164.5s123.833 -151.167 164.5 -246.5
s61 -195.666 61 -300.999s-20.333 -205.833 -61 -301.5s-95.5 -178 -164.5 -247s-151.167 -123.833 -246.5 -164.5s-195.666 -61 -300.999 -61z" />
    <glyph glyph-name="uni2463" unicode="&#x34;&#x20dd;" 
d="M789 1077h241v-441h94v-131h-94v-120h-151v120h-348v133c42.667 80 128.667 226.333 258 439zM684 636h195.001v327h-7c-66.667 -104.667 -129.334 -212.667 -188.001 -324v-3zM847.001 105c111.333 0 213.666 27.5 306.999 82.5s166.666 129.667 219.999 224
s80 197.166 80 308.499s-26.667 214.166 -80 308.499s-126.666 169 -219.999 224s-195.666 82.5 -306.999 82.5s-213.666 -27.5 -306.999 -82.5s-166.666 -129.667 -219.999 -224s-80 -197.166 -80 -308.499s26.667 -214.166 80 -308.499s126.666 -169 219.999 -224
s195.666 -82.5 306.999 -82.5zM847.001 -53c-105.333 0 -205.666 20.333 -300.999 61s-177.5 95.5 -246.5 164.5s-123.833 151.333 -164.5 247s-61 196.167 -61 301.5s20.333 205.666 61 300.999s95.5 177.5 164.5 246.5s151.167 123.833 246.5 164.5s195.666 61 300.999 61
s205.666 -20.333 300.999 -61s177.5 -95.5 246.5 -164.5s123.833 -151.167 164.5 -246.5s61 -195.666 61 -300.999s-20.333 -205.833 -61 -301.5s-95.5 -178 -164.5 -247s-151.167 -123.833 -246.5 -164.5s-195.666 -61 -300.999 -61z" />
    <glyph glyph-name="uni2464" unicode="&#x35;&#x20dd;" 
d="M586 579h160.999c4.66699 -23.333 17.334 -41.333 38.001 -54s44.667 -19 72 -19c30.667 0 57 10.5 79 31.5s33 48.5 33 82.5c0 32 -11 58 -33 78s-48.667 30 -80 30c-24.667 0 -45.834 -5.5 -63.501 -16.5s-30.5 -24.167 -38.5 -39.5h-154l29 408h464v-127h-330
l-14 -168h8c9.33301 16.667 27.5 31.334 54.5 44.001s58.5 19 94.5 19c66.667 0 121.834 -20.167 165.501 -60.5s65.5 -94.5 65.5 -162.5c0 -75.333 -25.833 -135.833 -77.5 -181.5s-120.167 -68.5 -205.5 -68.5c-77.333 0 -140.833 19.167 -190.5 57.5
s-75.5 87.166 -77.5 146.499zM846.999 105c111.333 0 213.666 27.5 306.999 82.5s166.666 129.667 219.999 224s80 197.166 80 308.499s-26.667 214.166 -80 308.499s-126.666 169 -219.999 224s-195.666 82.5 -306.999 82.5s-213.666 -27.5 -306.999 -82.5
s-166.666 -129.667 -219.999 -224s-80 -197.166 -80 -308.499s26.667 -214.166 80 -308.499s126.666 -169 219.999 -224s195.666 -82.5 306.999 -82.5zM846.999 -53c-105.333 0 -205.666 20.333 -300.999 61s-177.5 95.5 -246.5 164.5s-123.833 151.333 -164.5 247
s-61 196.167 -61 301.5s20.333 205.666 61 300.999s95.5 177.5 164.5 246.5s151.167 123.833 246.5 164.5s195.666 61 300.999 61s205.666 -20.333 300.999 -61s177.5 -95.5 246.5 -164.5s123.833 -151.167 164.5 -246.5s61 -195.666 61 -300.999
s-20.333 -205.833 -61 -301.5s-95.5 -178 -164.5 -247s-151.167 -123.833 -246.5 -164.5s-195.666 -61 -300.999 -61z" />
    <glyph glyph-name="uni2465" unicode="&#x36;&#x20dd;" 
d="M1113 907h-161c-5.33301 15.333 -16.166 28.333 -32.499 39s-37.166 16 -62.499 16c-42 0 -75 -20.167 -99 -60.5s-34.667 -93.5 -32 -159.5h7c12.667 27.333 33.334 49.833 62.001 67.5s64.334 26.5 107.001 26.5c63.333 0 116.666 -19.333 159.999 -58s65 -92 65 -160
c0 -76 -25.5 -136 -76.5 -180s-117.5 -66 -199.5 -66c-108.667 0 -188.334 40 -239.001 120c-36.667 57.333 -55 133.333 -55 228c0 120 26.667 211.5 80 274.5s126.666 94.5 219.999 94.5c73.333 0 133.166 -18 179.499 -54s71.833 -78.667 76.5 -128zM739 613
c0 -34 10.667 -61.165 32 -81.498s48 -30.5 80 -30.5c32.667 0 59.167 9.66699 79.5 29s30.5 46.666 30.5 81.999c0 33.333 -10.5 59.666 -31.5 78.999s-47.167 29 -78.5 29c-32.667 0 -59.5 -10 -80.5 -30s-31.5 -45.667 -31.5 -77zM847 105.002
c111.333 0 213.666 27.5 306.999 82.5s166.666 129.667 219.999 224s80 197.166 80 308.499s-26.667 214.166 -80 308.499s-126.666 169 -219.999 224s-195.666 82.5 -306.999 82.5s-213.666 -27.5 -306.999 -82.5s-166.666 -129.667 -219.999 -224
s-80 -197.166 -80 -308.499s26.667 -214.166 80 -308.499s126.666 -169 219.999 -224s195.666 -82.5 306.999 -82.5zM847 -52.998c-105.333 0 -205.666 20.333 -300.999 61s-177.5 95.5 -246.5 164.5s-123.833 151.333 -164.5 247s-61 196.167 -61 301.5
s20.333 205.666 61 300.999s95.5 177.5 164.5 246.5s151.167 123.833 246.5 164.5s195.666 61 300.999 61s205.666 -20.333 300.999 -61s177.5 -95.5 246.5 -164.5s123.833 -151.167 164.5 -246.5s61 -195.666 61 -300.999s-20.333 -205.833 -61 -301.5
s-95.5 -178 -164.5 -247s-151.167 -123.833 -246.5 -164.5s-195.666 -61 -300.999 -61z" />
    <glyph glyph-name="uni2466" unicode="&#x37;&#x20dd;" 
d="M597 1070h524v-138l-282 -554h-185l290 549v7h-347v136zM847 105c111.333 0 213.666 27.5 306.999 82.5s166.666 129.667 219.999 224s80 197.166 80 308.499s-26.667 214.166 -80 308.499s-126.666 169 -219.999 224s-195.666 82.5 -306.999 82.5
s-213.666 -27.5 -306.999 -82.5s-166.666 -129.667 -219.999 -224s-80 -197.166 -80 -308.499s26.667 -214.166 80 -308.499s126.666 -169 219.999 -224s195.666 -82.5 306.999 -82.5zM847 -53c-105.333 0 -205.666 20.333 -300.999 61s-177.5 95.5 -246.5 164.5
s-123.833 151.333 -164.5 247s-61 196.167 -61 301.5s20.333 205.666 61 300.999s95.5 177.5 164.5 246.5s151.167 123.833 246.5 164.5s195.666 61 300.999 61s205.666 -20.333 300.999 -61s177.5 -95.5 246.5 -164.5s123.833 -151.167 164.5 -246.5
s61 -195.666 61 -300.999s-20.333 -205.833 -61 -301.5s-95.5 -178 -164.5 -247s-151.167 -123.833 -246.5 -164.5s-195.666 -61 -300.999 -61z" />
    <glyph glyph-name="uni2467" unicode="&#x38;&#x20dd;" 
d="M847 489c34 0 62.001 9.33301 84.001 28s33 42.667 33 72s-10.833 53.5 -32.5 72.5s-49.834 28.5 -84.501 28.5s-63 -9.5 -85 -28.5s-33 -43.167 -33 -72.5s11 -53.333 33 -72s50.333 -28 85 -28zM847.001 799c28.667 0 52 8.16699 70 24.5s27 37.166 27 62.499
c0 24.667 -9.16699 45 -27.5 61s-41.5 24 -69.5 24s-51.167 -8 -69.5 -24s-27.5 -36.333 -27.5 -61c0 -25.333 9 -46.166 27 -62.499s41.333 -24.5 70 -24.5zM846.001 372c-88.667 0 -159.667 18.666 -213 55.999s-80 87 -80 149c0 43.333 14 80.5 42 111.5
s65.333 50.5 112 58.5v6c-83.333 24.667 -125 75 -125 151c0 55.333 24.333 100 73 134s112.667 51 192 51s143.333 -17 192 -51s73 -78.667 73 -134c0 -36.667 -10.833 -68.167 -32.5 -94.5s-52.5 -45.166 -92.5 -56.499v-6c46.667 -8 84 -27.333 112 -58
s42 -67.667 42 -111c0 -62.667 -26.833 -112.667 -80.5 -150s-125.167 -56 -214.5 -56zM847.001 104.999c111.333 0 213.666 27.5 306.999 82.5s166.666 129.667 219.999 224s80 197.166 80 308.499s-26.667 214.166 -80 308.499s-126.666 169 -219.999 224
s-195.666 82.5 -306.999 82.5s-213.666 -27.5 -306.999 -82.5s-166.666 -129.667 -219.999 -224s-80 -197.166 -80 -308.499s26.667 -214.166 80 -308.499s126.666 -169 219.999 -224s195.666 -82.5 306.999 -82.5zM847.001 -53.001c-105.333 0 -205.666 20.333 -300.999 61
s-177.5 95.5 -246.5 164.5s-123.833 151.333 -164.5 247s-61 196.167 -61 301.5s20.333 205.666 61 300.999s95.5 177.5 164.5 246.5s151.167 123.833 246.5 164.5s195.666 61 300.999 61s205.666 -20.333 300.999 -61s177.5 -95.5 246.5 -164.5
s123.833 -151.167 164.5 -246.5s61 -195.666 61 -300.999s-20.333 -205.833 -61 -301.5s-95.5 -178 -164.5 -247s-151.167 -123.833 -246.5 -164.5s-195.666 -61 -300.999 -61z" />
    <glyph glyph-name="uni2468" unicode="&#x39;&#x20dd;" 
d="M567 847c0 72.667 26.166 131.169 78.499 175.502s118.833 66.5 199.5 66.5c87.333 0 157.833 -28.167 211.5 -84.5s80.5 -144.833 80.5 -265.5c0 -118.667 -25.667 -209.334 -77 -272.001s-126 -94 -224 -94c-72.667 0 -131.667 17.167 -177 51.5
s-70.333 76.5 -75 126.5h162c5.33301 -14.667 16 -26.834 32 -36.501s35.667 -14.5 59 -14.5c47.333 0 82.5 20.5 105.5 61.5s32.167 93.167 27.5 156.5h-6c-12 -28 -32.333 -50.833 -61 -68.5s-63.667 -26.5 -105 -26.5c-67.333 0 -122.666 20 -165.999 60
s-65 94.667 -65 164zM953.999 848.002c0 34.667 -10.332 62.167 -30.999 82.5s-47.334 30.5 -80.001 30.5c-31.333 0 -57.333 -10.167 -78 -30.5s-31 -47.5 -31 -81.5c0 -34.667 10.5 -61.667 31.5 -81s47.5 -29 79.5 -29c31.333 0 57.333 9.66699 78 29s31 46 31 80z
M847 105.002c111.333 0 213.666 27.5 306.999 82.5s166.666 129.667 219.999 224s80 197.166 80 308.499s-26.667 214.166 -80 308.499s-126.666 169 -219.999 224s-195.666 82.5 -306.999 82.5s-213.666 -27.5 -306.999 -82.5s-166.666 -129.667 -219.999 -224
s-80 -197.166 -80 -308.499s26.667 -214.166 80 -308.499s126.666 -169 219.999 -224s195.666 -82.5 306.999 -82.5zM847 -52.998c-105.333 0 -205.666 20.333 -300.999 61s-177.5 95.5 -246.5 164.5s-123.833 151.333 -164.5 247s-61 196.167 -61 301.5
s20.333 205.666 61 300.999s95.5 177.5 164.5 246.5s151.167 123.833 246.5 164.5s195.666 61 300.999 61s205.666 -20.333 300.999 -61s177.5 -95.5 246.5 -164.5s123.833 -151.167 164.5 -246.5s61 -195.666 61 -300.999s-20.333 -205.833 -61 -301.5
s-95.5 -178 -164.5 -247s-151.167 -123.833 -246.5 -164.5s-195.666 -61 -300.999 -61z" />
    <glyph glyph-name="uni24B6" unicode="A&#x20dd;" 
d="M764 688h166l-78 261h-10zM685 408h-175l233 692h208l233 -692h-175l-47 156h-230zM847 105c111.333 0 213.666 27.5 306.999 82.5s166.666 129.667 219.999 224s80 197.166 80 308.499s-26.667 214.166 -80 308.499s-126.666 169 -219.999 224
s-195.666 82.5 -306.999 82.5s-213.666 -27.5 -306.999 -82.5s-166.666 -129.667 -219.999 -224s-80 -197.166 -80 -308.499s26.667 -214.166 80 -308.499s126.666 -169 219.999 -224s195.666 -82.5 306.999 -82.5zM847 -53c-105.333 0 -205.666 20.333 -300.999 61
s-177.5 95.5 -246.5 164.5s-123.833 151.333 -164.5 247s-61 196.167 -61 301.5s20.333 205.666 61 300.999s95.5 177.5 164.5 246.5s151.167 123.833 246.5 164.5s195.666 61 300.999 61s205.666 -20.333 300.999 -61s177.5 -95.5 246.5 -164.5
s123.833 -151.167 164.5 -246.5s61 -195.666 61 -300.999s-20.333 -205.833 -61 -301.5s-95.5 -178 -164.5 -247s-151.167 -123.833 -246.5 -164.5s-195.666 -61 -300.999 -61z" />
    <glyph glyph-name="uni24B7" unicode="B&#x20dd;" 
d="M590 385l-0.000976562 692.001h325c66 0 118.167 -15.167 156.5 -45.5s57.5 -71.833 57.5 -124.5c0 -39.333 -11.667 -72.5 -35 -99.5s-54.333 -44.5 -93 -52.5v-6c48.667 -6 87.834 -23.833 117.501 -53.5s44.5 -69.167 44.5 -118.5
c0 -58.667 -22.667 -105.334 -68 -140.001s-104.333 -52 -177 -52h-328zM754.999 961.001v-168h86c82.667 0 124 28.667 124 86c0 25.333 -8.66699 45.333 -26 60s-41.333 22 -72 22h-112zM754.999 690.001v-185h96c92.667 0 139 30.333 139 91c0 29.333 -10 52.333 -30 69
s-48.333 25 -85 25h-120zM846.999 105.001c111.333 0 213.666 27.5 306.999 82.5s166.666 129.667 219.999 224s80 197.166 80 308.499s-26.667 214.166 -80 308.499s-126.666 169 -219.999 224s-195.666 82.5 -306.999 82.5s-213.666 -27.5 -306.999 -82.5
s-166.666 -129.667 -219.999 -224s-80 -197.166 -80 -308.499s26.667 -214.166 80 -308.499s126.666 -169 219.999 -224s195.666 -82.5 306.999 -82.5zM846.999 -52.999c-105.333 0 -205.666 20.333 -300.999 61s-177.5 95.5 -246.5 164.5s-123.833 151.333 -164.5 247
s-61 196.167 -61 301.5s20.333 205.666 61 300.999s95.5 177.5 164.5 246.5s151.167 123.833 246.5 164.5s195.666 61 300.999 61s205.666 -20.333 300.999 -61s177.5 -95.5 246.5 -164.5s123.833 -151.167 164.5 -246.5s61 -195.666 61 -300.999
s-20.333 -205.833 -61 -301.5s-95.5 -178 -164.5 -247s-151.167 -123.833 -246.5 -164.5s-195.666 -61 -300.999 -61z" />
    <glyph glyph-name="uni24B8" unicode="C&#x20dd;" 
d="M991 623l166 -0.000976562c-7.33301 -74.667 -39.333 -135.167 -96 -181.5s-128.334 -69.5 -215.001 -69.5c-98 0 -178 32.667 -240 98s-93 152 -93 260c0 108.667 31 195.667 93 261s142 98 240 98c88 0 160.333 -23.667 217 -71s88.334 -109.333 95.001 -186h-164
c-4 34 -19.667 62 -47 84s-60 33 -98 33c-49.333 0 -88.666 -19.667 -117.999 -59s-44 -92.666 -44 -159.999s14.667 -120.5 44 -159.5s68.666 -58.5 117.999 -58.5c36.667 0 68.5 10.5 95.5 31.5s42.5 47.5 46.5 79.5zM847 104.999c111.333 0 213.666 27.5 306.999 82.5
s166.666 129.667 219.999 224s80 197.166 80 308.499s-26.667 214.166 -80 308.499s-126.666 169 -219.999 224s-195.666 82.5 -306.999 82.5s-213.666 -27.5 -306.999 -82.5s-166.666 -129.667 -219.999 -224s-80 -197.166 -80 -308.499s26.667 -214.166 80 -308.499
s126.666 -169 219.999 -224s195.666 -82.5 306.999 -82.5zM847 -53.001c-105.333 0 -205.666 20.333 -300.999 61s-177.5 95.5 -246.5 164.5s-123.833 151.333 -164.5 247s-61 196.167 -61 301.5s20.333 205.666 61 300.999s95.5 177.5 164.5 246.5
s151.167 123.833 246.5 164.5s195.666 61 300.999 61s205.666 -20.333 300.999 -61s177.5 -95.5 246.5 -164.5s123.833 -151.167 164.5 -246.5s61 -195.666 61 -300.999s-20.333 -205.833 -61 -301.5s-95.5 -178 -164.5 -247s-151.167 -123.833 -246.5 -164.5
s-195.666 -61 -300.999 -61z" />
    <glyph glyph-name="uni24B9" unicode="D&#x20dd;" 
d="M587 1077h283c106.667 0 187.167 -29.5 241.5 -88.5s81.5 -144.5 81.5 -256.5s-27.167 -197.833 -81.5 -257.5s-134.833 -89.5 -241.5 -89.5h-283v692zM757 943v-425h87c59.333 0 103 17.333 131 52s42 88 42 160s-14 125.5 -42 160.5s-71.667 52.5 -131 52.5h-87z
M847 105c111.333 0 213.666 27.5 306.999 82.5s166.666 129.667 219.999 224s80 197.166 80 308.499s-26.667 214.166 -80 308.499s-126.666 169 -219.999 224s-195.666 82.5 -306.999 82.5s-213.666 -27.5 -306.999 -82.5s-166.666 -129.667 -219.999 -224
s-80 -197.166 -80 -308.499s26.667 -214.166 80 -308.499s126.666 -169 219.999 -224s195.666 -82.5 306.999 -82.5zM847 -53c-105.333 0 -205.666 20.333 -300.999 61s-177.5 95.5 -246.5 164.5s-123.833 151.333 -164.5 247s-61 196.167 -61 301.5
s20.333 205.666 61 300.999s95.5 177.5 164.5 246.5s151.167 123.833 246.5 164.5s195.666 61 300.999 61s205.666 -20.333 300.999 -61s177.5 -95.5 246.5 -164.5s123.833 -151.167 164.5 -246.5s61 -195.666 61 -300.999s-20.333 -205.833 -61 -301.5
s-95.5 -178 -164.5 -247s-151.167 -123.833 -246.5 -164.5s-195.666 -61 -300.999 -61z" />
    <glyph glyph-name="uni24BA" unicode="E&#x20dd;" 
d="M1097 517v-132h-483v692h483v-132h-315v-152h296v-118h-296v-158h315zM847 105c111.333 0 213.666 27.5 306.999 82.5s166.666 129.667 219.999 224s80 197.166 80 308.499s-26.667 214.166 -80 308.499s-126.666 169 -219.999 224s-195.666 82.5 -306.999 82.5
s-213.666 -27.5 -306.999 -82.5s-166.666 -129.667 -219.999 -224s-80 -197.166 -80 -308.499s26.667 -214.166 80 -308.499s126.666 -169 219.999 -224s195.666 -82.5 306.999 -82.5zM847 -53c-105.333 0 -205.666 20.333 -300.999 61s-177.5 95.5 -246.5 164.5
s-123.833 151.333 -164.5 247s-61 196.167 -61 301.5s20.333 205.666 61 300.999s95.5 177.5 164.5 246.5s151.167 123.833 246.5 164.5s195.666 61 300.999 61s205.666 -20.333 300.999 -61s177.5 -95.5 246.5 -164.5s123.833 -151.167 164.5 -246.5
s61 -195.666 61 -300.999s-20.333 -205.833 -61 -301.5s-95.5 -178 -164.5 -247s-151.167 -123.833 -246.5 -164.5s-195.666 -61 -300.999 -61z" />
    <glyph glyph-name="uni24BB" unicode="F&#x20dd;" 
d="M810 385h-173v692h479v-134h-306v-164h278v-133h-278v-261zM847 105c111.333 0 213.666 27.5 306.999 82.5s166.666 129.667 219.999 224s80 197.166 80 308.499s-26.667 214.166 -80 308.499s-126.666 169 -219.999 224s-195.666 82.5 -306.999 82.5
s-213.666 -27.5 -306.999 -82.5s-166.666 -129.667 -219.999 -224s-80 -197.166 -80 -308.499s26.667 -214.166 80 -308.499s126.666 -169 219.999 -224s195.666 -82.5 306.999 -82.5zM847 -53c-105.333 0 -205.666 20.333 -300.999 61s-177.5 95.5 -246.5 164.5
s-123.833 151.333 -164.5 247s-61 196.167 -61 301.5s20.333 205.666 61 300.999s95.5 177.5 164.5 246.5s151.167 123.833 246.5 164.5s195.666 61 300.999 61s205.666 -20.333 300.999 -61s177.5 -95.5 246.5 -164.5s123.833 -151.167 164.5 -246.5
s61 -195.666 61 -300.999s-20.333 -205.833 -61 -301.5s-95.5 -178 -164.5 -247s-151.167 -123.833 -246.5 -164.5s-195.666 -61 -300.999 -61z" />
    <glyph glyph-name="uni24BC" unicode="G&#x20dd;" 
d="M994 609l0.000976562 40.001h-139v113h300v-122c0 -79.333 -27.167 -143.833 -81.5 -193.5s-129.5 -74.5 -225.5 -74.5c-100 0 -180.833 33 -242.5 99s-92.5 152.333 -92.5 259c0 107.333 30.833 194 92.5 260s142.5 99 242.5 99c83.333 0 153.5 -21.833 210.5 -65.5
s89.833 -101.5 98.5 -173.5h-167c-4.66699 31.333 -20 56.833 -46 76.5s-57.333 29.5 -94 29.5c-49.333 0 -88.833 -20.5 -118.5 -61.5s-44.5 -95.833 -44.5 -164.5s15 -123.834 45 -165.501s69.333 -62.5 118 -62.5c45.333 0 80.666 9.83301 105.999 29.5s38 45.5 38 77.5z
M847.001 105.001c111.333 0 213.666 27.5 306.999 82.5s166.666 129.667 219.999 224s80 197.166 80 308.499s-26.667 214.166 -80 308.499s-126.666 169 -219.999 224s-195.666 82.5 -306.999 82.5s-213.666 -27.5 -306.999 -82.5s-166.666 -129.667 -219.999 -224
s-80 -197.166 -80 -308.499s26.667 -214.166 80 -308.499s126.666 -169 219.999 -224s195.666 -82.5 306.999 -82.5zM847.001 -52.999c-105.333 0 -205.666 20.333 -300.999 61s-177.5 95.5 -246.5 164.5s-123.833 151.333 -164.5 247s-61 196.167 -61 301.5
s20.333 205.666 61 300.999s95.5 177.5 164.5 246.5s151.167 123.833 246.5 164.5s195.666 61 300.999 61s205.666 -20.333 300.999 -61s177.5 -95.5 246.5 -164.5s123.833 -151.167 164.5 -246.5s61 -195.666 61 -300.999s-20.333 -205.833 -61 -301.5
s-95.5 -178 -164.5 -247s-151.167 -123.833 -246.5 -164.5s-195.666 -61 -300.999 -61z" />
    <glyph glyph-name="uni24BD" unicode="H&#x20dd;" 
d="M1150 385h-166v281h-273v-281h-166v692h166v-273h273v273h166v-692zM847 105c111.333 0 213.666 27.5 306.999 82.5s166.666 129.667 219.999 224s80 197.166 80 308.499s-26.667 214.166 -80 308.499s-126.666 169 -219.999 224s-195.666 82.5 -306.999 82.5
s-213.666 -27.5 -306.999 -82.5s-166.666 -129.667 -219.999 -224s-80 -197.166 -80 -308.499s26.667 -214.166 80 -308.499s126.666 -169 219.999 -224s195.666 -82.5 306.999 -82.5zM847 -53c-105.333 0 -205.666 20.333 -300.999 61s-177.5 95.5 -246.5 164.5
s-123.833 151.333 -164.5 247s-61 196.167 -61 301.5s20.333 205.666 61 300.999s95.5 177.5 164.5 246.5s151.167 123.833 246.5 164.5s195.666 61 300.999 61s205.666 -20.333 300.999 -61s177.5 -95.5 246.5 -164.5s123.833 -151.167 164.5 -246.5
s61 -195.666 61 -300.999s-20.333 -205.833 -61 -301.5s-95.5 -178 -164.5 -247s-151.167 -123.833 -246.5 -164.5s-195.666 -61 -300.999 -61z" />
    <glyph glyph-name="uni24BE" unicode="I&#x20dd;" 
d="M939 385h-184v692h184v-692zM847 105c111.333 0 213.666 27.5 306.999 82.5s166.666 129.667 219.999 224s80 197.166 80 308.499s-26.667 214.166 -80 308.499s-126.666 169 -219.999 224s-195.666 82.5 -306.999 82.5s-213.666 -27.5 -306.999 -82.5
s-166.666 -129.667 -219.999 -224s-80 -197.166 -80 -308.499s26.667 -214.166 80 -308.499s126.666 -169 219.999 -224s195.666 -82.5 306.999 -82.5zM847 -53c-105.333 0 -205.666 20.333 -300.999 61s-177.5 95.5 -246.5 164.5s-123.833 151.333 -164.5 247
s-61 196.167 -61 301.5s20.333 205.666 61 300.999s95.5 177.5 164.5 246.5s151.167 123.833 246.5 164.5s195.666 61 300.999 61s205.666 -20.333 300.999 -61s177.5 -95.5 246.5 -164.5s123.833 -151.167 164.5 -246.5s61 -195.666 61 -300.999
s-20.333 -205.833 -61 -301.5s-95.5 -178 -164.5 -247s-151.167 -123.833 -246.5 -164.5s-195.666 -61 -300.999 -61z" />
    <glyph glyph-name="uni24BF" unicode="J&#x20dd;" 
d="M561 602h169c0.666992 -26.667 8.5 -47.5 23.5 -62.5s35.167 -22.5 60.5 -22.5c56.667 0 85 33.333 85 100v454h176v-454c0 -78.667 -23 -140.167 -69 -184.5s-109 -66.5 -189 -66.5s-142.667 21.833 -188 65.5s-68 100.5 -68 170.5zM847 105
c111.333 0 213.666 27.5 306.999 82.5s166.666 129.667 219.999 224s80 197.166 80 308.499s-26.667 214.166 -80 308.499s-126.666 169 -219.999 224s-195.666 82.5 -306.999 82.5s-213.666 -27.5 -306.999 -82.5s-166.666 -129.667 -219.999 -224
s-80 -197.166 -80 -308.499s26.667 -214.166 80 -308.499s126.666 -169 219.999 -224s195.666 -82.5 306.999 -82.5zM847 -53c-105.333 0 -205.666 20.333 -300.999 61s-177.5 95.5 -246.5 164.5s-123.833 151.333 -164.5 247s-61 196.167 -61 301.5
s20.333 205.666 61 300.999s95.5 177.5 164.5 246.5s151.167 123.833 246.5 164.5s195.666 61 300.999 61s205.666 -20.333 300.999 -61s177.5 -95.5 246.5 -164.5s123.833 -151.167 164.5 -246.5s61 -195.666 61 -300.999s-20.333 -205.833 -61 -301.5
s-95.5 -178 -164.5 -247s-151.167 -123.833 -246.5 -164.5s-195.666 -61 -300.999 -61z" />
    <glyph glyph-name="uni24C0" unicode="K&#x20dd;" 
d="M1174 1077l-242 -307l250 -385h-201l-177 278l-70 -78v-200h-163v692h163v-302h6l245 302h189zM847 105c111.333 0 213.666 27.5 306.999 82.5s166.666 129.667 219.999 224s80 197.166 80 308.499s-26.667 214.166 -80 308.499s-126.666 169 -219.999 224
s-195.666 82.5 -306.999 82.5s-213.666 -27.5 -306.999 -82.5s-166.666 -129.667 -219.999 -224s-80 -197.166 -80 -308.499s26.667 -214.166 80 -308.499s126.666 -169 219.999 -224s195.666 -82.5 306.999 -82.5zM847 -53c-105.333 0 -205.666 20.333 -300.999 61
s-177.5 95.5 -246.5 164.5s-123.833 151.333 -164.5 247s-61 196.167 -61 301.5s20.333 205.666 61 300.999s95.5 177.5 164.5 246.5s151.167 123.833 246.5 164.5s195.666 61 300.999 61s205.666 -20.333 300.999 -61s177.5 -95.5 246.5 -164.5
s123.833 -151.167 164.5 -246.5s61 -195.666 61 -300.999s-20.333 -205.833 -61 -301.5s-95.5 -178 -164.5 -247s-151.167 -123.833 -246.5 -164.5s-195.666 -61 -300.999 -61z" />
    <glyph glyph-name="uni24C1" unicode="L&#x20dd;" 
d="M1124 534v-143h-473v693h177v-550h296zM847 105c111.333 0 213.666 27.5 306.999 82.5s166.666 129.667 219.999 224s80 197.166 80 308.499s-26.667 214.166 -80 308.499s-126.666 169 -219.999 224s-195.666 82.5 -306.999 82.5s-213.666 -27.5 -306.999 -82.5
s-166.666 -129.667 -219.999 -224s-80 -197.166 -80 -308.499s26.667 -214.166 80 -308.499s126.666 -169 219.999 -224s195.666 -82.5 306.999 -82.5zM847 -53c-105.333 0 -205.666 20.333 -300.999 61s-177.5 95.5 -246.5 164.5s-123.833 151.333 -164.5 247
s-61 196.167 -61 301.5s20.333 205.666 61 300.999s95.5 177.5 164.5 246.5s151.167 123.833 246.5 164.5s195.666 61 300.999 61s205.666 -20.333 300.999 -61s177.5 -95.5 246.5 -164.5s123.833 -151.167 164.5 -246.5s61 -195.666 61 -300.999
s-20.333 -205.833 -61 -301.5s-95.5 -178 -164.5 -247s-151.167 -123.833 -246.5 -164.5s-195.666 -61 -300.999 -61z" />
    <glyph glyph-name="uni24C2" unicode="M&#x20dd;" 
d="M634 385h-139v692h169l182 -484h4l182 484h167v-692h-138v442h-7l-155 -411h-104l-154 411h-7v-442zM847 105c111.333 0 213.666 27.5 306.999 82.5s166.666 129.667 219.999 224s80 197.166 80 308.499s-26.667 214.166 -80 308.499s-126.666 169 -219.999 224
s-195.666 82.5 -306.999 82.5s-213.666 -27.5 -306.999 -82.5s-166.666 -129.667 -219.999 -224s-80 -197.166 -80 -308.499s26.667 -214.166 80 -308.499s126.666 -169 219.999 -224s195.666 -82.5 306.999 -82.5zM847 -53c-105.333 0 -205.666 20.333 -300.999 61
s-177.5 95.5 -246.5 164.5s-123.833 151.333 -164.5 247s-61 196.167 -61 301.5s20.333 205.666 61 300.999s95.5 177.5 164.5 246.5s151.167 123.833 246.5 164.5s195.666 61 300.999 61s205.666 -20.333 300.999 -61s177.5 -95.5 246.5 -164.5
s123.833 -151.167 164.5 -246.5s61 -195.666 61 -300.999s-20.333 -205.833 -61 -301.5s-95.5 -178 -164.5 -247s-151.167 -123.833 -246.5 -164.5s-195.666 -61 -300.999 -61z" />
    <glyph glyph-name="uni24C3" unicode="N&#x20dd;" 
d="M707 385h-156v692h132l298 -424h6v424h156v-692h-131l-299 428h-6v-428zM847 105c111.333 0 213.666 27.5 306.999 82.5s166.666 129.667 219.999 224s80 197.166 80 308.499s-26.667 214.166 -80 308.499s-126.666 169 -219.999 224s-195.666 82.5 -306.999 82.5
s-213.666 -27.5 -306.999 -82.5s-166.666 -129.667 -219.999 -224s-80 -197.166 -80 -308.499s26.667 -214.166 80 -308.499s126.666 -169 219.999 -224s195.666 -82.5 306.999 -82.5zM847 -53c-105.333 0 -205.666 20.333 -300.999 61s-177.5 95.5 -246.5 164.5
s-123.833 151.333 -164.5 247s-61 196.167 -61 301.5s20.333 205.666 61 300.999s95.5 177.5 164.5 246.5s151.167 123.833 246.5 164.5s195.666 61 300.999 61s205.666 -20.333 300.999 -61s177.5 -95.5 246.5 -164.5s123.833 -151.167 164.5 -246.5
s61 -195.666 61 -300.999s-20.333 -205.833 -61 -301.5s-95.5 -178 -164.5 -247s-151.167 -123.833 -246.5 -164.5s-195.666 -61 -300.999 -61z" />
    <glyph glyph-name="uni24C4" unicode="O&#x20dd;" 
d="M847 512c46.667 0 85 19.167 115 57.5s45 91.833 45 160.5c0 70 -15 124 -45 162s-68.333 57 -115 57s-85 -19 -115 -57s-45 -92 -45 -162c0 -68.667 15 -122.167 45 -160.5s68.333 -57.5 115 -57.5zM847 372c-96 0 -175.667 32 -239 96s-95 151.333 -95 262
c0 111.333 31.5 199 94.5 263s142.833 96 239.5 96s176.5 -32 239.5 -96s94.5 -151.667 94.5 -263c0 -110.667 -31.667 -198 -95 -262s-143 -96 -239 -96zM847 105c111.333 0 213.666 27.5 306.999 82.5s166.666 129.667 219.999 224s80 197.166 80 308.499
s-26.667 214.166 -80 308.499s-126.666 169 -219.999 224s-195.666 82.5 -306.999 82.5s-213.666 -27.5 -306.999 -82.5s-166.666 -129.667 -219.999 -224s-80 -197.166 -80 -308.499s26.667 -214.166 80 -308.499s126.666 -169 219.999 -224s195.666 -82.5 306.999 -82.5z
M847 -53c-105.333 0 -205.666 20.333 -300.999 61s-177.5 95.5 -246.5 164.5s-123.833 151.333 -164.5 247s-61 196.167 -61 301.5s20.333 205.666 61 300.999s95.5 177.5 164.5 246.5s151.167 123.833 246.5 164.5s195.666 61 300.999 61s205.666 -20.333 300.999 -61
s177.5 -95.5 246.5 -164.5s123.833 -151.167 164.5 -246.5s61 -195.666 61 -300.999s-20.333 -205.833 -61 -301.5s-95.5 -178 -164.5 -247s-151.167 -123.833 -246.5 -164.5s-195.666 -61 -300.999 -61z" />
    <glyph glyph-name="uni24C5" unicode="P&#x20dd;" 
d="M915 1077c77.333 0 138.667 -22.333 184 -67s68 -103 68 -175c0 -71.333 -22.833 -129 -68.5 -173s-107.5 -66 -185.5 -66h-126v-211h-175v692h303zM995.001 835c0 36 -9.5 63.5 -28.5 82.5s-46.167 28.5 -81.5 28.5h-105v-221h105c35.333 0 62.5 9.5 81.5 28.5
s28.5 46.167 28.5 81.5zM847.001 105c111.333 0 213.666 27.5 306.999 82.5s166.666 129.667 219.999 224s80 197.166 80 308.499s-26.667 214.166 -80 308.499s-126.666 169 -219.999 224s-195.666 82.5 -306.999 82.5s-213.666 -27.5 -306.999 -82.5
s-166.666 -129.667 -219.999 -224s-80 -197.166 -80 -308.499s26.667 -214.166 80 -308.499s126.666 -169 219.999 -224s195.666 -82.5 306.999 -82.5zM847.001 -53c-105.333 0 -205.666 20.333 -300.999 61s-177.5 95.5 -246.5 164.5s-123.833 151.333 -164.5 247
s-61 196.167 -61 301.5s20.333 205.666 61 300.999s95.5 177.5 164.5 246.5s151.167 123.833 246.5 164.5s195.666 61 300.999 61s205.666 -20.333 300.999 -61s177.5 -95.5 246.5 -164.5s123.833 -151.167 164.5 -246.5s61 -195.666 61 -300.999
s-20.333 -205.833 -61 -301.5s-95.5 -178 -164.5 -247s-151.167 -123.833 -246.5 -164.5s-195.666 -61 -300.999 -61z" />
    <glyph glyph-name="uni24C6" unicode="Q&#x20dd;" 
d="M1159 321h-167l-43 67c-34 -10.667 -68 -16 -102 -16c-96 0 -175.667 32 -239 96s-95 151.333 -95 262c0 111.333 31.5 199 94.5 263s142.833 96 239.5 96s176.5 -32 239.5 -96s94.5 -151.667 94.5 -263c0 -121.333 -38 -215 -114 -281zM847 512
c15.333 0 27.667 1.66699 37 5l-65 104h116l30 -41c28 38 42 88 42 150c0 70 -15 124 -45 162s-68.333 57 -115 57s-85 -19 -115 -57s-45 -92 -45 -162c0 -68.667 15 -122.167 45 -160.5s68.333 -57.5 115 -57.5zM847.001 105c111.333 0 213.666 27.5 306.999 82.5
s166.666 129.667 219.999 224s80 197.166 80 308.499s-26.667 214.166 -80 308.499s-126.666 169 -219.999 224s-195.666 82.5 -306.999 82.5s-213.666 -27.5 -306.999 -82.5s-166.666 -129.667 -219.999 -224s-80 -197.166 -80 -308.499s26.667 -214.166 80 -308.499
s126.666 -169 219.999 -224s195.666 -82.5 306.999 -82.5zM847.001 -53c-105.333 0 -205.666 20.333 -300.999 61s-177.5 95.5 -246.5 164.5s-123.833 151.333 -164.5 247s-61 196.167 -61 301.5s20.333 205.666 61 300.999s95.5 177.5 164.5 246.5
s151.167 123.833 246.5 164.5s195.666 61 300.999 61s205.666 -20.333 300.999 -61s177.5 -95.5 246.5 -164.5s123.833 -151.167 164.5 -246.5s61 -195.666 61 -300.999s-20.333 -205.833 -61 -301.5s-95.5 -178 -164.5 -247s-151.167 -123.833 -246.5 -164.5
s-195.666 -61 -300.999 -61z" />
    <glyph glyph-name="uni24C7" unicode="R&#x20dd;" 
d="M882 1077c83.333 0 148.333 -19.6689 195 -59.002s70 -93.333 70 -162c0 -47.333 -12.333 -88.166 -37 -122.499s-57 -58.166 -97 -71.499l148 -277h-185l-121 248h-111v-248h-163v692h301zM744 750.998h115c36 0 63.833 8.33301 83.5 25s29.5 40.667 29.5 72
c0 32 -9.83301 56.833 -29.5 74.5s-46.5 26.5 -80.5 26.5h-118v-198zM847 104.998c111.333 0 213.666 27.5 306.999 82.5s166.666 129.667 219.999 224s80 197.166 80 308.499s-26.667 214.166 -80 308.499s-126.666 169 -219.999 224s-195.666 82.5 -306.999 82.5
s-213.666 -27.5 -306.999 -82.5s-166.666 -129.667 -219.999 -224s-80 -197.166 -80 -308.499s26.667 -214.166 80 -308.499s126.666 -169 219.999 -224s195.666 -82.5 306.999 -82.5zM847 -53.002c-105.333 0 -205.666 20.333 -300.999 61s-177.5 95.5 -246.5 164.5
s-123.833 151.333 -164.5 247s-61 196.167 -61 301.5s20.333 205.666 61 300.999s95.5 177.5 164.5 246.5s151.167 123.833 246.5 164.5s195.666 61 300.999 61s205.666 -20.333 300.999 -61s177.5 -95.5 246.5 -164.5s123.833 -151.167 164.5 -246.5
s61 -195.666 61 -300.999s-20.333 -205.833 -61 -301.5s-95.5 -178 -164.5 -247s-151.167 -123.833 -246.5 -164.5s-195.666 -61 -300.999 -61z" />
    <glyph glyph-name="uni24C8" unicode="S&#x20dd;" 
d="M555 584l167.006 0.000976562c3.33301 -26 16.666 -46.667 39.999 -62s53.333 -23 90 -23s66 7.33301 88 22s33 34.667 33 60c0 20 -8.33301 35.833 -25 47.5s-45.334 21.834 -86.001 30.501l-100 20c-62 12 -109.5 34.667 -142.5 68s-49.5 75.666 -49.5 126.999
c0 64.667 25.667 116.667 77 156s118.666 59 201.999 59c80.667 0 146.5 -18.833 197.5 -56.5s77.833 -87.5 80.5 -149.5h-162c-3.33301 25.333 -15.333 45.333 -36 60s-47.334 22 -80.001 22s-59 -7.33301 -79 -22s-30 -33.667 -30 -57c0 -36 33 -60.333 99 -73l105 -20
c130.667 -26.667 196 -92.334 196 -197.001c0 -68.667 -26.667 -123.167 -80 -163.5s-125.333 -60.5 -216 -60.5c-86.667 0 -155.834 19 -207.501 57s-78.834 89.667 -81.501 155zM847.006 105.001c111.333 0 213.666 27.5 306.999 82.5s166.666 129.667 219.999 224
s80 197.166 80 308.499s-26.667 214.166 -80 308.499s-126.666 169 -219.999 224s-195.666 82.5 -306.999 82.5s-213.666 -27.5 -306.999 -82.5s-166.666 -129.667 -219.999 -224s-80 -197.166 -80 -308.499s26.667 -214.166 80 -308.499s126.666 -169 219.999 -224
s195.666 -82.5 306.999 -82.5zM847.006 -52.999c-105.333 0 -205.666 20.333 -300.999 61s-177.5 95.5 -246.5 164.5s-123.833 151.333 -164.5 247s-61 196.167 -61 301.5s20.333 205.666 61 300.999s95.5 177.5 164.5 246.5s151.167 123.833 246.5 164.5
s195.666 61 300.999 61s205.666 -20.333 300.999 -61s177.5 -95.5 246.5 -164.5s123.833 -151.167 164.5 -246.5s61 -195.666 61 -300.999s-20.333 -205.833 -61 -301.5s-95.5 -178 -164.5 -247s-151.167 -123.833 -246.5 -164.5s-195.666 -61 -300.999 -61z" />
    <glyph glyph-name="uni24C9" unicode="T&#x20dd;" 
d="M936 363h-178v552h-200v141h578v-141h-200v-552zM847 105c111.333 0 213.666 27.5 306.999 82.5s166.666 129.667 219.999 224s80 197.166 80 308.499s-26.667 214.166 -80 308.499s-126.666 169 -219.999 224s-195.666 82.5 -306.999 82.5
s-213.666 -27.5 -306.999 -82.5s-166.666 -129.667 -219.999 -224s-80 -197.166 -80 -308.499s26.667 -214.166 80 -308.499s126.666 -169 219.999 -224s195.666 -82.5 306.999 -82.5zM847 -53c-105.333 0 -205.666 20.333 -300.999 61s-177.5 95.5 -246.5 164.5
s-123.833 151.333 -164.5 247s-61 196.167 -61 301.5s20.333 205.666 61 300.999s95.5 177.5 164.5 246.5s151.167 123.833 246.5 164.5s195.666 61 300.999 61s205.666 -20.333 300.999 -61s177.5 -95.5 246.5 -164.5s123.833 -151.167 164.5 -246.5
s61 -195.666 61 -300.999s-20.333 -205.833 -61 -301.5s-95.5 -178 -164.5 -247s-151.167 -123.833 -246.5 -164.5s-195.666 -61 -300.999 -61z" />
    <glyph glyph-name="uni24CA" unicode="U&#x20dd;" 
d="M847 491c39.333 0 70.5 11.167 93.5 33.5s34.5 53.166 34.5 92.499v439h172v-454c0 -74 -27.5 -134.333 -82.5 -181s-127.5 -70 -217.5 -70s-162.5 23.333 -217.5 70s-82.5 107 -82.5 181v454h172v-439c0 -39.333 11.5 -70.166 34.5 -92.499s54.167 -33.5 93.5 -33.5z
M847 105c111.333 0 213.666 27.5 306.999 82.5s166.666 129.667 219.999 224s80 197.166 80 308.499s-26.667 214.166 -80 308.499s-126.666 169 -219.999 224s-195.666 82.5 -306.999 82.5s-213.666 -27.5 -306.999 -82.5s-166.666 -129.667 -219.999 -224
s-80 -197.166 -80 -308.499s26.667 -214.166 80 -308.499s126.666 -169 219.999 -224s195.666 -82.5 306.999 -82.5zM847 -53c-105.333 0 -205.666 20.333 -300.999 61s-177.5 95.5 -246.5 164.5s-123.833 151.333 -164.5 247s-61 196.167 -61 301.5
s20.333 205.666 61 300.999s95.5 177.5 164.5 246.5s151.167 123.833 246.5 164.5s195.666 61 300.999 61s205.666 -20.333 300.999 -61s177.5 -95.5 246.5 -164.5s123.833 -151.167 164.5 -246.5s61 -195.666 61 -300.999s-20.333 -205.833 -61 -301.5
s-95.5 -178 -164.5 -247s-151.167 -123.833 -246.5 -164.5s-195.666 -61 -300.999 -61z" />
    <glyph glyph-name="uni24CB" unicode="V&#x20dd;" 
d="M734 360l-226 692h194l142 -529h6l142 529h194l-226 -692h-226zM847 105c111.333 0 213.666 27.5 306.999 82.5s166.666 129.667 219.999 224s80 197.166 80 308.499s-26.667 214.166 -80 308.499s-126.666 169 -219.999 224s-195.666 82.5 -306.999 82.5
s-213.666 -27.5 -306.999 -82.5s-166.666 -129.667 -219.999 -224s-80 -197.166 -80 -308.499s26.667 -214.166 80 -308.499s126.666 -169 219.999 -224s195.666 -82.5 306.999 -82.5zM847 -53c-105.333 0 -205.666 20.333 -300.999 61s-177.5 95.5 -246.5 164.5
s-123.833 151.333 -164.5 247s-61 196.167 -61 301.5s20.333 205.666 61 300.999s95.5 177.5 164.5 246.5s151.167 123.833 246.5 164.5s195.666 61 300.999 61s205.666 -20.333 300.999 -61s177.5 -95.5 246.5 -164.5s123.833 -151.167 164.5 -246.5
s61 -195.666 61 -300.999s-20.333 -205.833 -61 -301.5s-95.5 -178 -164.5 -247s-151.167 -123.833 -246.5 -164.5s-195.666 -61 -300.999 -61z" />
    <glyph glyph-name="uni24CC" unicode="W&#x20dd;" 
d="M844 821l-117 -458h-151l-174 693h166l94 -486h7l113 486h131l112 -486h7l94 486h166l-174 -693h-151l-117 458h-6zM847 105c111.333 0 213.666 27.5 306.999 82.5s166.666 129.667 219.999 224s80 197.166 80 308.499s-26.667 214.166 -80 308.499
s-126.666 169 -219.999 224s-195.666 82.5 -306.999 82.5s-213.666 -27.5 -306.999 -82.5s-166.666 -129.667 -219.999 -224s-80 -197.166 -80 -308.499s26.667 -214.166 80 -308.499s126.666 -169 219.999 -224s195.666 -82.5 306.999 -82.5zM847 -53
c-105.333 0 -205.666 20.333 -300.999 61s-177.5 95.5 -246.5 164.5s-123.833 151.333 -164.5 247s-61 196.167 -61 301.5s20.333 205.666 61 300.999s95.5 177.5 164.5 246.5s151.167 123.833 246.5 164.5s195.666 61 300.999 61s205.666 -20.333 300.999 -61
s177.5 -95.5 246.5 -164.5s123.833 -151.167 164.5 -246.5s61 -195.666 61 -300.999s-20.333 -205.833 -61 -301.5s-95.5 -178 -164.5 -247s-151.167 -123.833 -246.5 -164.5s-195.666 -61 -300.999 -61z" />
    <glyph glyph-name="uni24CD" unicode="X&#x20dd;" 
d="M1174 1077l-222 -347l220 -345h-190l-136 237h-7l-136 -237h-189l222 348l-221 344h198l133 -239h7l133 239h188zM847 105c111.333 0 213.666 27.5 306.999 82.5s166.666 129.667 219.999 224s80 197.166 80 308.499s-26.667 214.166 -80 308.499
s-126.666 169 -219.999 224s-195.666 82.5 -306.999 82.5s-213.666 -27.5 -306.999 -82.5s-166.666 -129.667 -219.999 -224s-80 -197.166 -80 -308.499s26.667 -214.166 80 -308.499s126.666 -169 219.999 -224s195.666 -82.5 306.999 -82.5zM847 -53
c-105.333 0 -205.666 20.333 -300.999 61s-177.5 95.5 -246.5 164.5s-123.833 151.333 -164.5 247s-61 196.167 -61 301.5s20.333 205.666 61 300.999s95.5 177.5 164.5 246.5s151.167 123.833 246.5 164.5s195.666 61 300.999 61s205.666 -20.333 300.999 -61
s177.5 -95.5 246.5 -164.5s123.833 -151.167 164.5 -246.5s61 -195.666 61 -300.999s-20.333 -205.833 -61 -301.5s-95.5 -178 -164.5 -247s-151.167 -123.833 -246.5 -164.5s-195.666 -61 -300.999 -61z" />
    <glyph glyph-name="uni24CE" unicode="Y&#x20dd;" 
d="M938 373h-181v245l-240 448h193l135 -284h6l135 284h191l-239 -447v-246zM847 105c111.333 0 213.666 27.5 306.999 82.5s166.666 129.667 219.999 224s80 197.166 80 308.499s-26.667 214.166 -80 308.499s-126.666 169 -219.999 224s-195.666 82.5 -306.999 82.5
s-213.666 -27.5 -306.999 -82.5s-166.666 -129.667 -219.999 -224s-80 -197.166 -80 -308.499s26.667 -214.166 80 -308.499s126.666 -169 219.999 -224s195.666 -82.5 306.999 -82.5zM847 -53c-105.333 0 -205.666 20.333 -300.999 61s-177.5 95.5 -246.5 164.5
s-123.833 151.333 -164.5 247s-61 196.167 -61 301.5s20.333 205.666 61 300.999s95.5 177.5 164.5 246.5s151.167 123.833 246.5 164.5s195.666 61 300.999 61s205.666 -20.333 300.999 -61s177.5 -95.5 246.5 -164.5s123.833 -151.167 164.5 -246.5
s61 -195.666 61 -300.999s-20.333 -205.833 -61 -301.5s-95.5 -178 -164.5 -247s-151.167 -123.833 -246.5 -164.5s-195.666 -61 -300.999 -61z" />
    <glyph glyph-name="uni24CF" unicode="Z&#x20dd;" 
d="M577 385v110l322 437v8h-318v137h529v-110l-322 -438v-7h333v-137h-544zM847 105c111.333 0 213.666 27.5 306.999 82.5s166.666 129.667 219.999 224s80 197.166 80 308.499s-26.667 214.166 -80 308.499s-126.666 169 -219.999 224s-195.666 82.5 -306.999 82.5
s-213.666 -27.5 -306.999 -82.5s-166.666 -129.667 -219.999 -224s-80 -197.166 -80 -308.499s26.667 -214.166 80 -308.499s126.666 -169 219.999 -224s195.666 -82.5 306.999 -82.5zM847 -53c-105.333 0 -205.666 20.333 -300.999 61s-177.5 95.5 -246.5 164.5
s-123.833 151.333 -164.5 247s-61 196.167 -61 301.5s20.333 205.666 61 300.999s95.5 177.5 164.5 246.5s151.167 123.833 246.5 164.5s195.666 61 300.999 61s205.666 -20.333 300.999 -61s177.5 -95.5 246.5 -164.5s123.833 -151.167 164.5 -246.5
s61 -195.666 61 -300.999s-20.333 -205.833 -61 -301.5s-95.5 -178 -164.5 -247s-151.167 -123.833 -246.5 -164.5s-195.666 -61 -300.999 -61z" />
    <glyph glyph-name="uni24EA" unicode="&#x23;&#x20dd;" 
d="M847 511c36.667 0 65.5 18.5 86.5 55.5s31.5 91.5 31.5 163.5s-10.5 126.5 -31.5 163.5s-49.833 55.5 -86.5 55.5s-65.5 -18.5 -86.5 -55.5s-31.5 -91.5 -31.5 -163.5s10.5 -126.5 31.5 -163.5s49.833 -55.5 86.5 -55.5zM846 373c-85.333 0 -153.666 31.667 -204.999 95
s-77 150.666 -77 261.999s25.667 198.833 77 262.5s119.666 95.5 204.999 95.5c84.667 0 153.167 -31.833 205.5 -95.5s78.5 -151.167 78.5 -262.5s-26 -198.666 -78 -261.999s-120.667 -95 -206 -95zM847 105c111.333 0 213.666 27.5 306.999 82.5
s166.666 129.667 219.999 224s80 197.166 80 308.499s-26.667 214.166 -80 308.499s-126.666 169 -219.999 224s-195.666 82.5 -306.999 82.5s-213.666 -27.5 -306.999 -82.5s-166.666 -129.667 -219.999 -224s-80 -197.166 -80 -308.499s26.667 -214.166 80 -308.499
s126.666 -169 219.999 -224s195.666 -82.5 306.999 -82.5zM847 -53c-105.333 0 -205.666 20.333 -300.999 61s-177.5 95.5 -246.5 164.5s-123.833 151.333 -164.5 247s-61 196.167 -61 301.5s20.333 205.666 61 300.999s95.5 177.5 164.5 246.5s151.167 123.833 246.5 164.5
s195.666 61 300.999 61s205.666 -20.333 300.999 -61s177.5 -95.5 246.5 -164.5s123.833 -151.167 164.5 -246.5s61 -195.666 61 -300.999s-20.333 -205.833 -61 -301.5s-95.5 -178 -164.5 -247s-151.167 -123.833 -246.5 -164.5s-195.666 -61 -300.999 -61z" />
    <glyph glyph-name="uni24FF" unicode="&#x30;&#x20dd;&#x25cf;" 
d="M844 487c-80 0 -120 81 -120 243s40 243 120 243c38.667 0 68.5 -20.5 89.5 -61.5s31.5 -101.5 31.5 -181.5s-10.5 -140.5 -31.5 -181.5s-50.833 -61.5 -89.5 -61.5zM843 338c96 0 172.5 35 229.5 105s85.5 165.667 85.5 287s-28.5 217 -85.5 287s-133.5 105 -229.5 105
c-95.333 0 -171.166 -34.833 -227.499 -104.5s-84.5 -165.5 -84.5 -287.5s28.167 -217.833 84.5 -287.5s132.166 -104.5 227.499 -104.5zM847 -52c-139.333 0 -268.333 34.667 -387 104s-212.667 163.333 -282 282s-104 247.667 -104 387s34.667 268.5 104 387.5
s163.333 213.167 282 282.5s247.667 104 387 104s268.333 -34.667 387 -104s212.667 -163.5 282 -282.5s104 -248.167 104 -387.5s-34.667 -268.333 -104 -387s-163.333 -212.667 -282 -282s-247.667 -104 -387 -104z" />
    <glyph glyph-name="uni278A" unicode="&#x31;&#x20dd;&#x25cf;" 
d="M983 352v757h-195l-185 -125v-175l179 122h4v-579h197zM847 -52c-139.333 0 -268.333 34.667 -387 104s-212.667 163.333 -282 282s-104 247.667 -104 387s34.667 268.5 104 387.5s163.333 213.167 282 282.5s247.667 104 387 104s268.333 -34.667 387 -104
s212.667 -163.5 282 -282.5s104 -248.167 104 -387.5s-34.667 -268.333 -104 -387s-163.333 -212.667 -282 -282s-247.667 -104 -387 -104z" />
    <glyph glyph-name="uni278B" unicode="&#x32;&#x20dd;&#x25cf;" 
d="M738 864l0.000976562 8.00195c0 30 8.83301 54.667 26.5 74s42.167 29 73.5 29c27.333 0 50.166 -8.16699 68.499 -24.5s27.5 -36.833 27.5 -61.5c0 -26 -7.5 -49.833 -22.5 -71.5s-38.5 -47.834 -70.5 -78.501l-273 -268v-120h569v155h-311v2l162 163
c45.333 44 79 83.167 101 117.5s33 72.833 33 115.5c0 62.667 -25.667 114.5 -77 155.5s-117.333 61.5 -198 61.5c-90.667 0 -161.667 -23.833 -213 -71.5s-77 -106.834 -77 -177.501v-8h181zM847.001 -51.998c-139.333 0 -268.333 34.667 -387 104
s-212.667 163.333 -282 282s-104 247.667 -104 387s34.667 268.5 104 387.5s163.333 213.167 282 282.5s247.667 104 387 104s268.333 -34.667 387 -104s212.667 -163.5 282 -282.5s104 -248.167 104 -387.5s-34.667 -268.333 -104 -387s-163.333 -212.667 -282 -282
s-247.667 -104 -387 -104z" />
    <glyph glyph-name="uni278C" unicode="&#x33;&#x20dd;&#x25cf;" 
d="M756 670l86.002 0.000976562c35.333 0 63.666 -8.5 84.999 -25.5s32.333 -39.5 33 -67.5c0 -28 -11 -50.667 -33 -68s-51 -26 -87 -26c-34 0.666992 -62.167 9 -84.5 25s-34.833 37 -37.5 63h-179c2 -67.333 30 -123 84 -167s126 -66 216 -66
c91.333 0 166.166 20.833 224.499 62.5s87.166 97.5 86.499 167.5c-0.666992 51.333 -17.5 93 -50.5 125s-70.833 50.333 -113.5 55v3c36 6.66699 68.833 25.5 98.5 56.5s44.167 68.833 43.5 113.5c-1.33301 59.333 -28 107.833 -80 145.5s-120.667 56.5 -206 56.5
c-90.667 -0.666992 -161.167 -21.834 -211.5 -63.501s-77.166 -97.5 -80.499 -167.5h182c1.33301 24.667 11.5 45.334 30.5 62.001s44.167 25 75.5 25c30 0 54.5 -7.83301 73.5 -23.5s28.5 -35.834 28.5 -60.501c0 -25.333 -9.5 -46 -28.5 -62s-43.833 -24 -74.5 -24h-81
v-139zM847.002 -51.999c-139.333 0 -268.333 34.667 -387 104s-212.667 163.333 -282 282s-104 247.667 -104 387s34.667 268.5 104 387.5s163.333 213.167 282 282.5s247.667 104 387 104s268.333 -34.667 387 -104s212.667 -163.5 282 -282.5s104 -248.167 104 -387.5
s-34.667 -268.333 -104 -387s-163.333 -212.667 -282 -282s-247.667 -104 -387 -104z" />
    <glyph glyph-name="uni278D" unicode="&#x34;&#x20dd;&#x25cf;" 
d="M780 1109c-131.333 -212 -225.333 -371.333 -282 -478v-148h376v-131h173v131h102v149h-102v477h-267zM673 632v1c50.667 95.333 117 208.333 199 339h2v-340h-201zM847 -52c-139.333 0 -268.333 34.667 -387 104s-212.667 163.333 -282 282s-104 247.667 -104 387
s34.667 268.5 104 387.5s163.333 213.167 282 282.5s247.667 104 387 104s268.333 -34.667 387 -104s212.667 -163.5 282 -282.5s104 -248.167 104 -387.5s-34.667 -268.333 -104 -387s-163.333 -212.667 -282 -282s-247.667 -104 -387 -104z" />
    <glyph glyph-name="uni278E" unicode="&#x35;&#x20dd;&#x25cf;" 
d="M555 569c2 -66.667 29.999 -121.167 83.999 -163.5s124 -63.5 210 -63.5c94 0 169.167 24.833 225.5 74.5s84.5 116.5 84.5 200.5c0 75.333 -24 135 -72 179s-108.667 66 -182 66c-38 0 -71.167 -6.66699 -99.5 -20s-48.833 -29 -61.5 -47h-3l14 175h357v143h-510
l-31 -450h167c10 18 24.833 33.333 44.5 46s42.834 19 69.501 19c34.667 0 63.667 -10.833 87 -32.5s35 -50.167 35 -85.5c0 -37.333 -12 -67.333 -36 -90s-52.333 -34 -85 -34c-30 0 -56.333 7.33301 -79 22s-36.667 35 -42 61h-177zM846.999 -52
c-139.333 0 -268.333 34.667 -387 104s-212.667 163.333 -282 282s-104 247.667 -104 387s34.667 268.5 104 387.5s163.333 213.167 282 282.5s247.667 104 387 104s268.333 -34.667 387 -104s212.667 -163.5 282 -282.5s104 -248.167 104 -387.5
s-34.667 -268.333 -104 -387s-163.333 -212.667 -282 -282s-247.667 -104 -387 -104z" />
    <glyph glyph-name="uni278F" unicode="&#x36;&#x20dd;&#x25cf;" 
d="M1151 609c0 74 -23.5 132.001 -70.5 174.001s-105.5 63 -175.5 63c-47.333 0 -87.166 -9.5 -119.499 -28.5s-56.5 -43.167 -72.5 -72.5l-4 -2c-1.33301 5.33301 -2 10 -2 14c-0.666992 67.333 12.333 121.166 39 161.499s62 60.5 106 60.5c52 0 86.667 -20.333 104 -61
h179c-4.66699 55.333 -32.5 103.333 -83.5 144s-116.5 61 -196.5 61c-102 0 -182.5 -34.667 -241.5 -104s-88.5 -169.333 -88.5 -300c0 -104 20.333 -187.333 61 -250c58.667 -87.333 146 -131 262 -131c89.333 0 162.166 24.333 218.499 73s84.5 114.667 84.5 198z
M726 603.001c0 34.667 11.333 63 34 85s52 33 88 33c34 0 62.667 -10.5 86 -31.5s35 -50.167 35 -87.5c0 -38.667 -11.333 -68.5 -34 -89.5s-51.667 -31.5 -87 -31.5s-64.5 11 -87.5 33s-34.5 51.667 -34.5 89zM847 -51.999c-139.333 0 -268.333 34.667 -387 104
s-212.667 163.333 -282 282s-104 247.667 -104 387s34.667 268.5 104 387.5s163.333 213.167 282 282.5s247.667 104 387 104s268.333 -34.667 387 -104s212.667 -163.5 282 -282.5s104 -248.167 104 -387.5s-34.667 -268.333 -104 -387s-163.333 -212.667 -282 -282
s-247.667 -104 -387 -104z" />
    <glyph glyph-name="uni2790" unicode="&#x37;&#x20dd;&#x25cf;" 
d="M568 1103v-156h376v-2l-318 -600h209l307 604v154h-574zM847 -52c-139.333 0 -268.333 34.667 -387 104s-212.667 163.333 -282 282s-104 247.667 -104 387s34.667 268.5 104 387.5s163.333 213.167 282 282.5s247.667 104 387 104s268.333 -34.667 387 -104
s212.667 -163.5 282 -282.5s104 -248.167 104 -387.5s-34.667 -268.333 -104 -387s-163.333 -212.667 -282 -282s-247.667 -104 -387 -104z" />
    <glyph glyph-name="uni2791" unicode="&#x38;&#x20dd;&#x25cf;" 
d="M844 803c-31.333 0 -56.666 8.66699 -75.999 26s-29 40 -29 68c0 28.667 9.66699 51.834 29 69.501s44.666 26.5 75.999 26.5s56.833 -8.83301 76.5 -26.5s29.5 -40.834 29.5 -69.501c0 -27.333 -9.83301 -49.833 -29.5 -67.5s-45.167 -26.5 -76.5 -26.5zM844 468
c-37.333 0 -68 10.333 -92 31s-36 46.667 -36 78c0 32 12 58.5 36 79.5s54.667 31.5 92 31.5s68.166 -10.5 92.499 -31.5s36.5 -47.5 36.5 -79.5c0 -31.333 -12.167 -57.333 -36.5 -78s-55.166 -31 -92.499 -31zM844 338c97.333 0 175.334 20.667 234.001 62
s88 96.333 88 165c0 47.333 -14.833 87.5 -44.5 120.5s-70.167 54.167 -121.5 63.5v2c89.333 27.333 134 83 134 167c0 61.333 -26.5 110.833 -79.5 148.5s-123.167 56.5 -210.5 56.5c-86.667 0 -156.5 -18.833 -209.5 -56.5s-79.5 -87.167 -79.5 -148.5
c0 -84 44.667 -139.667 134 -167v-2c-51.333 -9.33301 -91.833 -30.5 -121.5 -63.5s-44.5 -73.167 -44.5 -120.5c0 -68.667 29.167 -123.667 87.5 -165s136.166 -62 233.499 -62zM847.001 -52c-139.333 0 -268.333 34.667 -387 104s-212.667 163.333 -282 282
s-104 247.667 -104 387s34.667 268.5 104 387.5s163.333 213.167 282 282.5s247.667 104 387 104s268.333 -34.667 387 -104s212.667 -163.5 282 -282.5s104 -248.167 104 -387.5s-34.667 -268.333 -104 -387s-163.333 -212.667 -282 -282s-247.667 -104 -387 -104z" />
    <glyph glyph-name="uni2792" unicode="&#x39;&#x20dd;&#x25cf;" 
d="M958 857c0 -37.333 -11.332 -66.332 -33.999 -86.999s-51.334 -31 -86.001 -31s-63.5 10.667 -86.5 32s-34.5 50.666 -34.5 87.999c0 36.667 11.5 66.167 34.5 88.5s51.5 33.5 85.5 33.5c36 0 65.167 -11.167 87.5 -33.5s33.5 -52.5 33.5 -90.5zM553.001 537.001
c6.66699 -55.333 34.6719 -102.167 84.0049 -140.5s114 -57.5 194 -57.5c106.667 0 188.167 34 244.5 102s84.5 166 84.5 294c0 68.667 -8.33301 128.5 -25 179.5s-39.834 91.333 -69.501 121s-63.334 51.667 -101.001 66s-79.5 21.5 -125.5 21.5
c-89.333 0 -162.333 -24.167 -219 -72.5s-85 -112.833 -85 -193.5c0 -76.667 23.5 -136.667 70.5 -180s107.167 -65 180.5 -65c45.333 0 84.166 9.33301 116.499 28s55.833 42.667 70.5 72h2c4 -67.333 -6.33301 -122.5 -31 -165.5s-62 -64.5 -112 -64.5
c-24.667 0 -45.834 5.33301 -63.501 16s-29.834 23.667 -36.501 39h-179zM847.006 -52c-139.333 0 -268.333 34.667 -387 104s-212.667 163.333 -282 282s-104 247.667 -104 387s34.667 268.5 104 387.5s163.333 213.167 282 282.5s247.667 104 387 104
s268.333 -34.667 387 -104s212.667 -163.5 282 -282.5s104 -248.167 104 -387.5s-34.667 -268.333 -104 -387s-163.333 -212.667 -282 -282s-247.667 -104 -387 -104z" />
    <glyph glyph-name="uni1F130" unicode="A&#x20de;" 
d="M764 674h166l-78 261h-10zM685 394h-175l233 693h208l233 -693h-175l-47 156h-230zM361 1468h972c72 0 133.333 -24.833 184 -74.5s76 -109.834 76 -180.501v-982c0 -70.667 -25.333 -130.834 -76 -180.501s-112 -74.5 -184 -74.5h-972
c-71.333 0 -132.5 24.833 -183.5 74.5s-76.5 109.834 -76.5 180.501v982c0 70.667 25.5 130.834 76.5 180.501s112.167 74.5 183.5 74.5zM1431 1189c0 36 -13.333 66.833 -40 92.5s-58.667 38.5 -96 38.5h-896c-37.333 0 -69.333 -12.833 -96 -38.5s-40 -56.5 -40 -92.5
v-934c0 -35.333 13.5 -66 40.5 -92s58.833 -39 95.5 -39h896c37.333 0 69.333 12.833 96 38.5s40 56.5 40 92.5v934z" />
    <glyph glyph-name="uni1F131" unicode="B&#x20de;" 
d="M590 385l-0.000976562 692.001h325c66 0 118.167 -15.167 156.5 -45.5s57.5 -71.833 57.5 -124.5c0 -39.333 -11.667 -72.5 -35 -99.5s-54.333 -44.5 -93 -52.5v-6c48.667 -6 87.834 -23.833 117.501 -53.5s44.5 -69.167 44.5 -118.5
c0 -58.667 -22.667 -105.334 -68 -140.001s-104.333 -52 -177 -52h-328zM754.999 961.001v-168h86c82.667 0 124 28.667 124 86c0 25.333 -8.66699 45.333 -26 60s-41.333 22 -72 22h-112zM754.999 690.001v-185h96c92.667 0 139 30.333 139 91c0 29.333 -10 52.333 -30 69
s-48.333 25 -85 25h-120zM360.999 1468h972c72 0 133.333 -24.833 184 -74.5s76 -109.834 76 -180.501v-982c0 -70.667 -25.333 -130.834 -76 -180.501s-112 -74.5 -184 -74.5h-972c-71.333 0 -132.5 24.833 -183.5 74.5s-76.5 109.834 -76.5 180.501v982
c0 70.667 25.5 130.834 76.5 180.501s112.167 74.5 183.5 74.5zM1431 1189c0 36 -13.333 66.833 -40 92.5s-58.667 38.5 -96 38.5h-896c-37.333 0 -69.333 -12.833 -96 -38.5s-40 -56.5 -40 -92.5v-934c0 -35.333 13.5 -66 40.5 -92s58.833 -39 95.5 -39h896
c37.333 0 69.333 12.833 96 38.5s40 56.5 40 92.5v934z" />
    <glyph glyph-name="uni1F132" unicode="C&#x20de;" 
d="M991 623l166 -0.000976562c-7.33301 -74.667 -39.333 -135.167 -96 -181.5s-128.334 -69.5 -215.001 -69.5c-98 0 -178 32.667 -240 98s-93 152 -93 260c0 108.667 31 195.667 93 261s142 98 240 98c88 0 160.333 -23.667 217 -71s88.334 -109.333 95.001 -186h-164
c-4 34 -19.667 62 -47 84s-60 33 -98 33c-49.333 0 -88.666 -19.667 -117.999 -59s-44 -92.666 -44 -159.999s14.667 -120.5 44 -159.5s68.666 -58.5 117.999 -58.5c36.667 0 68.5 10.5 95.5 31.5s42.5 47.5 46.5 79.5zM361 1468h972c72 0 133.333 -24.833 184 -74.5
s76 -109.834 76 -180.501v-982c0 -70.667 -25.333 -130.834 -76 -180.501s-112 -74.5 -184 -74.5h-972c-71.333 0 -132.5 24.833 -183.5 74.5s-76.5 109.834 -76.5 180.501v982c0 70.667 25.5 130.834 76.5 180.501s112.167 74.5 183.5 74.5zM1431 1189
c0 36 -13.333 66.833 -40 92.5s-58.667 38.5 -96 38.5h-896c-37.333 0 -69.333 -12.833 -96 -38.5s-40 -56.5 -40 -92.5v-934c0 -35.333 13.5 -66 40.5 -92s58.833 -39 95.5 -39h896c37.333 0 69.333 12.833 96 38.5s40 56.5 40 92.5v934z" />
    <glyph glyph-name="uni1F133" unicode="D&#x20de;" 
d="M570 1077h283c106.667 0 187.334 -29.5 242.001 -88.5s82 -144.5 82 -256.5s-27.333 -197.833 -82 -257.5s-135.334 -89.5 -242.001 -89.5h-283v692zM740 943v-425.001h87c60 0 103.833 17.167 131.5 51.5s41.5 87.833 41.5 160.5s-14 126.334 -42 161.001
s-71.667 52 -131 52h-87zM361 1468h972c72 0 133.333 -24.833 184 -74.5s76 -109.834 76 -180.501v-982c0 -70.667 -25.333 -130.834 -76 -180.501s-112 -74.5 -184 -74.5h-972c-71.333 0 -132.5 24.833 -183.5 74.5s-76.5 109.834 -76.5 180.501v982
c0 70.667 25.5 130.834 76.5 180.501s112.167 74.5 183.5 74.5zM1431 1189c0 36 -13.333 66.833 -40 92.5s-58.667 38.5 -96 38.5h-896c-37.333 0 -69.333 -12.833 -96 -38.5s-40 -56.5 -40 -92.5v-934c0 -35.333 13.5 -66 40.5 -92s58.833 -39 95.5 -39h896
c37.333 0 69.333 12.833 96 38.5s40 56.5 40 92.5v934z" />
    <glyph glyph-name="uni1F134" unicode="E&#x20de;" 
d="M1097 517v-132h-483v692h483v-132h-315v-152h296v-118h-296v-158h315zM361 1468h972c72 0 133.333 -24.833 184 -74.5s76 -109.834 76 -180.501v-982c0 -70.667 -25.333 -130.834 -76 -180.501s-112 -74.5 -184 -74.5h-972c-71.333 0 -132.5 24.833 -183.5 74.5
s-76.5 109.834 -76.5 180.501v982c0 70.667 25.5 130.834 76.5 180.501s112.167 74.5 183.5 74.5zM1431 1189c0 36 -13.333 66.833 -40 92.5s-58.667 38.5 -96 38.5h-896c-37.333 0 -69.333 -12.833 -96 -38.5s-40 -56.5 -40 -92.5v-934c0 -35.333 13.5 -66 40.5 -92
s58.833 -39 95.5 -39h896c37.333 0 69.333 12.833 96 38.5s40 56.5 40 92.5v934z" />
    <glyph glyph-name="uni1F135" unicode="F&#x20de;" 
d="M810 385h-173v692h479v-134h-306v-164h278v-133h-278v-261zM361 1468h972c72 0 133.333 -24.833 184 -74.5s76 -109.834 76 -180.501v-982c0 -70.667 -25.333 -130.834 -76 -180.501s-112 -74.5 -184 -74.5h-972c-71.333 0 -132.5 24.833 -183.5 74.5
s-76.5 109.834 -76.5 180.501v982c0 70.667 25.5 130.834 76.5 180.501s112.167 74.5 183.5 74.5zM1431 1189c0 36 -13.333 66.833 -40 92.5s-58.667 38.5 -96 38.5h-896c-37.333 0 -69.333 -12.833 -96 -38.5s-40 -56.5 -40 -92.5v-934c0 -35.333 13.5 -66 40.5 -92
s58.833 -39 95.5 -39h896c37.333 0 69.333 12.833 96 38.5s40 56.5 40 92.5v934z" />
    <glyph glyph-name="uni1F136" unicode="G&#x20de;" 
d="M994 609l0.000976562 40.001h-139v113h300v-122c0 -79.333 -27.167 -143.833 -81.5 -193.5s-129.5 -74.5 -225.5 -74.5c-100 0 -180.833 33 -242.5 99s-92.5 152.333 -92.5 259c0 107.333 30.833 194 92.5 260s142.5 99 242.5 99c83.333 0 153.5 -21.833 210.5 -65.5
s89.833 -101.5 98.5 -173.5h-167c-4.66699 31.333 -20 56.833 -46 76.5s-57.333 29.5 -94 29.5c-49.333 0 -88.833 -20.5 -118.5 -61.5s-44.5 -95.833 -44.5 -164.5s15 -123.834 45 -165.501s69.333 -62.5 118 -62.5c45.333 0 80.666 9.83301 105.999 29.5s38 45.5 38 77.5z
M361.001 1468h972c72 0 133.333 -24.833 184 -74.5s76 -109.834 76 -180.501v-982c0 -70.667 -25.333 -130.834 -76 -180.501s-112 -74.5 -184 -74.5h-972c-71.333 0 -132.5 24.833 -183.5 74.5s-76.5 109.834 -76.5 180.501v982c0 70.667 25.5 130.834 76.5 180.501
s112.167 74.5 183.5 74.5zM1431 1189c0 36 -13.333 66.833 -40 92.5s-58.667 38.5 -96 38.5h-896c-37.333 0 -69.333 -12.833 -96 -38.5s-40 -56.5 -40 -92.5v-934c0 -35.333 13.5 -66 40.5 -92s58.833 -39 95.5 -39h896c37.333 0 69.333 12.833 96 38.5s40 56.5 40 92.5
v934z" />
    <glyph glyph-name="uni1F137" unicode="H&#x20de;" 
d="M1150 385h-166v281h-273v-281h-166v692h166v-273h273v273h166v-692zM361 1468h972c72 0 133.333 -24.833 184 -74.5s76 -109.834 76 -180.501v-982c0 -70.667 -25.333 -130.834 -76 -180.501s-112 -74.5 -184 -74.5h-972c-71.333 0 -132.5 24.833 -183.5 74.5
s-76.5 109.834 -76.5 180.501v982c0 70.667 25.5 130.834 76.5 180.501s112.167 74.5 183.5 74.5zM1431 1189c0 36 -13.333 66.833 -40 92.5s-58.667 38.5 -96 38.5h-896c-37.333 0 -69.333 -12.833 -96 -38.5s-40 -56.5 -40 -92.5v-934c0 -35.333 13.5 -66 40.5 -92
s58.833 -39 95.5 -39h896c37.333 0 69.333 12.833 96 38.5s40 56.5 40 92.5v934z" />
    <glyph glyph-name="uni1F138" unicode="I&#x20de;" 
d="M939 385h-184v692h184v-692zM361 1468h972c72 0 133.333 -24.833 184 -74.5s76 -109.834 76 -180.501v-982c0 -70.667 -25.333 -130.834 -76 -180.501s-112 -74.5 -184 -74.5h-972c-71.333 0 -132.5 24.833 -183.5 74.5s-76.5 109.834 -76.5 180.501v982
c0 70.667 25.5 130.834 76.5 180.501s112.167 74.5 183.5 74.5zM1431 1189c0 36 -13.333 66.833 -40 92.5s-58.667 38.5 -96 38.5h-896c-37.333 0 -69.333 -12.833 -96 -38.5s-40 -56.5 -40 -92.5v-934c0 -35.333 13.5 -66 40.5 -92s58.833 -39 95.5 -39h896
c37.333 0 69.333 12.833 96 38.5s40 56.5 40 92.5v934z" />
    <glyph glyph-name="uni1F139" unicode="J&#x20de;" 
d="M561 602h169c0.666992 -26.667 8.5 -47.5 23.5 -62.5s35.167 -22.5 60.5 -22.5c56.667 0 85 33.333 85 100v454h176v-454c0 -78.667 -23 -140.167 -69 -184.5s-109 -66.5 -189 -66.5s-142.667 21.833 -188 65.5s-68 100.5 -68 170.5zM361 1468h972
c72 0 133.333 -24.833 184 -74.5s76 -109.834 76 -180.501v-982c0 -70.667 -25.333 -130.834 -76 -180.501s-112 -74.5 -184 -74.5h-972c-71.333 0 -132.5 24.833 -183.5 74.5s-76.5 109.834 -76.5 180.501v982c0 70.667 25.5 130.834 76.5 180.501s112.167 74.5 183.5 74.5
zM1431 1189c0 36 -13.333 66.833 -40 92.5s-58.667 38.5 -96 38.5h-896c-37.333 0 -69.333 -12.833 -96 -38.5s-40 -56.5 -40 -92.5v-934c0 -35.333 13.5 -66 40.5 -92s58.833 -39 95.5 -39h896c37.333 0 69.333 12.833 96 38.5s40 56.5 40 92.5v934z" />
    <glyph glyph-name="uni1F13A" unicode="K&#x20de;" 
d="M1174 1077l-242 -307l250 -385h-201l-177 278l-70 -78v-200h-163v692h163v-302h6l245 302h189zM361 1468h972c72 0 133.333 -24.833 184 -74.5s76 -109.834 76 -180.501v-982c0 -70.667 -25.333 -130.834 -76 -180.501s-112 -74.5 -184 -74.5h-972
c-71.333 0 -132.5 24.833 -183.5 74.5s-76.5 109.834 -76.5 180.501v982c0 70.667 25.5 130.834 76.5 180.501s112.167 74.5 183.5 74.5zM1431 1189c0 36 -13.333 66.833 -40 92.5s-58.667 38.5 -96 38.5h-896c-37.333 0 -69.333 -12.833 -96 -38.5s-40 -56.5 -40 -92.5
v-934c0 -35.333 13.5 -66 40.5 -92s58.833 -39 95.5 -39h896c37.333 0 69.333 12.833 96 38.5s40 56.5 40 92.5v934z" />
    <glyph glyph-name="uni1F13B" unicode="L&#x20de;" 
d="M1130 534v-143h-472v693h177v-550h295zM361 1468h972c72 0 133.333 -24.833 184 -74.5s76 -109.834 76 -180.501v-982c0 -70.667 -25.333 -130.834 -76 -180.501s-112 -74.5 -184 -74.5h-972c-71.333 0 -132.5 24.833 -183.5 74.5s-76.5 109.834 -76.5 180.501v982
c0 70.667 25.5 130.834 76.5 180.501s112.167 74.5 183.5 74.5zM1431 1189c0 36 -13.333 66.833 -40 92.5s-58.667 38.5 -96 38.5h-896c-37.333 0 -69.333 -12.833 -96 -38.5s-40 -56.5 -40 -92.5v-934c0 -35.333 13.5 -66 40.5 -92s58.833 -39 95.5 -39h896
c37.333 0 69.333 12.833 96 38.5s40 56.5 40 92.5v934z" />
    <glyph glyph-name="uni1F13C" unicode="M&#x20de;" 
d="M634 385h-139v692h169l182 -484h4l182 484h167v-692h-138v451h-7l-155 -420h-104l-154 420h-7v-451zM361 1468h972c72 0 133.333 -24.833 184 -74.5s76 -109.834 76 -180.501v-982c0 -70.667 -25.333 -130.834 -76 -180.501s-112 -74.5 -184 -74.5h-972
c-71.333 0 -132.5 24.833 -183.5 74.5s-76.5 109.834 -76.5 180.501v982c0 70.667 25.5 130.834 76.5 180.501s112.167 74.5 183.5 74.5zM1431 1189c0 36 -13.333 66.833 -40 92.5s-58.667 38.5 -96 38.5h-896c-37.333 0 -69.333 -12.833 -96 -38.5s-40 -56.5 -40 -92.5
v-934c0 -35.333 13.5 -66 40.5 -92s58.833 -39 95.5 -39h896c37.333 0 69.333 12.833 96 38.5s40 56.5 40 92.5v934z" />
    <glyph glyph-name="uni1F13D" unicode="N&#x20de;" 
d="M707 385h-156v692h131l299 -424h6v424h156v-692h-131l-299 428h-6v-428zM361 1468h972c72 0 133.333 -24.833 184 -74.5s76 -109.834 76 -180.501v-982c0 -70.667 -25.333 -130.834 -76 -180.501s-112 -74.5 -184 -74.5h-972c-71.333 0 -132.5 24.833 -183.5 74.5
s-76.5 109.834 -76.5 180.501v982c0 70.667 25.5 130.834 76.5 180.501s112.167 74.5 183.5 74.5zM1431 1189c0 36 -13.333 66.833 -40 92.5s-58.667 38.5 -96 38.5h-896c-37.333 0 -69.333 -12.833 -96 -38.5s-40 -56.5 -40 -92.5v-934c0 -35.333 13.5 -66 40.5 -92
s58.833 -39 95.5 -39h896c37.333 0 69.333 12.833 96 38.5s40 56.5 40 92.5v934z" />
    <glyph glyph-name="uni1F13E" unicode="O&#x20de;" 
d="M847 512c46.667 0 85 19.167 115 57.5s45 91.833 45 160.5c0 70 -15 124 -45 162s-68.333 57 -115 57s-85 -19 -115 -57s-45 -92 -45 -162c0 -68.667 15 -122.167 45 -160.5s68.333 -57.5 115 -57.5zM847 372c-96 0 -175.667 32 -239 96s-95 151.333 -95 262
c0 111.333 31.5 199 94.5 263s142.833 96 239.5 96s176.5 -32 239.5 -96s94.5 -151.667 94.5 -263c0 -110.667 -31.667 -198 -95 -262s-143 -96 -239 -96zM361 1468h972c72 0 133.333 -24.833 184 -74.5s76 -109.834 76 -180.501v-982
c0 -70.667 -25.333 -130.834 -76 -180.501s-112 -74.5 -184 -74.5h-972c-71.333 0 -132.5 24.833 -183.5 74.5s-76.5 109.834 -76.5 180.501v982c0 70.667 25.5 130.834 76.5 180.501s112.167 74.5 183.5 74.5zM1431 1189c0 36 -13.333 66.833 -40 92.5
s-58.667 38.5 -96 38.5h-896c-37.333 0 -69.333 -12.833 -96 -38.5s-40 -56.5 -40 -92.5v-934c0 -35.333 13.5 -66 40.5 -92s58.833 -39 95.5 -39h896c37.333 0 69.333 12.833 96 38.5s40 56.5 40 92.5v934z" />
    <glyph glyph-name="uni1F13F" unicode="P&#x20de;" 
d="M915 1077c77.333 0 138.667 -22.333 184 -67s68 -103 68 -175c0 -71.333 -22.833 -129 -68.5 -173s-107.5 -66 -185.5 -66h-126v-211h-175v692h303zM995.001 835c0 36 -9.5 63.5 -28.5 82.5s-46.167 28.5 -81.5 28.5h-105v-221h105c35.333 0 62.5 9.5 81.5 28.5
s28.5 46.167 28.5 81.5zM361.001 1468h972c72 0 133.333 -24.833 184 -74.5s76 -109.834 76 -180.501v-982c0 -70.667 -25.333 -130.834 -76 -180.501s-112 -74.5 -184 -74.5h-972c-71.333 0 -132.5 24.833 -183.5 74.5s-76.5 109.834 -76.5 180.501v982
c0 70.667 25.5 130.834 76.5 180.501s112.167 74.5 183.5 74.5zM1431 1189c0 36 -13.333 66.833 -40 92.5s-58.667 38.5 -96 38.5h-896c-37.333 0 -69.333 -12.833 -96 -38.5s-40 -56.5 -40 -92.5v-934c0 -35.333 13.5 -66 40.5 -92s58.833 -39 95.5 -39h896
c37.333 0 69.333 12.833 96 38.5s40 56.5 40 92.5v934z" />
    <glyph glyph-name="uni1F140" unicode="Q&#x20de;" 
d="M1159 321h-167l-43 67c-34 -10.667 -68 -16 -102 -16c-96 0 -175.667 32 -239 96s-95 151.333 -95 262c0 111.333 31.5 199 94.5 263s142.833 96 239.5 96s176.5 -32 239.5 -96s94.5 -151.667 94.5 -263c0 -121.333 -38 -215 -114 -281zM847 512
c15.333 0 27.667 1.66699 37 5l-65 104h116l30 -41c28 38 42 88 42 150c0 70 -15 124 -45 162s-68.333 57 -115 57s-85 -19 -115 -57s-45 -92 -45 -162c0 -68.667 15 -122.167 45 -160.5s68.333 -57.5 115 -57.5zM361.001 1468h972c72 0 133.333 -24.833 184 -74.5
s76 -109.834 76 -180.501v-982c0 -70.667 -25.333 -130.834 -76 -180.501s-112 -74.5 -184 -74.5h-972c-71.333 0 -132.5 24.833 -183.5 74.5s-76.5 109.834 -76.5 180.501v982c0 70.667 25.5 130.834 76.5 180.501s112.167 74.5 183.5 74.5zM1431 1189
c0 36 -13.333 66.833 -40 92.5s-58.667 38.5 -96 38.5h-896c-37.333 0 -69.333 -12.833 -96 -38.5s-40 -56.5 -40 -92.5v-934c0 -35.333 13.5 -66 40.5 -92s58.833 -39 95.5 -39h896c37.333 0 69.333 12.833 96 38.5s40 56.5 40 92.5v934z" />
    <glyph glyph-name="uni1F141" unicode="R&#x20de;" 
d="M882 1077c83.333 0 148.333 -19.6689 195 -59.002s70 -93.333 70 -162c0 -47.333 -12.333 -88.166 -37 -122.499s-57 -58.166 -97 -71.499l148 -277h-185l-121 248h-111v-248h-163v692h301zM744 750.998h115c36 0 63.833 8.33301 83.5 25s29.5 40.667 29.5 72
c0 32 -9.83301 56.833 -29.5 74.5s-46.5 26.5 -80.5 26.5h-118v-198zM361 1468h972c72 0 133.333 -24.833 184 -74.5s76 -109.834 76 -180.501v-982c0 -70.667 -25.333 -130.834 -76 -180.501s-112 -74.5 -184 -74.5h-972c-71.333 0 -132.5 24.833 -183.5 74.5
s-76.5 109.834 -76.5 180.501v982c0 70.667 25.5 130.834 76.5 180.501s112.167 74.5 183.5 74.5zM1431 1189c0 36 -13.333 66.833 -40 92.5s-58.667 38.5 -96 38.5h-896c-37.333 0 -69.333 -12.833 -96 -38.5s-40 -56.5 -40 -92.5v-934c0 -35.333 13.5 -66 40.5 -92
s58.833 -39 95.5 -39h896c37.333 0 69.333 12.833 96 38.5s40 56.5 40 92.5v934z" />
    <glyph glyph-name="uni1F142" unicode="S&#x20de;" 
d="M555 584l167.006 0.000976562c3.33301 -26 16.666 -46.667 39.999 -62s53.333 -23 90 -23s66 7.33301 88 22s33 34.667 33 60c0 20 -8.33301 35.833 -25 47.5s-45.334 21.834 -86.001 30.501l-100 20c-62 12 -109.5 34.667 -142.5 68s-49.5 75.666 -49.5 126.999
c0 64.667 25.667 116.667 77 156s118.666 59 201.999 59c80.667 0 146.5 -18.833 197.5 -56.5s77.833 -87.5 80.5 -149.5h-162c-3.33301 25.333 -15.333 45.333 -36 60s-47.334 22 -80.001 22s-59 -7.33301 -79 -22s-30 -33.667 -30 -57c0 -36 33 -60.333 99 -73l105 -20
c130.667 -26.667 196 -92.334 196 -197.001c0 -68.667 -26.667 -123.167 -80 -163.5s-125.333 -60.5 -216 -60.5c-86.667 0 -155.834 19 -207.501 57s-78.834 89.667 -81.501 155zM361.006 1468h972c72 0 133.333 -24.833 184 -74.5s76 -109.834 76 -180.501v-982
c0 -70.667 -25.333 -130.834 -76 -180.501s-112 -74.5 -184 -74.5h-972c-71.333 0 -132.5 24.833 -183.5 74.5s-76.5 109.834 -76.5 180.501v982c0 70.667 25.5 130.834 76.5 180.501s112.167 74.5 183.5 74.5zM1431.01 1189c0 36 -13.333 66.833 -40 92.5
s-58.667 38.5 -96 38.5h-896c-37.333 0 -69.333 -12.833 -96 -38.5s-40 -56.5 -40 -92.5v-934c0 -35.333 13.5 -66 40.5 -92s58.833 -39 95.5 -39h896c37.333 0 69.333 12.833 96 38.5s40 56.5 40 92.5v934z" />
    <glyph glyph-name="uni1F143" unicode="T&#x20de;" 
d="M936 377h-178v552h-200v140h578v-140h-200v-552zM361 1468h972c72 0 133.333 -24.833 184 -74.5s76 -109.834 76 -180.501v-982c0 -70.667 -25.333 -130.834 -76 -180.501s-112 -74.5 -184 -74.5h-972c-71.333 0 -132.5 24.833 -183.5 74.5s-76.5 109.834 -76.5 180.501
v982c0 70.667 25.5 130.834 76.5 180.501s112.167 74.5 183.5 74.5zM1431 1189c0 36 -13.333 66.833 -40 92.5s-58.667 38.5 -96 38.5h-896c-37.333 0 -69.333 -12.833 -96 -38.5s-40 -56.5 -40 -92.5v-934c0 -35.333 13.5 -66 40.5 -92s58.833 -39 95.5 -39h896
c37.333 0 69.333 12.833 96 38.5s40 56.5 40 92.5v934z" />
    <glyph glyph-name="uni1F144" unicode="U&#x20de;" 
d="M847 505c39.333 0 70.5 11.167 93.5 33.5s34.5 53.166 34.5 92.499v438h172v-454c0 -74 -27.5 -134.333 -82.5 -181s-127.5 -70 -217.5 -70s-162.5 23.333 -217.5 70s-82.5 107 -82.5 181v454h172v-438c0 -39.333 11.5 -70.166 34.5 -92.499s54.167 -33.5 93.5 -33.5z
M361 1468h972c72 0 133.333 -24.833 184 -74.5s76 -109.834 76 -180.501v-982c0 -70.667 -25.333 -130.834 -76 -180.501s-112 -74.5 -184 -74.5h-972c-71.333 0 -132.5 24.833 -183.5 74.5s-76.5 109.834 -76.5 180.501v982c0 70.667 25.5 130.834 76.5 180.501
s112.167 74.5 183.5 74.5zM1431 1189c0 36 -13.333 66.833 -40 92.5s-58.667 38.5 -96 38.5h-896c-37.333 0 -69.333 -12.833 -96 -38.5s-40 -56.5 -40 -92.5v-934c0 -35.333 13.5 -66 40.5 -92s58.833 -39 95.5 -39h896c37.333 0 69.333 12.833 96 38.5s40 56.5 40 92.5
v934z" />
    <glyph glyph-name="uni1F145" unicode="V&#x20de;" 
d="M734 373l-226 693h194l142 -529h6l142 529h194l-226 -693h-226zM361 1468h972c72 0 133.333 -24.833 184 -74.5s76 -109.834 76 -180.501v-982c0 -70.667 -25.333 -130.834 -76 -180.501s-112 -74.5 -184 -74.5h-972c-71.333 0 -132.5 24.833 -183.5 74.5
s-76.5 109.834 -76.5 180.501v982c0 70.667 25.5 130.834 76.5 180.501s112.167 74.5 183.5 74.5zM1431 1189c0 36 -13.333 66.833 -40 92.5s-58.667 38.5 -96 38.5h-896c-37.333 0 -69.333 -12.833 -96 -38.5s-40 -56.5 -40 -92.5v-934c0 -35.333 13.5 -66 40.5 -92
s58.833 -39 95.5 -39h896c37.333 0 69.333 12.833 96 38.5s40 56.5 40 92.5v934z" />
    <glyph glyph-name="uni1F146" unicode="W&#x20de;" 
d="M844 835l-117 -458h-151l-174 692h166l94 -485h7l113 485h131l112 -485h7l94 485h166l-174 -692h-151l-117 458h-6zM361 1468h972c72 0 133.333 -24.833 184 -74.5s76 -109.834 76 -180.501v-982c0 -70.667 -25.333 -130.834 -76 -180.501s-112 -74.5 -184 -74.5h-972
c-71.333 0 -132.5 24.833 -183.5 74.5s-76.5 109.834 -76.5 180.501v982c0 70.667 25.5 130.834 76.5 180.501s112.167 74.5 183.5 74.5zM1431 1189c0 36 -13.333 66.833 -40 92.5s-58.667 38.5 -96 38.5h-896c-37.333 0 -69.333 -12.833 -96 -38.5s-40 -56.5 -40 -92.5
v-934c0 -35.333 13.5 -66 40.5 -92s58.833 -39 95.5 -39h896c37.333 0 69.333 12.833 96 38.5s40 56.5 40 92.5v934z" />
    <glyph glyph-name="uni1F147" unicode="X&#x20de;" 
d="M1174 1077l-222 -347l220 -345h-190l-136 237h-7l-136 -237h-189l222 348l-221 344h198l133 -239h7l133 239h188zM361 1468h972c72 0 133.333 -24.833 184 -74.5s76 -109.834 76 -180.501v-982c0 -70.667 -25.333 -130.834 -76 -180.501s-112 -74.5 -184 -74.5h-972
c-71.333 0 -132.5 24.833 -183.5 74.5s-76.5 109.834 -76.5 180.501v982c0 70.667 25.5 130.834 76.5 180.501s112.167 74.5 183.5 74.5zM1431 1189c0 36 -13.333 66.833 -40 92.5s-58.667 38.5 -96 38.5h-896c-37.333 0 -69.333 -12.833 -96 -38.5s-40 -56.5 -40 -92.5
v-934c0 -35.333 13.5 -66 40.5 -92s58.833 -39 95.5 -39h896c37.333 0 69.333 12.833 96 38.5s40 56.5 40 92.5v934z" />
    <glyph glyph-name="uni1F148" unicode="Y&#x20de;" 
d="M938 377h-181v244l-240 448h193l135 -283h6l135 283h191l-239 -446v-246zM361 1468h972c72 0 133.333 -24.833 184 -74.5s76 -109.834 76 -180.501v-982c0 -70.667 -25.333 -130.834 -76 -180.501s-112 -74.5 -184 -74.5h-972c-71.333 0 -132.5 24.833 -183.5 74.5
s-76.5 109.834 -76.5 180.501v982c0 70.667 25.5 130.834 76.5 180.501s112.167 74.5 183.5 74.5zM1431 1189c0 36 -13.333 66.833 -40 92.5s-58.667 38.5 -96 38.5h-896c-37.333 0 -69.333 -12.833 -96 -38.5s-40 -56.5 -40 -92.5v-934c0 -35.333 13.5 -66 40.5 -92
s58.833 -39 95.5 -39h896c37.333 0 69.333 12.833 96 38.5s40 56.5 40 92.5v934z" />
    <glyph glyph-name="uni1F149" unicode="Z&#x20de;" 
d="M577 385v110l322 437v8h-318v137h529v-110l-322 -438v-7h333v-137h-544zM361 1468h972c72 0 133.333 -24.833 184 -74.5s76 -109.834 76 -180.501v-982c0 -70.667 -25.333 -130.834 -76 -180.501s-112 -74.5 -184 -74.5h-972c-71.333 0 -132.5 24.833 -183.5 74.5
s-76.5 109.834 -76.5 180.501v982c0 70.667 25.5 130.834 76.5 180.501s112.167 74.5 183.5 74.5zM1431 1189c0 36 -13.333 66.833 -40 92.5s-58.667 38.5 -96 38.5h-896c-37.333 0 -69.333 -12.833 -96 -38.5s-40 -56.5 -40 -92.5v-934c0 -35.333 13.5 -66 40.5 -92
s58.833 -39 95.5 -39h896c37.333 0 69.333 12.833 96 38.5s40 56.5 40 92.5v934z" />
    <glyph glyph-name="uni1F150" unicode="A&#x20dd;&#x25cf;" 
d="M938 678h-182l88 293h6zM673 376l52 169h244l52 -169h196l-254 758h-231l-255 -758h196zM847 -52c-139.333 0 -268.333 34.667 -387 104s-212.667 163.333 -282 282s-104 247.667 -104 387s34.667 268.5 104 387.5s163.333 213.167 282 282.5s247.667 104 387 104
s268.333 -34.667 387 -104s212.667 -163.5 282 -282.5s104 -248.167 104 -387.5s-34.667 -268.333 -104 -387s-163.333 -212.667 -282 -282s-247.667 -104 -387 -104z" />
    <glyph glyph-name="uni1F151" unicode="B&#x20dd;&#x25cf;" 
d="M558 353h358.999c81.333 0 146.833 19.5 196.5 58.5s74.5 90.5 74.5 154.5c0 50.667 -15.167 92.667 -45.5 126s-72.166 54 -125.499 62v3c42 10 74.667 29.667 98 59s35 64.666 35 105.999c0 58.667 -21 104.834 -63 138.501s-99.667 50.5 -173 50.5h-356v-758z
M742.999 979l120 -0.000976562c32 0 57.167 -7.66699 75.5 -23s27.5 -36.666 27.5 -63.999c0 -60 -44 -90 -132 -90h-91v177zM741.999 684.999h128.999c38.667 0 68.834 -8.83301 90.501 -26.5s32.5 -42.5 32.5 -74.5c0 -63.333 -49.667 -95 -149 -95h-103v196z
M846.998 -52.001c-139.333 0 -268.333 34.667 -387 104s-212.667 163.333 -282 282s-104 247.667 -104 387s34.667 268.5 104 387.5s163.333 213.167 282 282.5s247.667 104 387 104s268.333 -34.667 387 -104s212.667 -163.5 282 -282.5s104 -248.167 104 -387.5
s-34.667 -268.333 -104 -387s-163.333 -212.667 -282 -282s-247.667 -104 -387 -104z" />
    <glyph glyph-name="uni1F152" unicode="C&#x20dd;&#x25cf;" 
d="M998 612c-4 -31.333 -20.1699 -57.5 -48.5029 -78.5s-61.5 -31.5 -99.5 -31.5c-51.333 0 -92.333 20.333 -123 61s-46 96 -46 166s15.333 125.667 46 167s71.667 62 123 62c38.667 0 72.334 -11.5 101.001 -34.5s45.334 -50.833 50.001 -83.5h187
c-7.33301 84 -42 151.833 -104 203.5s-141 77.5 -237 77.5c-107.333 0 -194.666 -35.833 -261.999 -107.5s-101 -166.5 -101 -284.5s33.667 -212.667 101 -284s154.666 -107 261.999 -107c94 0 171.833 25.333 233.5 76s96.834 116.667 105.501 198h-188zM846.997 -52
c-139.333 0 -268.333 34.667 -387 104s-212.667 163.333 -282 282s-104 247.667 -104 387s34.667 268.5 104 387.5s163.333 213.167 282 282.5s247.667 104 387 104s268.333 -34.667 387 -104s212.667 -163.5 282 -282.5s104 -248.167 104 -387.5
s-34.667 -268.333 -104 -387s-163.333 -212.667 -282 -282s-247.667 -104 -387 -104z" />
    <glyph glyph-name="uni1F153" unicode="D&#x20dd;&#x25cf;" 
d="M553 1111v-758h310c116.667 0 205 32.167 265 96.5s90 158.5 90 282.5c0 124.667 -30 219 -90 283s-148.333 96 -265 96h-310zM742 963h92c64.667 0 112 -18.833 142 -56.5s45 -96.167 45 -175.5c0 -80 -15 -138.333 -45 -175s-77.333 -55 -142 -55h-92v462zM847 -52
c-139.333 0 -268.333 34.667 -387 104s-212.667 163.333 -282 282s-104 247.667 -104 387s34.667 268.5 104 387.5s163.333 213.167 282 282.5s247.667 104 387 104s268.333 -34.667 387 -104s212.667 -163.5 282 -282.5s104 -248.167 104 -387.5
s-34.667 -268.333 -104 -387s-163.333 -212.667 -282 -282s-247.667 -104 -387 -104z" />
    <glyph glyph-name="uni1F154" unicode="E&#x20dd;&#x25cf;" 
d="M1118 498h-345v170h324v134h-324v163h345v146h-533v-758h533v145zM847 -52c-139.333 0 -268.333 34.667 -387 104s-212.667 163.333 -282 282s-104 247.667 -104 387s34.667 268.5 104 387.5s163.333 213.167 282 282.5s247.667 104 387 104s268.333 -34.667 387 -104
s212.667 -163.5 282 -282.5s104 -248.167 104 -387.5s-34.667 -268.333 -104 -387s-163.333 -212.667 -282 -282s-247.667 -104 -387 -104z" />
    <glyph glyph-name="uni1F155" unicode="F&#x20dd;&#x25cf;" 
d="M804 353v283h303v151h-303v173h332v151h-527v-758h195zM847 -52c-139.333 0 -268.333 34.667 -387 104s-212.667 163.333 -282 282s-104 247.667 -104 387s34.667 268.5 104 387.5s163.333 213.167 282 282.5s247.667 104 387 104s268.333 -34.667 387 -104
s212.667 -163.5 282 -282.5s104 -248.167 104 -387.5s-34.667 -268.333 -104 -387s-163.333 -212.667 -282 -282s-247.667 -104 -387 -104z" />
    <glyph glyph-name="uni1F156" unicode="G&#x20dd;&#x25cf;" 
d="M1000 617c0 -34.667 -13.167 -63.5 -39.5 -86.5s-62.833 -34.5 -109.5 -34.5c-51.333 0 -92.5 21 -123.5 63s-46.5 98.667 -46.5 170s15.333 127.666 46 168.999s72 62 124 62c40.667 0 74.167 -8.66699 100.5 -26s41.166 -39.666 44.499 -66.999h192
c-10.667 75.333 -47.167 136.333 -109.5 183s-138.833 70 -229.5 70c-109.333 0 -197.666 -36 -264.999 -108s-101 -166.333 -101 -283s33.5 -210.834 100.5 -282.501s155.167 -107.5 264.5 -107.5c101.333 0 182.5 28.833 243.5 86.5s91.5 129.834 91.5 216.501v132h-326
v-137h143v-20zM847 -52c-139.333 0 -268.333 34.667 -387 104s-212.667 163.333 -282 282s-104 247.667 -104 387s34.667 268.5 104 387.5s163.333 213.167 282 282.5s247.667 104 387 104s268.333 -34.667 387 -104s212.667 -163.5 282 -282.5s104 -248.167 104 -387.5
s-34.667 -268.333 -104 -387s-163.333 -212.667 -282 -282s-247.667 -104 -387 -104z" />
    <glyph glyph-name="uni1F157" unicode="H&#x20dd;&#x25cf;" 
d="M1178 353v758h-187v-296h-287v296h-188v-758h188v303h287v-303h187zM847 -52c-139.333 0 -268.333 34.667 -387 104s-212.667 163.333 -282 282s-104 247.667 -104 387s34.667 268.5 104 387.5s163.333 213.167 282 282.5s247.667 104 387 104s268.333 -34.667 387 -104
s212.667 -163.5 282 -282.5s104 -248.167 104 -387.5s-34.667 -268.333 -104 -387s-163.333 -212.667 -282 -282s-247.667 -104 -387 -104z" />
    <glyph glyph-name="uni1F158" unicode="I&#x20dd;&#x25cf;" 
d="M950 353v758h-206v-758h206zM847 -52c-139.333 0 -268.333 34.667 -387 104s-212.667 163.333 -282 282s-104 247.667 -104 387s34.667 268.5 104 387.5s163.333 213.167 282 282.5s247.667 104 387 104s268.333 -34.667 387 -104s212.667 -163.5 282 -282.5
s104 -248.167 104 -387.5s-34.667 -268.333 -104 -387s-163.333 -212.667 -282 -282s-247.667 -104 -387 -104z" />
    <glyph glyph-name="uni1F159" unicode="J&#x20dd;&#x25cf;" 
d="M532 597c0 -80.667 25.668 -144.834 77.001 -192.501s119.666 -71.5 204.999 -71.5c88.667 0 158 24.333 208 73s75 116.334 75 203.001v496h-198v-496c0 -68.667 -29.667 -103 -89 -103c-26.667 0 -47.5 8 -62.5 24s-22.5 38.333 -22.5 67h-193zM847.001 -52
c-139.333 0 -268.333 34.667 -387 104s-212.667 163.333 -282 282s-104 247.667 -104 387s34.667 268.5 104 387.5s163.333 213.167 282 282.5s247.667 104 387 104s268.333 -34.667 387 -104s212.667 -163.5 282 -282.5s104 -248.167 104 -387.5
s-34.667 -268.333 -104 -387s-163.333 -212.667 -282 -282s-247.667 -104 -387 -104z" />
    <glyph glyph-name="uni1F15A" unicode="K&#x20dd;&#x25cf;" 
d="M1204 1111h-215l-263 -320h-3v320h-184v-758h184v220l70 78l191 -298h228l-274 420zM847 -52c-139.333 0 -268.333 34.667 -387 104s-212.667 163.333 -282 282s-104 247.667 -104 387s34.667 268.5 104 387.5s163.333 213.167 282 282.5s247.667 104 387 104
s268.333 -34.667 387 -104s212.667 -163.5 282 -282.5s104 -248.167 104 -387.5s-34.667 -268.333 -104 -387s-163.333 -212.667 -282 -282s-247.667 -104 -387 -104z" />
    <glyph glyph-name="uni1F15B" unicode="L&#x20dd;&#x25cf;" 
d="M1144 522h-320v595h-200v-758h520v163zM847 -52c-139.333 0 -268.333 34.667 -387 104s-212.667 163.333 -282 282s-104 247.667 -104 387s34.667 268.5 104 387.5s163.333 213.167 282 282.5s247.667 104 387 104s268.333 -34.667 387 -104s212.667 -163.5 282 -282.5
s104 -248.167 104 -387.5s-34.667 -268.333 -104 -387s-163.333 -212.667 -282 -282s-247.667 -104 -387 -104z" />
    <glyph glyph-name="uni1F15C" unicode="M&#x20dd;&#x25cf;" 
d="M618 353v493h4l167 -457h115l168 454h4v-490h158v758h-188l-198 -527h-2l-197 527h-188v-758h157zM847 -52c-139.333 0 -268.333 34.667 -387 104s-212.667 163.333 -282 282s-104 247.667 -104 387s34.667 268.5 104 387.5s163.333 213.167 282 282.5
s247.667 104 387 104s268.333 -34.667 387 -104s212.667 -163.5 282 -282.5s104 -248.167 104 -387.5s-34.667 -268.333 -104 -387s-163.333 -212.667 -282 -282s-247.667 -104 -387 -104z" />
    <glyph glyph-name="uni1F15D" unicode="N&#x20dd;&#x25cf;" 
d="M699 353v461h2l321 -461h151v758h-177v-460h-3l-321 460h-150v-758h177zM847 -52c-139.333 0 -268.333 34.667 -387 104s-212.667 163.333 -282 282s-104 247.667 -104 387s34.667 268.5 104 387.5s163.333 213.167 282 282.5s247.667 104 387 104
s268.333 -34.667 387 -104s212.667 -163.5 282 -282.5s104 -248.167 104 -387.5s-34.667 -268.333 -104 -387s-163.333 -212.667 -282 -282s-247.667 -104 -387 -104z" />
    <glyph glyph-name="uni1F15E" unicode="O&#x20dd;&#x25cf;" 
d="M847 497c-49.333 0 -90 20.333 -122 61s-48 97.667 -48 171c0 74 16 131.333 48 172s72.667 61 122 61s90 -20.333 122 -61s48 -98 48 -172c0 -73.333 -16 -130.333 -48 -171s-72.667 -61 -122 -61zM847 338c105.333 0 192.5 34.833 261.5 104.5
s103.5 165.167 103.5 286.5c0 122 -34.5 217.833 -103.5 287.5s-156.167 104.5 -261.5 104.5s-192.5 -34.833 -261.5 -104.5s-103.5 -165.5 -103.5 -287.5c0 -121.333 34.5 -216.833 103.5 -286.5s156.167 -104.5 261.5 -104.5zM847 -52
c-139.333 0 -268.333 34.667 -387 104s-212.667 163.333 -282 282s-104 247.667 -104 387s34.667 268.5 104 387.5s163.333 213.167 282 282.5s247.667 104 387 104s268.333 -34.667 387 -104s212.667 -163.5 282 -282.5s104 -248.167 104 -387.5
s-34.667 -268.333 -104 -387s-163.333 -212.667 -282 -282s-247.667 -104 -387 -104z" />
    <glyph glyph-name="uni1F15F" unicode="P&#x20dd;&#x25cf;" 
d="M914 1111l-333 -0.000976562v-758h198v229h133c84.667 0 152.5 23.833 203.5 71.5s76.5 111.167 76.5 190.5c0 80.667 -25.5 145.334 -76.5 194.001s-118.167 73 -201.5 73zM1000 843.999c0 -37.333 -10.332 -66.333 -30.999 -87s-50.334 -31 -89.001 -31h-111v237h111
c38 0 67.5 -10.5 88.5 -31.5s31.5 -50.167 31.5 -87.5zM847.001 -52.001c-139.333 0 -268.333 34.667 -387 104s-212.667 163.333 -282 282s-104 247.667 -104 387s34.667 268.5 104 387.5s163.333 213.167 282 282.5s247.667 104 387 104s268.333 -34.667 387 -104
s212.667 -163.5 282 -282.5s104 -248.167 104 -387.5s-34.667 -268.333 -104 -387s-163.333 -212.667 -282 -282s-247.667 -104 -387 -104z" />
    <glyph glyph-name="uni1F160" unicode="Q&#x20dd;&#x25cf;" 
d="M1194 285l-102.001 141c80 72.667 120 173.667 120 303c0 122 -34.5 217.833 -103.5 287.5s-156.167 104.5 -261.5 104.5s-192.5 -34.833 -261.5 -104.5s-103.5 -165.5 -103.5 -287.5c0 -121.333 34.5 -216.833 103.5 -286.5s156.167 -104.5 261.5 -104.5
c40.667 0 77.334 5.33301 110.001 16l43 -69h194zM846.999 497c-49.333 0 -90 20.333 -122 61s-48 97.667 -48 171c0 74 16 131.333 48 172s72.667 61 122 61s90 -20.333 122 -61s48 -98 48 -172c0 -64 -13.667 -115.333 -41 -154l-31 42h-136l72 -116
c-14.667 -2.66699 -26 -4 -34 -4zM846.999 -52c-139.333 0 -268.333 34.667 -387 104s-212.667 163.333 -282 282s-104 247.667 -104 387s34.667 268.5 104 387.5s163.333 213.167 282 282.5s247.667 104 387 104s268.333 -34.667 387 -104s212.667 -163.5 282 -282.5
s104 -248.167 104 -387.5s-34.667 -268.333 -104 -387s-163.333 -212.667 -282 -282s-247.667 -104 -387 -104z" />
    <glyph glyph-name="uni1F161" unicode="R&#x20dd;&#x25cf;" 
d="M730 755v210h127c38 0 67.333 -9.33301 88 -28s31 -45 31 -79c0 -32.667 -10.5 -58 -31.5 -76s-50.833 -27 -89.5 -27h-125zM879 1111l-330 -0.000976562v-758h185v269h114l130 -269h212l-162 301c44.667 16 79.667 42.833 105 80.5s38 81.834 38 132.501
c0 76.667 -25.833 136.5 -77.5 179.5s-123.167 64.5 -214.5 64.5zM847 -52.001c-139.333 0 -268.333 34.667 -387 104s-212.667 163.333 -282 282s-104 247.667 -104 387s34.667 268.5 104 387.5s163.333 213.167 282 282.5s247.667 104 387 104s268.333 -34.667 387 -104
s212.667 -163.5 282 -282.5s104 -248.167 104 -387.5s-34.667 -268.333 -104 -387s-163.333 -212.667 -282 -282s-247.667 -104 -387 -104z" />
    <glyph glyph-name="uni1F162" unicode="S&#x20dd;&#x25cf;" 
d="M526 577c2.66699 -73.333 32.5 -131.163 89.5 -173.496s133.167 -63.5 228.5 -63.5c99.333 0 178.166 22.167 236.499 66.5s87.5 103.833 87.5 178.5c0 118 -72.333 190.667 -217 218l-112 22c-70.667 13.333 -106 38.666 -106 75.999c0 24.667 10.5 44.5 31.5 59.5
s49.167 22.5 84.5 22.5c34.667 0 63 -8 85 -24s34.667 -37.667 38 -65h182c-2.66699 69.333 -32 125.166 -88 167.499s-128.333 63.5 -217 63.5c-91.333 0 -165.166 -21.833 -221.499 -65.5s-84.5 -100.834 -84.5 -171.501c0 -56.667 18 -103.334 54 -140.001
s88 -61.667 156 -75l109 -23c43.333 -8 73.833 -18 91.5 -30s26.5 -28.667 26.5 -50c0 -26.667 -11.5 -47.667 -34.5 -63s-54.167 -23 -93.5 -23c-38.667 0 -70.5 8.5 -95.5 25.5s-38.833 39.5 -41.5 67.5h-189zM847 -51.9971c-139.333 0 -268.333 34.667 -387 104
s-212.667 163.333 -282 282s-104 247.667 -104 387s34.667 268.5 104 387.5s163.333 213.167 282 282.5s247.667 104 387 104s268.333 -34.667 387 -104s212.667 -163.5 282 -282.5s104 -248.167 104 -387.5s-34.667 -268.333 -104 -387s-163.333 -212.667 -282 -282
s-247.667 -104 -387 -104z" />
    <glyph glyph-name="uni1F163" unicode="T&#x20dd;&#x25cf;" 
d="M946 331v598h218v160h-633v-160h217v-598h198zM847 -52c-139.333 0 -268.333 34.667 -387 104s-212.667 163.333 -282 282s-104 247.667 -104 387s34.667 268.5 104 387.5s163.333 213.167 282 282.5s247.667 104 387 104s268.333 -34.667 387 -104
s212.667 -163.5 282 -282.5s104 -248.167 104 -387.5s-34.667 -268.333 -104 -387s-163.333 -212.667 -282 -282s-247.667 -104 -387 -104z" />
    <glyph glyph-name="uni1F164" unicode="U&#x20dd;&#x25cf;" 
d="M847 479c-42 0 -74.833 11.667 -98.5 35s-35.5 55.333 -35.5 96v480h-195v-503c0 -81.333 30 -146.5 90 -195.5s139.667 -73.5 239 -73.5c98.667 0 178.167 24.667 238.5 74s90.5 114.333 90.5 195v503h-194v-480c0 -40.667 -12 -72.667 -36 -96s-57 -35 -99 -35z
M847 -52c-139.333 0 -268.333 34.667 -387 104s-212.667 163.333 -282 282s-104 247.667 -104 387s34.667 268.5 104 387.5s163.333 213.167 282 282.5s247.667 104 387 104s268.333 -34.667 387 -104s212.667 -163.5 282 -282.5s104 -248.167 104 -387.5
s-34.667 -268.333 -104 -387s-163.333 -212.667 -282 -282s-247.667 -104 -387 -104z" />
    <glyph glyph-name="uni1F165" unicode="V&#x20dd;&#x25cf;" 
d="M970 328l248 758h-217l-151 -573h-6l-151 573h-217l248 -758h246zM847 -52c-139.333 0 -268.333 34.667 -387 104s-212.667 163.333 -282 282s-104 247.667 -104 387s34.667 268.5 104 387.5s163.333 213.167 282 282.5s247.667 104 387 104s268.333 -34.667 387 -104
s212.667 -163.5 282 -282.5s104 -248.167 104 -387.5s-34.667 -268.333 -104 -387s-163.333 -212.667 -282 -282s-247.667 -104 -387 -104z" />
    <glyph glyph-name="uni1F166" unicode="W&#x20dd;&#x25cf;" 
d="M845 822h4l126 -491h171l191 758h-189l-99 -526h-5l-122 526h-150l-122 -526h-5l-98 526h-190l192 -758h170zM847 -52c-139.333 0 -268.333 34.667 -387 104s-212.667 163.333 -282 282s-104 247.667 -104 387s34.667 268.5 104 387.5s163.333 213.167 282 282.5
s247.667 104 387 104s268.333 -34.667 387 -104s212.667 -163.5 282 -282.5s104 -248.167 104 -387.5s-34.667 -268.333 -104 -387s-163.333 -212.667 -282 -282s-247.667 -104 -387 -104z" />
    <glyph glyph-name="uni1F167" unicode="X&#x20dd;&#x25cf;" 
d="M1208 1111h-212l-142 -259h-5l-145 259h-222l241 -377l-243 -381h214l146 256h5l147 -256h213l-241 378zM847 -52c-139.333 0 -268.333 34.667 -387 104s-212.667 163.333 -282 282s-104 247.667 -104 387s34.667 268.5 104 387.5s163.333 213.167 282 282.5
s247.667 104 387 104s268.333 -34.667 387 -104s212.667 -163.5 282 -282.5s104 -248.167 104 -387.5s-34.667 -268.333 -104 -387s-163.333 -212.667 -282 -282s-247.667 -104 -387 -104z" />
    <glyph glyph-name="uni1F168" unicode="Y&#x20dd;&#x25cf;" 
d="M746 341h203v269l264 489h-218l-146 -306h-4l-146 306h-217l264 -489v-269zM847 -52c-139.333 0 -268.333 34.667 -387 104s-212.667 163.333 -282 282s-104 247.667 -104 387s34.667 268.5 104 387.5s163.333 213.167 282 282.5s247.667 104 387 104
s268.333 -34.667 387 -104s212.667 -163.5 282 -282.5s104 -248.167 104 -387.5s-34.667 -268.333 -104 -387s-163.333 -212.667 -282 -282s-247.667 -104 -387 -104z" />
    <glyph glyph-name="uni1F169" unicode="Z&#x20dd;&#x25cf;" 
d="M550 353h598v157h-357v3l346 473v125h-582v-158h340v-2l-345 -474v-124zM847 -52c-139.333 0 -268.333 34.667 -387 104s-212.667 163.333 -282 282s-104 247.667 -104 387s34.667 268.5 104 387.5s163.333 213.167 282 282.5s247.667 104 387 104
s268.333 -34.667 387 -104s212.667 -163.5 282 -282.5s104 -248.167 104 -387.5s-34.667 -268.333 -104 -387s-163.333 -212.667 -282 -282s-247.667 -104 -387 -104z" />
    <glyph glyph-name="uni1F170" unicode="A&#x20de;&#x25a0;" 
d="M938 664h-182l88 293h6zM673 362l52 169h244l52 -169h196l-254 758h-231l-255 -758h196zM361 1468h972c72 0 133.333 -24.833 184 -74.5s76 -109.834 76 -180.501v-982c0 -70.667 -25.333 -130.834 -76 -180.501s-112 -74.5 -184 -74.5h-972
c-71.333 0 -132.5 24.833 -183.5 74.5s-76.5 109.834 -76.5 180.501v982c0 70.667 25.5 130.834 76.5 180.501s112.167 74.5 183.5 74.5z" />
    <glyph glyph-name="uni1F171" unicode="B&#x20de;&#x25a0;" 
d="M558 353l359 -0.00292969c80.667 0 146 19.333 196 58s75 90.334 75 155.001c0 52.667 -15.5 95.167 -46.5 127.5s-72.5 52.5 -124.5 60.5v3c40.667 10 73 29.333 97 58s36 64.334 36 107.001c0 58.667 -21.167 104.834 -63.5 138.501s-99.833 50.5 -172.5 50.5h-356
v-758zM743 978.997l120 0.000976562c32 0 57.167 -7.83301 75.5 -23.5s27.5 -36.834 27.5 -63.501c0 -60 -44 -90 -132 -90h-91v177zM742 684.998h129.001c39.333 0 69.666 -8.83301 90.999 -26.5s32 -42.5 32 -74.5c0 -63.333 -49.667 -95 -149 -95h-103v196zM361.001 1468
h972c72 0 133.333 -24.833 184 -74.5s76 -109.834 76 -180.501v-982c0 -70.667 -25.333 -130.834 -76 -180.501s-112 -74.5 -184 -74.5h-972c-71.333 0 -132.5 24.833 -183.5 74.5s-76.5 109.834 -76.5 180.501v982c0 70.667 25.5 130.834 76.5 180.501
s112.167 74.5 183.5 74.5z" />
    <glyph glyph-name="uni1F172" unicode="C&#x20de;&#x25a0;" 
d="M998 612c-4 -31.333 -20.1699 -57.5 -48.5029 -78.5s-61.5 -31.5 -99.5 -31.5c-51.333 0 -92.333 20.333 -123 61s-46 96 -46 166s15.333 125.667 46 167s71.667 62 123 62c38.667 0 72.334 -11.5 101.001 -34.5s45.334 -50.833 50.001 -83.5h187
c-7.33301 84 -42 151.833 -104 203.5s-141 77.5 -237 77.5c-107.333 0 -194.666 -35.833 -261.999 -107.5s-101 -166.5 -101 -284.5s33.667 -212.667 101 -284s154.666 -107 261.999 -107c94 0 171.833 25.333 233.5 76s96.834 116.667 105.501 198h-188zM360.997 1468h972
c72 0 133.333 -24.833 184 -74.5s76 -109.834 76 -180.501v-982c0 -70.667 -25.333 -130.834 -76 -180.501s-112 -74.5 -184 -74.5h-972c-71.333 0 -132.5 24.833 -183.5 74.5s-76.5 109.834 -76.5 180.501v982c0 70.667 25.5 130.834 76.5 180.501s112.167 74.5 183.5 74.5
z" />
    <glyph glyph-name="uni1F173" unicode="D&#x20de;&#x25a0;" 
d="M538 1111v-758h310c117.333 0 205.833 32.5 265.5 97.5s89.5 158.833 89.5 281.5c0 123.333 -29.833 217.333 -89.5 282s-148.167 97 -265.5 97h-310zM726 963h93c64.667 0 112 -18.833 142 -56.5s45 -96.167 45 -175.5s-15 -137.5 -45 -174.5s-77.333 -55.5 -142 -55.5
h-93v462zM361 1468h972c72 0 133.333 -24.833 184 -74.5s76 -109.834 76 -180.501v-982c0 -70.667 -25.333 -130.834 -76 -180.501s-112 -74.5 -184 -74.5h-972c-71.333 0 -132.5 24.833 -183.5 74.5s-76.5 109.834 -76.5 180.501v982c0 70.667 25.5 130.834 76.5 180.501
s112.167 74.5 183.5 74.5z" />
    <glyph glyph-name="uni1F174" unicode="E&#x20de;&#x25a0;" 
d="M1118 498h-345v170h324v134h-324v163h345v146h-533v-758h533v145zM361 1468h972c72 0 133.333 -24.833 184 -74.5s76 -109.834 76 -180.501v-982c0 -70.667 -25.333 -130.834 -76 -180.501s-112 -74.5 -184 -74.5h-972c-71.333 0 -132.5 24.833 -183.5 74.5
s-76.5 109.834 -76.5 180.501v982c0 70.667 25.5 130.834 76.5 180.501s112.167 74.5 183.5 74.5z" />
    <glyph glyph-name="uni1F175" unicode="F&#x20de;&#x25a0;" 
d="M804 353v283h303v151h-303v173h332v151h-527v-758h195zM361 1468h972c72 0 133.333 -24.833 184 -74.5s76 -109.834 76 -180.501v-982c0 -70.667 -25.333 -130.834 -76 -180.501s-112 -74.5 -184 -74.5h-972c-71.333 0 -132.5 24.833 -183.5 74.5
s-76.5 109.834 -76.5 180.501v982c0 70.667 25.5 130.834 76.5 180.501s112.167 74.5 183.5 74.5z" />
    <glyph glyph-name="uni1F176" unicode="G&#x20de;&#x25a0;" 
d="M1000 617c0 -34.667 -13.167 -63.5 -39.5 -86.5s-62.833 -34.5 -109.5 -34.5c-51.333 0 -92.5 21 -123.5 63s-46.5 98.667 -46.5 170s15.333 127.666 46 168.999s72 62 124 62c40.667 0 74.167 -8.66699 100.5 -26s41.166 -39.666 44.499 -66.999h192
c-10.667 75.333 -47.167 136.333 -109.5 183s-138.833 70 -229.5 70c-109.333 0 -197.666 -36 -264.999 -108s-101 -166.333 -101 -283s33.5 -210.834 100.5 -282.501s155.167 -107.5 264.5 -107.5c101.333 0 182.5 28.833 243.5 86.5s91.5 129.834 91.5 216.501v132h-326
v-137h143v-20zM361 1468h972c72 0 133.333 -24.833 184 -74.5s76 -109.834 76 -180.501v-982c0 -70.667 -25.333 -130.834 -76 -180.501s-112 -74.5 -184 -74.5h-972c-71.333 0 -132.5 24.833 -183.5 74.5s-76.5 109.834 -76.5 180.501v982
c0 70.667 25.5 130.834 76.5 180.501s112.167 74.5 183.5 74.5z" />
    <glyph glyph-name="uni1F177" unicode="H&#x20de;&#x25a0;" 
d="M1178 353v758h-187v-296h-287v296h-188v-758h188v303h287v-303h187zM361 1468h972c72 0 133.333 -24.833 184 -74.5s76 -109.834 76 -180.501v-982c0 -70.667 -25.333 -130.834 -76 -180.501s-112 -74.5 -184 -74.5h-972c-71.333 0 -132.5 24.833 -183.5 74.5
s-76.5 109.834 -76.5 180.501v982c0 70.667 25.5 130.834 76.5 180.501s112.167 74.5 183.5 74.5z" />
    <glyph glyph-name="uni1F178" unicode="I&#x20de;&#x25a0;" 
d="M950 353v758h-206v-758h206zM361 1468h972c72 0 133.333 -24.833 184 -74.5s76 -109.834 76 -180.501v-982c0 -70.667 -25.333 -130.834 -76 -180.501s-112 -74.5 -184 -74.5h-972c-71.333 0 -132.5 24.833 -183.5 74.5s-76.5 109.834 -76.5 180.501v982
c0 70.667 25.5 130.834 76.5 180.501s112.167 74.5 183.5 74.5z" />
    <glyph glyph-name="uni1F179" unicode="J&#x20de;&#x25a0;" 
d="M532 597c0 -78 25 -141.499 75 -190.499s119 -73.5 207 -73.5s157.167 24.167 207.5 72.5s75.5 116.166 75.5 203.499v496h-198v-496c0 -68.667 -29.667 -103 -89 -103c-26.667 0 -47.5 8 -62.5 24s-22.5 38.333 -22.5 67h-193zM361 1468h972
c72 0 133.333 -24.833 184 -74.5s76 -109.834 76 -180.501v-982c0 -70.667 -25.333 -130.834 -76 -180.501s-112 -74.5 -184 -74.5h-972c-71.333 0 -132.5 24.833 -183.5 74.5s-76.5 109.834 -76.5 180.501v982c0 70.667 25.5 130.834 76.5 180.501s112.167 74.5 183.5 74.5
z" />
    <glyph glyph-name="uni1F17A" unicode="K&#x20de;&#x25a0;" 
d="M1204 1111l-215 -0.000976562l-263 -320h-3v320h-184v-758h184v220l70 78l191 -298h228c-21.333 30.667 -66.5 99.834 -135.5 207.501s-115.167 178.5 -138.5 212.5zM361 1468h972c72 0 133.333 -24.833 184 -74.5s76 -109.834 76 -180.501v-982
c0 -70.667 -25.333 -130.834 -76 -180.501s-112 -74.5 -184 -74.5h-972c-71.333 0 -132.5 24.833 -183.5 74.5s-76.5 109.834 -76.5 180.501v982c0 70.667 25.5 130.834 76.5 180.501s112.167 74.5 183.5 74.5z" />
    <glyph glyph-name="uni1F17B" unicode="L&#x20de;&#x25a0;" 
d="M1150 522h-320v595h-199v-758h519v163zM361 1468h972c72 0 133.333 -24.833 184 -74.5s76 -109.834 76 -180.501v-982c0 -70.667 -25.333 -130.834 -76 -180.501s-112 -74.5 -184 -74.5h-972c-71.333 0 -132.5 24.833 -183.5 74.5s-76.5 109.834 -76.5 180.501v982
c0 70.667 25.5 130.834 76.5 180.501s112.167 74.5 183.5 74.5z" />
    <glyph glyph-name="uni1F17C" unicode="M&#x20de;&#x25a0;" 
d="M618 353v493h4l167 -457h115l168 454h4v-490h158v758h-188l-198 -527h-2l-197 527h-188v-758h157zM361 1468h972c72 0 133.333 -24.833 184 -74.5s76 -109.834 76 -180.501v-982c0 -70.667 -25.333 -130.834 -76 -180.501s-112 -74.5 -184 -74.5h-972
c-71.333 0 -132.5 24.833 -183.5 74.5s-76.5 109.834 -76.5 180.501v982c0 70.667 25.5 130.834 76.5 180.501s112.167 74.5 183.5 74.5z" />
    <glyph glyph-name="uni1F17D" unicode="N&#x20de;&#x25a0;" 
d="M699 353v461h2l321 -461h151v758h-177v-460h-3l-321 460h-150v-758h177zM361 1468h972c72 0 133.333 -24.833 184 -74.5s76 -109.834 76 -180.501v-982c0 -70.667 -25.333 -130.834 -76 -180.501s-112 -74.5 -184 -74.5h-972c-71.333 0 -132.5 24.833 -183.5 74.5
s-76.5 109.834 -76.5 180.501v982c0 70.667 25.5 130.834 76.5 180.501s112.167 74.5 183.5 74.5z" />
    <glyph glyph-name="uni1F17E" unicode="O&#x20de;&#x25a0;" 
d="M847 497c-49.333 0 -90 20.333 -122 61s-48 97.667 -48 171c0 74 16 131.333 48 172s72.667 61 122 61s90 -20.333 122 -61s48 -98 48 -172c0 -73.333 -16 -130.333 -48 -171s-72.667 -61 -122 -61zM847 338c105.333 0 192.5 34.833 261.5 104.5
s103.5 165.167 103.5 286.5c0 122 -34.5 217.833 -103.5 287.5s-156.167 104.5 -261.5 104.5s-192.5 -34.833 -261.5 -104.5s-103.5 -165.5 -103.5 -287.5c0 -121.333 34.5 -216.833 103.5 -286.5s156.167 -104.5 261.5 -104.5zM361 1468h972
c72 0 133.333 -24.833 184 -74.5s76 -109.834 76 -180.501v-982c0 -70.667 -25.333 -130.834 -76 -180.501s-112 -74.5 -184 -74.5h-972c-71.333 0 -132.5 24.833 -183.5 74.5s-76.5 109.834 -76.5 180.501v982c0 70.667 25.5 130.834 76.5 180.501s112.167 74.5 183.5 74.5
z" />
    <glyph glyph-name="uni1F17F" unicode="P&#x20de;&#x25a0;" 
d="M914 1111l-333 0.000976562v-758h198v229h133c86 0 154.167 24.167 204.5 72.5s75.5 111.5 75.5 189.5c0 79.333 -25 143.666 -75 192.999s-117.667 74 -203 74zM1000 844.001c0 -37.333 -10.332 -66.333 -30.999 -87s-50.334 -31 -89.001 -31h-111v237h111
c38 0 67.5 -10.333 88.5 -31s31.5 -50 31.5 -88zM361.001 1468h972c72 0 133.333 -24.833 184 -74.5s76 -109.834 76 -180.501v-982c0 -70.667 -25.333 -130.834 -76 -180.501s-112 -74.5 -184 -74.5h-972c-71.333 0 -132.5 24.833 -183.5 74.5s-76.5 109.834 -76.5 180.501
v982c0 70.667 25.5 130.834 76.5 180.501s112.167 74.5 183.5 74.5z" />
    <glyph glyph-name="uni1F180" unicode="Q&#x20de;&#x25a0;" 
d="M1194 285l-102.001 141c80 72.667 120 173.667 120 303c0 122 -34.5 217.833 -103.5 287.5s-156.167 104.5 -261.5 104.5s-192.5 -34.833 -261.5 -104.5s-103.5 -165.5 -103.5 -287.5c0 -121.333 34.5 -216.833 103.5 -286.5s156.167 -104.5 261.5 -104.5
c40.667 0 77.334 5.33301 110.001 16l43 -69h194zM846.999 497c-49.333 0 -90 20.333 -122 61s-48 97.667 -48 171c0 74 16 131.333 48 172s72.667 61 122 61s90 -20.333 122 -61s48 -98 48 -172c0 -64 -13.667 -115.333 -41 -154l-31 42h-136l72 -116
c-14.667 -2.66699 -26 -4 -34 -4zM360.999 1468h972c72 0 133.333 -24.833 184 -74.5s76 -109.834 76 -180.501v-982c0 -70.667 -25.333 -130.834 -76 -180.501s-112 -74.5 -184 -74.5h-972c-71.333 0 -132.5 24.833 -183.5 74.5s-76.5 109.834 -76.5 180.501v982
c0 70.667 25.5 130.834 76.5 180.501s112.167 74.5 183.5 74.5z" />
    <glyph glyph-name="uni1F181" unicode="R&#x20de;&#x25a0;" 
d="M730 755v210h127c37.333 0 66.5 -9.16699 87.5 -27.5s31.5 -44.833 31.5 -79.5c0 -32.667 -10.667 -58 -32 -76s-51 -27 -89 -27h-125zM879 1111l-330 0.000976562v-758h185v269h114l130 -269h212l-162 301c43.333 15.333 78 41.666 104 78.999s39 82 39 134
c0 76 -25.667 135.667 -77 179s-123 65 -215 65zM361 1468h972c72 0 133.333 -24.833 184 -74.5s76 -109.834 76 -180.501v-982c0 -70.667 -25.333 -130.834 -76 -180.501s-112 -74.5 -184 -74.5h-972c-71.333 0 -132.5 24.833 -183.5 74.5s-76.5 109.834 -76.5 180.501v982
c0 70.667 25.5 130.834 76.5 180.501s112.167 74.5 183.5 74.5z" />
    <glyph glyph-name="uni1F182" unicode="S&#x20de;&#x25a0;" 
d="M526 577c2.66699 -73.333 32.5 -131.163 89.5 -173.496s133.167 -63.5 228.5 -63.5c99.333 0 178.166 22.167 236.499 66.5s87.5 103.833 87.5 178.5c0 118 -72.333 190.667 -217 218l-112 22c-70.667 13.333 -106 38.666 -106 75.999c0 24.667 10.5 44.5 31.5 59.5
s49.167 22.5 84.5 22.5c34.667 0 63 -8 85 -24s34.667 -37.667 38 -65h182c-2.66699 69.333 -32 125.166 -88 167.499s-128.333 63.5 -217 63.5c-91.333 0 -165.166 -21.833 -221.499 -65.5s-84.5 -100.834 -84.5 -171.501c0 -56.667 18 -103.334 54 -140.001
s88 -61.667 156 -75l109 -23c43.333 -8 73.833 -18 91.5 -30s26.5 -28.667 26.5 -50c0 -26.667 -11.5 -47.667 -34.5 -63s-54.167 -23 -93.5 -23c-38.667 0 -70.5 8.5 -95.5 25.5s-38.833 39.5 -41.5 67.5h-189zM361 1468h972c72 0 133.333 -24.833 184 -74.5
s76 -109.834 76 -180.501v-982c0 -70.667 -25.333 -130.834 -76 -180.501s-112 -74.5 -184 -74.5h-972c-71.333 0 -132.5 24.833 -183.5 74.5s-76.5 109.834 -76.5 180.501v982c0 70.667 25.5 130.834 76.5 180.501s112.167 74.5 183.5 74.5z" />
    <glyph glyph-name="uni1F183" unicode="T&#x20de;&#x25a0;" 
d="M946 345v598h218v160h-633v-160h217v-598h198zM361 1468h972c72 0 133.333 -24.833 184 -74.5s76 -109.834 76 -180.501v-982c0 -70.667 -25.333 -130.834 -76 -180.501s-112 -74.5 -184 -74.5h-972c-71.333 0 -132.5 24.833 -183.5 74.5s-76.5 109.834 -76.5 180.501
v982c0 70.667 25.5 130.834 76.5 180.501s112.167 74.5 183.5 74.5z" />
    <glyph glyph-name="uni1F184" unicode="U&#x20de;&#x25a0;" 
d="M847 492c-42 0 -74.834 11.6689 -98.501 35.002s-35.5 55.666 -35.5 96.999v479h-195v-502c0 -81.333 30 -146.5 90 -195.5s139.667 -73.5 239 -73.5c98.667 0 178.167 24.667 238.5 74s90.5 114.333 90.5 195v502h-194v-479c0 -40.667 -12.167 -72.834 -36.5 -96.501
s-57.166 -35.5 -98.499 -35.5zM360.999 1468h972c72 0 133.333 -24.833 184 -74.5s76 -109.834 76 -180.501v-982c0 -70.667 -25.333 -130.834 -76 -180.501s-112 -74.5 -184 -74.5h-972c-71.333 0 -132.5 24.833 -183.5 74.5s-76.5 109.834 -76.5 180.501v982
c0 70.667 25.5 130.834 76.5 180.501s112.167 74.5 183.5 74.5z" />
    <glyph glyph-name="uni1F185" unicode="V&#x20de;&#x25a0;" 
d="M970 342l248 758h-217l-151 -574h-6l-151 574h-217l248 -758h246zM361 1468h972c72 0 133.333 -24.833 184 -74.5s76 -109.834 76 -180.501v-982c0 -70.667 -25.333 -130.834 -76 -180.501s-112 -74.5 -184 -74.5h-972c-71.333 0 -132.5 24.833 -183.5 74.5
s-76.5 109.834 -76.5 180.501v982c0 70.667 25.5 130.834 76.5 180.501s112.167 74.5 183.5 74.5z" />
    <glyph glyph-name="uni1F186" unicode="W&#x20de;&#x25a0;" 
d="M845 836h4l126 -491h171l191 758h-189l-99 -526h-5l-122 526h-150l-122 -526h-5l-98 526h-190l192 -758h170zM361 1468h972c72 0 133.333 -24.833 184 -74.5s76 -109.834 76 -180.501v-982c0 -70.667 -25.333 -130.834 -76 -180.501s-112 -74.5 -184 -74.5h-972
c-71.333 0 -132.5 24.833 -183.5 74.5s-76.5 109.834 -76.5 180.501v982c0 70.667 25.5 130.834 76.5 180.501s112.167 74.5 183.5 74.5z" />
    <glyph glyph-name="uni1F187" unicode="X&#x20de;&#x25a0;" 
d="M1208 1111h-212l-142 -259h-5l-145 259h-222l241 -377l-243 -381h214l146 256h5l147 -256h213l-241 378zM361 1468h972c72 0 133.333 -24.833 184 -74.5s76 -109.834 76 -180.501v-982c0 -70.667 -25.333 -130.834 -76 -180.501s-112 -74.5 -184 -74.5h-972
c-71.333 0 -132.5 24.833 -183.5 74.5s-76.5 109.834 -76.5 180.501v982c0 70.667 25.5 130.834 76.5 180.501s112.167 74.5 183.5 74.5z" />
    <glyph glyph-name="uni1F188" unicode="Y&#x20de;&#x25a0;" 
d="M746 345h203v269l264 489h-218l-146 -307h-4l-146 307h-217l264 -489v-269zM361 1468h972c72 0 133.333 -24.833 184 -74.5s76 -109.834 76 -180.501v-982c0 -70.667 -25.333 -130.834 -76 -180.501s-112 -74.5 -184 -74.5h-972c-71.333 0 -132.5 24.833 -183.5 74.5
s-76.5 109.834 -76.5 180.501v982c0 70.667 25.5 130.834 76.5 180.501s112.167 74.5 183.5 74.5z" />
    <glyph glyph-name="uni1F189" unicode="Z&#x20de;&#x25a0;" 
d="M550 353h598v157h-357v3l346 473v125h-582v-158h340v-2l-345 -474v-124zM361 1468h972c72 0 133.333 -24.833 184 -74.5s76 -109.834 76 -180.501v-982c0 -70.667 -25.333 -130.834 -76 -180.501s-112 -74.5 -184 -74.5h-972c-71.333 0 -132.5 24.833 -183.5 74.5
s-76.5 109.834 -76.5 180.501v982c0 70.667 25.5 130.834 76.5 180.501s112.167 74.5 183.5 74.5z" />
    <glyph glyph-name="plus.uc.whitecircle" unicode="&#x2b;&#x20dd;" 
d="M922 658v-212h-150v212h-208v142h208v208h150v-208h208v-142h-208zM847 105c111.333 0 213.666 27.5 306.999 82.5s166.666 129.667 219.999 224s80 197.166 80 308.499s-26.667 214.166 -80 308.499s-126.666 169 -219.999 224s-195.666 82.5 -306.999 82.5
s-213.666 -27.5 -306.999 -82.5s-166.666 -129.667 -219.999 -224s-80 -197.166 -80 -308.499s26.667 -214.166 80 -308.499s126.666 -169 219.999 -224s195.666 -82.5 306.999 -82.5zM847 -53c-105.333 0 -205.666 20.333 -300.999 61s-177.5 95.5 -246.5 164.5
s-123.833 151.333 -164.5 247s-61 196.167 -61 301.5s20.333 205.666 61 300.999s95.5 177.5 164.5 246.5s151.167 123.833 246.5 164.5s195.666 61 300.999 61s205.666 -20.333 300.999 -61s177.5 -95.5 246.5 -164.5s123.833 -151.167 164.5 -246.5
s61 -195.666 61 -300.999s-20.333 -205.833 -61 -301.5s-95.5 -178 -164.5 -247s-151.167 -123.833 -246.5 -164.5s-195.666 -61 -300.999 -61z" />
    <glyph glyph-name="minus.uc.whitecircle" unicode="&#x2212;&#x20dd;" 
d="M1108 653h-522v147h522v-147zM847 105c111.333 0 213.666 27.5 306.999 82.5s166.666 129.667 219.999 224s80 197.166 80 308.499s-26.667 214.166 -80 308.499s-126.666 169 -219.999 224s-195.666 82.5 -306.999 82.5s-213.666 -27.5 -306.999 -82.5
s-166.666 -129.667 -219.999 -224s-80 -197.166 -80 -308.499s26.667 -214.166 80 -308.499s126.666 -169 219.999 -224s195.666 -82.5 306.999 -82.5zM847 -53c-105.333 0 -205.666 20.333 -300.999 61s-177.5 95.5 -246.5 164.5s-123.833 151.333 -164.5 247
s-61 196.167 -61 301.5s20.333 205.666 61 300.999s95.5 177.5 164.5 246.5s151.167 123.833 246.5 164.5s195.666 61 300.999 61s205.666 -20.333 300.999 -61s177.5 -95.5 246.5 -164.5s123.833 -151.167 164.5 -246.5s61 -195.666 61 -300.999
s-20.333 -205.833 -61 -301.5s-95.5 -178 -164.5 -247s-151.167 -123.833 -246.5 -164.5s-195.666 -61 -300.999 -61z" />
    <glyph glyph-name="multiply.uc.whitecircle" unicode="&#xd7;&#x20dd;" 
d="M847 830l160 156l107 -104l-161 -156l161 -155l-107 -103l-160 156l-161 -156l-105 103l160 155l-161 157l106 103zM847 105c111.333 0 213.666 27.5 306.999 82.5s166.666 129.667 219.999 224s80 197.166 80 308.499s-26.667 214.166 -80 308.499
s-126.666 169 -219.999 224s-195.666 82.5 -306.999 82.5s-213.666 -27.5 -306.999 -82.5s-166.666 -129.667 -219.999 -224s-80 -197.166 -80 -308.499s26.667 -214.166 80 -308.499s126.666 -169 219.999 -224s195.666 -82.5 306.999 -82.5zM847 -53
c-105.333 0 -205.666 20.333 -300.999 61s-177.5 95.5 -246.5 164.5s-123.833 151.333 -164.5 247s-61 196.167 -61 301.5s20.333 205.666 61 300.999s95.5 177.5 164.5 246.5s151.167 123.833 246.5 164.5s195.666 61 300.999 61s205.666 -20.333 300.999 -61
s177.5 -95.5 246.5 -164.5s123.833 -151.167 164.5 -246.5s61 -195.666 61 -300.999s-20.333 -205.833 -61 -301.5s-95.5 -178 -164.5 -247s-151.167 -123.833 -246.5 -164.5s-195.666 -61 -300.999 -61z" />
    <glyph glyph-name="divide.uc.whitecircle" unicode="&#xf7;&#x20dd;" 
d="M1108 667h-522v118h522v-118zM756 943c0 24.667 8.49902 44.834 25.499 60.501s38.5 23.5 64.5 23.5c26.667 0 48.834 -7.83301 66.501 -23.5s26.5 -35.834 26.5 -60.501c0 -23.333 -8.83301 -42.833 -26.5 -58.5s-39.834 -23.5 -66.501 -23.5
c-25.333 0 -46.666 7.83301 -63.999 23.5s-26 35.167 -26 58.5zM755.999 513c0 24 8.66699 43.833 26 59.5s39 23.5 65 23.5s47.833 -7.83301 65.5 -23.5s26.5 -35.5 26.5 -59.5c0 -23.333 -8.83301 -42.833 -26.5 -58.5s-39.5 -23.5 -65.5 -23.5s-47.667 7.83301 -65 23.5
s-26 35.167 -26 58.5zM846.999 105c111.333 0 213.666 27.5 306.999 82.5s166.666 129.667 219.999 224s80 197.166 80 308.499s-26.667 214.166 -80 308.499s-126.666 169 -219.999 224s-195.666 82.5 -306.999 82.5s-213.666 -27.5 -306.999 -82.5
s-166.666 -129.667 -219.999 -224s-80 -197.166 -80 -308.499s26.667 -214.166 80 -308.499s126.666 -169 219.999 -224s195.666 -82.5 306.999 -82.5zM846.999 -53c-105.333 0 -205.666 20.333 -300.999 61s-177.5 95.5 -246.5 164.5s-123.833 151.333 -164.5 247
s-61 196.167 -61 301.5s20.333 205.666 61 300.999s95.5 177.5 164.5 246.5s151.167 123.833 246.5 164.5s195.666 61 300.999 61s205.666 -20.333 300.999 -61s177.5 -95.5 246.5 -164.5s123.833 -151.167 164.5 -246.5s61 -195.666 61 -300.999
s-20.333 -205.833 -61 -301.5s-95.5 -178 -164.5 -247s-151.167 -123.833 -246.5 -164.5s-195.666 -61 -300.999 -61z" />
    <glyph glyph-name="equal.uc.whitecircle" unicode="&#x3d;&#x20dd;" 
d="M1108 536h-522v130h522v-130zM1108 785h-522v131h522v-131zM847 105c111.333 0 213.666 27.5 306.999 82.5s166.666 129.667 219.999 224s80 197.166 80 308.499s-26.667 214.166 -80 308.499s-126.666 169 -219.999 224s-195.666 82.5 -306.999 82.5
s-213.666 -27.5 -306.999 -82.5s-166.666 -129.667 -219.999 -224s-80 -197.166 -80 -308.499s26.667 -214.166 80 -308.499s126.666 -169 219.999 -224s195.666 -82.5 306.999 -82.5zM847 -53c-105.333 0 -205.666 20.333 -300.999 61s-177.5 95.5 -246.5 164.5
s-123.833 151.333 -164.5 247s-61 196.167 -61 301.5s20.333 205.666 61 300.999s95.5 177.5 164.5 246.5s151.167 123.833 246.5 164.5s195.666 61 300.999 61s205.666 -20.333 300.999 -61s177.5 -95.5 246.5 -164.5s123.833 -151.167 164.5 -246.5
s61 -195.666 61 -300.999s-20.333 -205.833 -61 -301.5s-95.5 -178 -164.5 -247s-151.167 -123.833 -246.5 -164.5s-195.666 -61 -300.999 -61z" />
    <glyph glyph-name="greater.uc.whitecircle" unicode="&#x3e;&#x20dd;" 
d="M1126 772v-100l-507 -249v160l304 139v7l-304 138v165zM847 105c111.333 0 213.666 27.5 306.999 82.5s166.666 129.667 219.999 224s80 197.166 80 308.499s-26.667 214.166 -80 308.499s-126.666 169 -219.999 224s-195.666 82.5 -306.999 82.5
s-213.666 -27.5 -306.999 -82.5s-166.666 -129.667 -219.999 -224s-80 -197.166 -80 -308.499s26.667 -214.166 80 -308.499s126.666 -169 219.999 -224s195.666 -82.5 306.999 -82.5zM847 -53c-105.333 0 -205.666 20.333 -300.999 61s-177.5 95.5 -246.5 164.5
s-123.833 151.333 -164.5 247s-61 196.167 -61 301.5s20.333 205.666 61 300.999s95.5 177.5 164.5 246.5s151.167 123.833 246.5 164.5s195.666 61 300.999 61s205.666 -20.333 300.999 -61s177.5 -95.5 246.5 -164.5s123.833 -151.167 164.5 -246.5
s61 -195.666 61 -300.999s-20.333 -205.833 -61 -301.5s-95.5 -178 -164.5 -247s-151.167 -123.833 -246.5 -164.5s-195.666 -61 -300.999 -61z" />
    <glyph glyph-name="less.uc.whitecircle" unicode="&#x3c;&#x20dd;" 
d="M568 672v100l507 260v-165l-305 -138v-7l305 -139v-160zM847 105c111.333 0 213.666 27.5 306.999 82.5s166.666 129.667 219.999 224s80 197.166 80 308.499s-26.667 214.166 -80 308.499s-126.666 169 -219.999 224s-195.666 82.5 -306.999 82.5
s-213.666 -27.5 -306.999 -82.5s-166.666 -129.667 -219.999 -224s-80 -197.166 -80 -308.499s26.667 -214.166 80 -308.499s126.666 -169 219.999 -224s195.666 -82.5 306.999 -82.5zM847 -53c-105.333 0 -205.666 20.333 -300.999 61s-177.5 95.5 -246.5 164.5
s-123.833 151.333 -164.5 247s-61 196.167 -61 301.5s20.333 205.666 61 300.999s95.5 177.5 164.5 246.5s151.167 123.833 246.5 164.5s195.666 61 300.999 61s205.666 -20.333 300.999 -61s177.5 -95.5 246.5 -164.5s123.833 -151.167 164.5 -246.5
s61 -195.666 61 -300.999s-20.333 -205.833 -61 -301.5s-95.5 -178 -164.5 -247s-151.167 -123.833 -246.5 -164.5s-195.666 -61 -300.999 -61z" />
    <glyph glyph-name="numbersign.whitecircle" unicode="&#x30;&#x20dd;" 
d="M1138 787h-104l-23 -112h102l-23 -115h-103l-37 -179h-124l37 179h-107l-36 -179h-124l37 179h-100l23 115h100l24 112h-98l22 116h99l35 171h123l-35 -171h107l35 171h123l-34 -171h104zM796 796l-29 -137h128l28 137h-127zM847 105
c111.333 0 213.666 27.5 306.999 82.5s166.666 129.667 219.999 224s80 197.166 80 308.499s-26.667 214.166 -80 308.499s-126.666 169 -219.999 224s-195.666 82.5 -306.999 82.5s-213.666 -27.5 -306.999 -82.5s-166.666 -129.667 -219.999 -224
s-80 -197.166 -80 -308.499s26.667 -214.166 80 -308.499s126.666 -169 219.999 -224s195.666 -82.5 306.999 -82.5zM847 -53c-105.333 0 -205.666 20.333 -300.999 61s-177.5 95.5 -246.5 164.5s-123.833 151.333 -164.5 247s-61 196.167 -61 301.5
s20.333 205.666 61 300.999s95.5 177.5 164.5 246.5s151.167 123.833 246.5 164.5s195.666 61 300.999 61s205.666 -20.333 300.999 -61s177.5 -95.5 246.5 -164.5s123.833 -151.167 164.5 -246.5s61 -195.666 61 -300.999s-20.333 -205.833 -61 -301.5
s-95.5 -178 -164.5 -247s-151.167 -123.833 -246.5 -164.5s-195.666 -61 -300.999 -61z" />
    <glyph glyph-name="uni25BC.whitecircle" unicode="&#x25bc;&#x20dd;" 
d="M1170 946l-323 -559l-322 559h645zM847 105c111.333 0 213.666 27.5 306.999 82.5s166.666 129.667 219.999 224s80 197.166 80 308.499s-26.667 214.166 -80 308.499s-126.666 169 -219.999 224s-195.666 82.5 -306.999 82.5s-213.666 -27.5 -306.999 -82.5
s-166.666 -129.667 -219.999 -224s-80 -197.166 -80 -308.499s26.667 -214.166 80 -308.499s126.666 -169 219.999 -224s195.666 -82.5 306.999 -82.5zM847 -53c-105.333 0 -205.666 20.333 -300.999 61s-177.5 95.5 -246.5 164.5s-123.833 151.333 -164.5 247
s-61 196.167 -61 301.5s20.333 205.666 61 300.999s95.5 177.5 164.5 246.5s151.167 123.833 246.5 164.5s195.666 61 300.999 61s205.666 -20.333 300.999 -61s177.5 -95.5 246.5 -164.5s123.833 -151.167 164.5 -246.5s61 -195.666 61 -300.999
s-20.333 -205.833 -61 -301.5s-95.5 -178 -164.5 -247s-151.167 -123.833 -246.5 -164.5s-195.666 -61 -300.999 -61z" />
    <glyph glyph-name="uni25B2.whitecircle" unicode="&#x25b2;&#x20dd;" 
d="M1170 508h-645l322 558zM847 105c111.333 0 213.666 27.5 306.999 82.5s166.666 129.667 219.999 224s80 197.166 80 308.499s-26.667 214.166 -80 308.499s-126.666 169 -219.999 224s-195.666 82.5 -306.999 82.5s-213.666 -27.5 -306.999 -82.5
s-166.666 -129.667 -219.999 -224s-80 -197.166 -80 -308.499s26.667 -214.166 80 -308.499s126.666 -169 219.999 -224s195.666 -82.5 306.999 -82.5zM847 -53c-105.333 0 -205.666 20.333 -300.999 61s-177.5 95.5 -246.5 164.5s-123.833 151.333 -164.5 247
s-61 196.167 -61 301.5s20.333 205.666 61 300.999s95.5 177.5 164.5 246.5s151.167 123.833 246.5 164.5s195.666 61 300.999 61s205.666 -20.333 300.999 -61s177.5 -95.5 246.5 -164.5s123.833 -151.167 164.5 -246.5s61 -195.666 61 -300.999
s-20.333 -205.833 -61 -301.5s-95.5 -178 -164.5 -247s-151.167 -123.833 -246.5 -164.5s-195.666 -61 -300.999 -61z" />
    <glyph glyph-name="uni25C0.whitecircle" unicode="&#x25c0;&#x20dd;" 
d="M1065 405l-559 323l559 322v-645zM847 105c111.333 0 213.666 27.5 306.999 82.5s166.666 129.667 219.999 224s80 197.166 80 308.499s-26.667 214.166 -80 308.499s-126.666 169 -219.999 224s-195.666 82.5 -306.999 82.5s-213.666 -27.5 -306.999 -82.5
s-166.666 -129.667 -219.999 -224s-80 -197.166 -80 -308.499s26.667 -214.166 80 -308.499s126.666 -169 219.999 -224s195.666 -82.5 306.999 -82.5zM847 -53c-105.333 0 -205.666 20.333 -300.999 61s-177.5 95.5 -246.5 164.5s-123.833 151.333 -164.5 247
s-61 196.167 -61 301.5s20.333 205.666 61 300.999s95.5 177.5 164.5 246.5s151.167 123.833 246.5 164.5s195.666 61 300.999 61s205.666 -20.333 300.999 -61s177.5 -95.5 246.5 -164.5s123.833 -151.167 164.5 -246.5s61 -195.666 61 -300.999
s-20.333 -205.833 -61 -301.5s-95.5 -178 -164.5 -247s-151.167 -123.833 -246.5 -164.5s-195.666 -61 -300.999 -61z" />
    <glyph glyph-name="uni25B6.whitecircle" unicode="&#x25b6;&#x20dd;" 
d="M629 405v645l559 -322zM847 105c111.333 0 213.666 27.5 306.999 82.5s166.666 129.667 219.999 224s80 197.166 80 308.499s-26.667 214.166 -80 308.499s-126.666 169 -219.999 224s-195.666 82.5 -306.999 82.5s-213.666 -27.5 -306.999 -82.5
s-166.666 -129.667 -219.999 -224s-80 -197.166 -80 -308.499s26.667 -214.166 80 -308.499s126.666 -169 219.999 -224s195.666 -82.5 306.999 -82.5zM847 -53c-105.333 0 -205.666 20.333 -300.999 61s-177.5 95.5 -246.5 164.5s-123.833 151.333 -164.5 247
s-61 196.167 -61 301.5s20.333 205.666 61 300.999s95.5 177.5 164.5 246.5s151.167 123.833 246.5 164.5s195.666 61 300.999 61s205.666 -20.333 300.999 -61s177.5 -95.5 246.5 -164.5s123.833 -151.167 164.5 -246.5s61 -195.666 61 -300.999
s-20.333 -205.833 -61 -301.5s-95.5 -178 -164.5 -247s-151.167 -123.833 -246.5 -164.5s-195.666 -61 -300.999 -61z" />
    <glyph glyph-name="question.whitecircle" unicode="&#x3f;&#x20dd;" 
d="M732 458c0 26 9.5 46.667 28.5 62s44.167 23 75.5 23c32.667 0 58.5 -7.66699 77.5 -23s28.5 -36 28.5 -62c0 -25.333 -9.5 -45.666 -28.5 -60.999s-44.833 -23 -77.5 -23c-31.333 0 -56.5 7.66699 -75.5 23s-28.5 35.666 -28.5 60.999zM755 605
c-0.666992 2.66699 -1 13.3359 -1 32.0029c-2.66699 61.333 27.333 113 90 155c31.333 20.667 53 37.5 65 50.5s18 28.833 18 47.5c0 23.333 -7.83301 41.166 -23.5 53.499s-35.5 18.5 -59.5 18.5c-26 0 -46.667 -7.83301 -62 -23.5s-23.333 -35.834 -24 -60.501h-154
c-0.666992 70.667 22.5 123.5 69.5 158.5s108.167 52.5 183.5 52.5c70 0 127.667 -16.833 173 -50.5s68 -80.834 68 -141.501c0 -38 -8.83301 -69.333 -26.5 -94s-43.167 -47.667 -76.5 -69c-38 -26 -62.5 -45.167 -73.5 -57.5s-16.5 -29.833 -16.5 -52.5v-19h-150z
M847 105.002c111.333 0 213.666 27.5 306.999 82.5s166.666 129.667 219.999 224s80 197.166 80 308.499s-26.667 214.166 -80 308.499s-126.666 169 -219.999 224s-195.666 82.5 -306.999 82.5s-213.666 -27.5 -306.999 -82.5s-166.666 -129.667 -219.999 -224
s-80 -197.166 -80 -308.499s26.667 -214.166 80 -308.499s126.666 -169 219.999 -224s195.666 -82.5 306.999 -82.5zM847 -52.998c-105.333 0 -205.666 20.333 -300.999 61s-177.5 95.5 -246.5 164.5s-123.833 151.333 -164.5 247s-61 196.167 -61 301.5
s20.333 205.666 61 300.999s95.5 177.5 164.5 246.5s151.167 123.833 246.5 164.5s195.666 61 300.999 61s205.666 -20.333 300.999 -61s177.5 -95.5 246.5 -164.5s123.833 -151.167 164.5 -246.5s61 -195.666 61 -300.999s-20.333 -205.833 -61 -301.5
s-95.5 -178 -164.5 -247s-151.167 -123.833 -246.5 -164.5s-195.666 -61 -300.999 -61z" />
    <glyph glyph-name="exclam.whitecircle" unicode="&#x21;&#x20dd;" 
d="M744 458c0 26 9.5 46.833 28.5 62.5s44.833 23.5 77.5 23.5c32 0 57.333 -7.83301 76 -23.5s28 -36.5 28 -62.5c0 -25.333 -9.33301 -45.666 -28 -60.999s-44 -23 -76 -23s-57.667 7.66699 -77 23s-29 35.666 -29 60.999zM756 1077h187l-20 -455h-147zM847 105
c111.333 0 213.666 27.5 306.999 82.5s166.666 129.667 219.999 224s80 197.166 80 308.499s-26.667 214.166 -80 308.499s-126.666 169 -219.999 224s-195.666 82.5 -306.999 82.5s-213.666 -27.5 -306.999 -82.5s-166.666 -129.667 -219.999 -224
s-80 -197.166 -80 -308.499s26.667 -214.166 80 -308.499s126.666 -169 219.999 -224s195.666 -82.5 306.999 -82.5zM847 -53c-105.333 0 -205.666 20.333 -300.999 61s-177.5 95.5 -246.5 164.5s-123.833 151.333 -164.5 247s-61 196.167 -61 301.5
s20.333 205.666 61 300.999s95.5 177.5 164.5 246.5s151.167 123.833 246.5 164.5s195.666 61 300.999 61s205.666 -20.333 300.999 -61s177.5 -95.5 246.5 -164.5s123.833 -151.167 164.5 -246.5s61 -195.666 61 -300.999s-20.333 -205.833 -61 -301.5
s-95.5 -178 -164.5 -247s-151.167 -123.833 -246.5 -164.5s-195.666 -61 -300.999 -61z" />
    <glyph glyph-name="uni2717.whitecircle" unicode="&#x2717;&#x20dd;" 
d="M851 829l238 237l105 -105l-237 -237l237 -238l-105 -107l-238 237l-239 -237l-106 106l238 239l-238 238l106 106zM847 105c111.333 0 213.666 27.5 306.999 82.5s166.666 129.667 219.999 224s80 197.166 80 308.499s-26.667 214.166 -80 308.499
s-126.666 169 -219.999 224s-195.666 82.5 -306.999 82.5s-213.666 -27.5 -306.999 -82.5s-166.666 -129.667 -219.999 -224s-80 -197.166 -80 -308.499s26.667 -214.166 80 -308.499s126.666 -169 219.999 -224s195.666 -82.5 306.999 -82.5zM847 -53
c-105.333 0 -205.666 20.333 -300.999 61s-177.5 95.5 -246.5 164.5s-123.833 151.333 -164.5 247s-61 196.167 -61 301.5s20.333 205.666 61 300.999s95.5 177.5 164.5 246.5s151.167 123.833 246.5 164.5s195.666 61 300.999 61s205.666 -20.333 300.999 -61
s177.5 -95.5 246.5 -164.5s123.833 -151.167 164.5 -246.5s61 -195.666 61 -300.999s-20.333 -205.833 -61 -301.5s-95.5 -178 -164.5 -247s-151.167 -123.833 -246.5 -164.5s-195.666 -61 -300.999 -61z" />
    <glyph glyph-name="uni2713.whitecircle" unicode="&#x2713;&#x20dd;" 
d="M1273 925l-544 -537l-303 298l112 110l192 -192l434 433zM847 105c111.333 0 213.666 27.5 306.999 82.5s166.666 129.667 219.999 224s80 197.166 80 308.499s-26.667 214.166 -80 308.499s-126.666 169 -219.999 224s-195.666 82.5 -306.999 82.5
s-213.666 -27.5 -306.999 -82.5s-166.666 -129.667 -219.999 -224s-80 -197.166 -80 -308.499s26.667 -214.166 80 -308.499s126.666 -169 219.999 -224s195.666 -82.5 306.999 -82.5zM847 -53c-105.333 0 -205.666 20.333 -300.999 61s-177.5 95.5 -246.5 164.5
s-123.833 151.333 -164.5 247s-61 196.167 -61 301.5s20.333 205.666 61 300.999s95.5 177.5 164.5 246.5s151.167 123.833 246.5 164.5s195.666 61 300.999 61s205.666 -20.333 300.999 -61s177.5 -95.5 246.5 -164.5s123.833 -151.167 164.5 -246.5
s61 -195.666 61 -300.999s-20.333 -205.833 -61 -301.5s-95.5 -178 -164.5 -247s-151.167 -123.833 -246.5 -164.5s-195.666 -61 -300.999 -61z" />
    <glyph glyph-name="zero.whitesquare" unicode="&#x30;&#x20de;" 
d="M847 511c36.667 0 65.5 18.5 86.5 55.5s31.5 91.5 31.5 163.5s-10.5 126.5 -31.5 163.5s-49.833 55.5 -86.5 55.5s-65.5 -18.5 -86.5 -55.5s-31.5 -91.5 -31.5 -163.5s10.5 -126.5 31.5 -163.5s49.833 -55.5 86.5 -55.5zM846 373c-85.333 0 -153.666 31.667 -204.999 95
s-77 150.666 -77 261.999s25.667 198.833 77 262.5s119.666 95.5 204.999 95.5c84.667 0 153.167 -31.833 205.5 -95.5s78.5 -151.167 78.5 -262.5s-26 -198.666 -78 -261.999s-120.667 -95 -206 -95zM361 1468h972c72 0 133.333 -24.833 184 -74.5s76 -109.834 76 -180.501
v-982c0 -70.667 -25.333 -130.834 -76 -180.501s-112 -74.5 -184 -74.5h-972c-71.333 0 -132.5 24.833 -183.5 74.5s-76.5 109.834 -76.5 180.501v982c0 70.667 25.5 130.834 76.5 180.501s112.167 74.5 183.5 74.5zM1431 1189c0 36 -13.333 66.833 -40 92.5
s-58.667 38.5 -96 38.5h-896c-37.333 0 -69.333 -12.833 -96 -38.5s-40 -56.5 -40 -92.5v-934c0 -35.333 13.5 -66 40.5 -92s58.833 -39 95.5 -39h896c37.333 0 69.333 12.833 96 38.5s40 56.5 40 92.5v934z" />
    <glyph glyph-name="one.whitesquare" unicode="&#x31;&#x20de;" 
d="M976 385h-175v536h-7l-162 -110v152l169 114h175v-692zM361 1468h972c72 0 133.333 -24.833 184 -74.5s76 -109.834 76 -180.501v-982c0 -70.667 -25.333 -130.834 -76 -180.501s-112 -74.5 -184 -74.5h-972c-71.333 0 -132.5 24.833 -183.5 74.5
s-76.5 109.834 -76.5 180.501v982c0 70.667 25.5 130.834 76.5 180.501s112.167 74.5 183.5 74.5zM1431 1189c0 36 -13.333 66.833 -40 92.5s-58.667 38.5 -96 38.5h-896c-37.333 0 -69.333 -12.833 -96 -38.5s-40 -56.5 -40 -92.5v-934c0 -35.333 13.5 -66 40.5 -92
s58.833 -39 95.5 -39h896c37.333 0 69.333 12.833 96 38.5s40 56.5 40 92.5v934z" />
    <glyph glyph-name="two.whitesquare" unicode="&#x32;&#x20de;" 
d="M750 859l-163.001 0.00195312v4c0 64 23 117.667 69 161s110 65 192 65c76 0 137.667 -18.833 185 -56.5s71 -85.834 71 -144.501c0 -38.667 -10.667 -73.834 -32 -105.501s-54 -68.5 -98 -110.5l-140 -145v-6h281v-137h-519v106l257 254
c26.667 26 46.334 48.5 59.001 67.5s19 39.5 19 61.5c0 24 -8.33301 43.5 -25 58.5s-38 22.5 -64 22.5c-28.667 0 -51.167 -8.66699 -67.5 -26s-24.5 -39 -24.5 -65v-4zM360.999 1468h972c72 0 133.333 -24.833 184 -74.5s76 -109.834 76 -180.501v-982
c0 -70.667 -25.333 -130.834 -76 -180.501s-112 -74.5 -184 -74.5h-972c-71.333 0 -132.5 24.833 -183.5 74.5s-76.5 109.834 -76.5 180.501v982c0 70.667 25.5 130.834 76.5 180.501s112.167 74.5 183.5 74.5zM1431 1189c0 36 -13.333 66.833 -40 92.5
s-58.667 38.5 -96 38.5h-896c-37.333 0 -69.333 -12.833 -96 -38.5s-40 -56.5 -40 -92.5v-934c0 -35.333 13.5 -66 40.5 -92s58.833 -39 95.5 -39h896c37.333 0 69.333 12.833 96 38.5s40 56.5 40 92.5v934z" />
    <glyph glyph-name="three.whitesquare" unicode="&#x33;&#x20de;" 
d="M770 674v128.004h72c28.667 0 52 7.83301 70 23.5s27 35.5 27 59.5c-0.666992 23.333 -9.83398 42.166 -27.501 56.499s-40.834 21.5 -69.501 21.5s-52.167 -7.83301 -70.5 -23.5s-28.166 -34.834 -29.499 -57.501h-162c2.66699 62.667 27 112.667 73 150
s110.333 56.333 193 57c78 0 140.667 -16.833 188 -50.5s71.666 -77.834 72.999 -132.501c0.666992 -40.667 -13 -75.167 -41 -103.5s-58.667 -45.166 -92 -50.499v-8c39.333 -3.33301 74.5 -19.5 105.5 -48.5s46.833 -67.833 47.5 -116.5
c0.666992 -62.667 -25.666 -112.834 -78.999 -150.501s-121.666 -56.5 -204.999 -56.5c-82.667 0 -148.5 19.5 -197.5 58.5s-74.167 88.833 -75.5 149.5h160c1.33301 -23.333 12.333 -42.333 33 -57s47 -22.334 79 -23.001c34 0 61.5 8.16699 82.5 24.5s31.5 37.5 31.5 63.5
c-0.666992 26 -11 46.833 -31 62.5s-46.667 23.5 -80 23.5h-75zM361 1468h972c72 0 133.333 -24.833 184 -74.5s76 -109.834 76 -180.501v-982c0 -70.667 -25.333 -130.834 -76 -180.501s-112 -74.5 -184 -74.5h-972c-71.333 0 -132.5 24.833 -183.5 74.5
s-76.5 109.834 -76.5 180.501v982c0 70.667 25.5 130.834 76.5 180.501s112.167 74.5 183.5 74.5zM1431 1189c0 36 -13.333 66.833 -40 92.5s-58.667 38.5 -96 38.5h-896c-37.333 0 -69.333 -12.833 -96 -38.5s-40 -56.5 -40 -92.5v-934c0 -35.333 13.5 -66 40.5 -92
s58.833 -39 95.5 -39h896c37.333 0 69.333 12.833 96 38.5s40 56.5 40 92.5v934z" />
    <glyph glyph-name="four.whitesquare" unicode="&#x34;&#x20de;" 
d="M803 1077h241v-441h94v-131h-94v-120h-151v120h-348v133c42.667 80 128.667 226.333 258 439zM698 636h195.001v327h-7c-72.667 -113.333 -135.334 -221.333 -188.001 -324v-3zM361.001 1468h972c72 0 133.333 -24.833 184 -74.5s76 -109.834 76 -180.501v-982
c0 -70.667 -25.333 -130.834 -76 -180.501s-112 -74.5 -184 -74.5h-972c-71.333 0 -132.5 24.833 -183.5 74.5s-76.5 109.834 -76.5 180.501v982c0 70.667 25.5 130.834 76.5 180.501s112.167 74.5 183.5 74.5zM1431 1189c0 36 -13.333 66.833 -40 92.5
s-58.667 38.5 -96 38.5h-896c-37.333 0 -69.333 -12.833 -96 -38.5s-40 -56.5 -40 -92.5v-934c0 -35.333 13.5 -66 40.5 -92s58.833 -39 95.5 -39h896c37.333 0 69.333 12.833 96 38.5s40 56.5 40 92.5v934z" />
    <glyph glyph-name="five.whitesquare" unicode="&#x35;&#x20de;" 
d="M586 579h160.999c4.66699 -23.333 17.334 -41.333 38.001 -54s44.667 -19 72 -19c30.667 0 57 10.5 79 31.5s33 48.5 33 82.5c0 32 -11 58 -33 78s-48.667 30 -80 30c-24.667 0 -45.834 -5.5 -63.501 -16.5s-30.5 -24.167 -38.5 -39.5h-154l29 408h464v-127h-330
l-14 -168h8c9.33301 16.667 27.5 31.334 54.5 44.001s58.5 19 94.5 19c66.667 0 121.834 -20.167 165.501 -60.5s65.5 -94.5 65.5 -162.5c0 -75.333 -25.833 -135.833 -77.5 -181.5s-120.167 -68.5 -205.5 -68.5c-77.333 0 -140.833 19.167 -190.5 57.5
s-75.5 87.166 -77.5 146.499zM360.999 1468h972c72 0 133.333 -24.833 184 -74.5s76 -109.834 76 -180.501v-982c0 -70.667 -25.333 -130.834 -76 -180.501s-112 -74.5 -184 -74.5h-972c-71.333 0 -132.5 24.833 -183.5 74.5s-76.5 109.834 -76.5 180.501v982
c0 70.667 25.5 130.834 76.5 180.501s112.167 74.5 183.5 74.5zM1431 1189c0 36 -13.333 66.833 -40 92.5s-58.667 38.5 -96 38.5h-896c-37.333 0 -69.333 -12.833 -96 -38.5s-40 -56.5 -40 -92.5v-934c0 -35.333 13.5 -66 40.5 -92s58.833 -39 95.5 -39h896
c37.333 0 69.333 12.833 96 38.5s40 56.5 40 92.5v934z" />
    <glyph glyph-name="six.whitesquare" unicode="&#x36;&#x20de;" 
d="M1119 907h-160.998c-6 15.333 -16.833 28.333 -32.5 39s-36.167 16 -61.5 16c-42 0 -75 -20.167 -99 -60.5s-34.667 -93.5 -32 -159.5h7c12.667 28 33.167 50.667 61.5 68s64.166 26 107.499 26c63.333 0 116.666 -19.333 159.999 -58s65 -92 65 -160
c0 -76 -25.5 -136 -76.5 -180s-117.5 -66 -199.5 -66c-109.333 0 -189 40 -239 120c-36.667 57.333 -55 133.333 -55 228c0 120 26.667 211.5 80 274.5s126.666 94.5 219.999 94.5c72.667 0 132.334 -18 179.001 -54s72 -78.667 76 -128zM746.002 613
c0 -34 10.499 -61.167 31.499 -81.5s47.5 -30.5 79.5 -30.5c32.667 0 59.334 9.83301 80.001 29.5s31 46.834 31 81.501c0 33.333 -10.667 59.666 -32 78.999s-47.666 29 -78.999 29c-32.667 0 -59.334 -10 -80.001 -30s-31 -45.667 -31 -77zM361.001 1468h972
c72 0 133.333 -24.833 184 -74.5s76 -109.834 76 -180.501v-982c0 -70.667 -25.333 -130.834 -76 -180.501s-112 -74.5 -184 -74.5h-972c-71.333 0 -132.5 24.833 -183.5 74.5s-76.5 109.834 -76.5 180.501v982c0 70.667 25.5 130.834 76.5 180.501s112.167 74.5 183.5 74.5
zM1431 1189c0 36 -13.333 66.833 -40 92.5s-58.667 38.5 -96 38.5h-896c-37.333 0 -69.333 -12.833 -96 -38.5s-40 -56.5 -40 -92.5v-934c0 -35.333 13.5 -66 40.5 -92s58.833 -39 95.5 -39h896c37.333 0 69.333 12.833 96 38.5s40 56.5 40 92.5v934z" />
    <glyph glyph-name="seven.whitesquare" unicode="&#x37;&#x20de;" 
d="M591 1077h523v-138l-281 -554h-186l290 549v7h-346v136zM361 1468h972c72 0 133.333 -24.833 184 -74.5s76 -109.834 76 -180.501v-982c0 -70.667 -25.333 -130.834 -76 -180.501s-112 -74.5 -184 -74.5h-972c-71.333 0 -132.5 24.833 -183.5 74.5
s-76.5 109.834 -76.5 180.501v982c0 70.667 25.5 130.834 76.5 180.501s112.167 74.5 183.5 74.5zM1431 1189c0 36 -13.333 66.833 -40 92.5s-58.667 38.5 -96 38.5h-896c-37.333 0 -69.333 -12.833 -96 -38.5s-40 -56.5 -40 -92.5v-934c0 -35.333 13.5 -66 40.5 -92
s58.833 -39 95.5 -39h896c37.333 0 69.333 12.833 96 38.5s40 56.5 40 92.5v934z" />
    <glyph glyph-name="eight.whitesquare" unicode="&#x38;&#x20de;" 
d="M847 489c34 0 62.001 9.33301 84.001 28s33 42.667 33 72s-10.833 53.5 -32.5 72.5s-49.834 28.5 -84.501 28.5s-63 -9.5 -85 -28.5s-33 -43.167 -33 -72.5s11 -53.333 33 -72s50.333 -28 85 -28zM847.001 799c28.667 0 52 8.16699 70 24.5s27 37.166 27 62.499
c0 24.667 -9.16699 45 -27.5 61s-41.5 24 -69.5 24s-51.167 -8 -69.5 -24s-27.5 -36.333 -27.5 -61c0 -25.333 9 -46.166 27 -62.499s41.333 -24.5 70 -24.5zM846.001 372c-88.667 0 -159.667 18.666 -213 55.999s-80 87 -80 149c0 43.333 14 80.5 42 111.5
s65.333 50.5 112 58.5v6c-83.333 24.667 -125 75 -125 151c0 55.333 24.333 100 73 134s112.667 51 192 51s143.333 -17 192 -51s73 -78.667 73 -134c0 -36.667 -10.833 -68.167 -32.5 -94.5s-52.5 -45.166 -92.5 -56.499v-6c46.667 -8 84 -27.333 112 -58
s42 -67.667 42 -111c0 -62.667 -26.833 -112.667 -80.5 -150s-125.167 -56 -214.5 -56zM361.001 1468h972c72 0 133.333 -24.833 184 -74.5s76 -109.834 76 -180.501v-982c0 -70.667 -25.333 -130.834 -76 -180.501s-112 -74.5 -184 -74.5h-972
c-71.333 0 -132.5 24.833 -183.5 74.5s-76.5 109.834 -76.5 180.501v982c0 70.667 25.5 130.834 76.5 180.501s112.167 74.5 183.5 74.5zM1431 1189c0 36 -13.333 66.833 -40 92.5s-58.667 38.5 -96 38.5h-896c-37.333 0 -69.333 -12.833 -96 -38.5s-40 -56.5 -40 -92.5
v-934c0 -35.333 13.5 -66 40.5 -92s58.833 -39 95.5 -39h896c37.333 0 69.333 12.833 96 38.5s40 56.5 40 92.5v934z" />
    <glyph glyph-name="nine.whitesquare" unicode="&#x39;&#x20de;" 
d="M560 847c0 72.667 26.1699 131.169 78.5029 175.502s119.166 66.5 200.499 66.5c87.333 0 157.666 -28.167 210.999 -84.5s80 -144.833 80 -265.5c0 -118.667 -25.667 -209.334 -77 -272.001s-126 -94 -224 -94c-72.667 0 -131.5 17.167 -176.5 51.5
s-70.167 76.5 -75.5 126.5h162c5.33301 -14.667 16 -26.834 32 -36.501s35.667 -14.5 59 -14.5c47.333 0 82.5 20.5 105.5 61.5s32.5 93.167 28.5 156.5h-7c-11.333 -28 -31.5 -50.833 -60.5 -68.5s-64.167 -26.5 -105.5 -26.5c-66.667 0 -121.834 20 -165.501 60
s-65.5 94.667 -65.5 164zM947.003 848.002c0 34.667 -10.332 62.167 -30.999 82.5s-47.334 30.5 -80.001 30.5c-30.667 0 -56.5 -10.167 -77.5 -30.5s-31.5 -47.5 -31.5 -81.5s10.5 -60.833 31.5 -80.5s47.5 -29.5 79.5 -29.5c31.333 0 57.333 9.66699 78 29s31 46 31 80z
M361.004 1468h972c72 0 133.333 -24.833 184 -74.5s76 -109.834 76 -180.501v-982c0 -70.667 -25.333 -130.834 -76 -180.501s-112 -74.5 -184 -74.5h-972c-71.333 0 -132.5 24.833 -183.5 74.5s-76.5 109.834 -76.5 180.501v982c0 70.667 25.5 130.834 76.5 180.501
s112.167 74.5 183.5 74.5zM1431 1189c0 36 -13.333 66.833 -40 92.5s-58.667 38.5 -96 38.5h-896c-37.333 0 -69.333 -12.833 -96 -38.5s-40 -56.5 -40 -92.5v-934c0 -35.333 13.5 -66 40.5 -92s58.833 -39 95.5 -39h896c37.333 0 69.333 12.833 96 38.5s40 56.5 40 92.5
v934z" />
    <glyph glyph-name="plus.uc.whitesquare" unicode="&#x2b;&#x20de;" 
d="M922 658v-212h-150v212h-208v142h208v208h150v-208h208v-142h-208zM361 1468h972c72 0 133.333 -24.833 184 -74.5s76 -109.834 76 -180.501v-982c0 -70.667 -25.333 -130.834 -76 -180.501s-112 -74.5 -184 -74.5h-972c-71.333 0 -132.5 24.833 -183.5 74.5
s-76.5 109.834 -76.5 180.501v982c0 70.667 25.5 130.834 76.5 180.501s112.167 74.5 183.5 74.5zM1431 1189c0 36 -13.333 66.833 -40 92.5s-58.667 38.5 -96 38.5h-896c-37.333 0 -69.333 -12.833 -96 -38.5s-40 -56.5 -40 -92.5v-934c0 -35.333 13.5 -66 40.5 -92
s58.833 -39 95.5 -39h896c37.333 0 69.333 12.833 96 38.5s40 56.5 40 92.5v934z" />
    <glyph glyph-name="minus.uc.whitesquare" unicode="&#x2212;&#x20de;" 
d="M1108 653h-522v147h522v-147zM361 1468h972c72 0 133.333 -24.833 184 -74.5s76 -109.834 76 -180.501v-982c0 -70.667 -25.333 -130.834 -76 -180.501s-112 -74.5 -184 -74.5h-972c-71.333 0 -132.5 24.833 -183.5 74.5s-76.5 109.834 -76.5 180.501v982
c0 70.667 25.5 130.834 76.5 180.501s112.167 74.5 183.5 74.5zM1431 1189c0 36 -13.333 66.833 -40 92.5s-58.667 38.5 -96 38.5h-896c-37.333 0 -69.333 -12.833 -96 -38.5s-40 -56.5 -40 -92.5v-934c0 -35.333 13.5 -66 40.5 -92s58.833 -39 95.5 -39h896
c37.333 0 69.333 12.833 96 38.5s40 56.5 40 92.5v934z" />
    <glyph glyph-name="multiply.uc.whitesquare" unicode="&#xd7;&#x20de;" 
d="M847 830l160 156l106 -103l-160 -156l160 -156l-106 -103l-160 156l-161 -156l-106 103l161 156l-161 156l106 103zM361 1468h972c72 0 133.333 -24.833 184 -74.5s76 -109.834 76 -180.501v-982c0 -70.667 -25.333 -130.834 -76 -180.501s-112 -74.5 -184 -74.5h-972
c-71.333 0 -132.5 24.833 -183.5 74.5s-76.5 109.834 -76.5 180.501v982c0 70.667 25.5 130.834 76.5 180.501s112.167 74.5 183.5 74.5zM1431 1189c0 36 -13.333 66.833 -40 92.5s-58.667 38.5 -96 38.5h-896c-37.333 0 -69.333 -12.833 -96 -38.5s-40 -56.5 -40 -92.5
v-934c0 -35.333 13.5 -66 40.5 -92s58.833 -39 95.5 -39h896c37.333 0 69.333 12.833 96 38.5s40 56.5 40 92.5v934z" />
    <glyph glyph-name="divide.uc.whitesquare" unicode="&#xf7;&#x20de;" 
d="M1108 667h-522v118h522v-118zM756 943c0 24.667 8.49902 44.834 25.499 60.501s38.5 23.5 64.5 23.5c26.667 0 48.834 -7.83301 66.501 -23.5s26.5 -35.834 26.5 -60.501c0 -23.333 -8.83301 -42.833 -26.5 -58.5s-39.834 -23.5 -66.501 -23.5
c-25.333 0 -46.666 7.83301 -63.999 23.5s-26 35.167 -26 58.5zM755.999 513c0 24 8.66699 43.833 26 59.5s39 23.5 65 23.5s47.833 -7.83301 65.5 -23.5s26.5 -35.5 26.5 -59.5c0 -23.333 -8.83301 -42.833 -26.5 -58.5s-39.5 -23.5 -65.5 -23.5s-47.667 7.83301 -65 23.5
s-26 35.167 -26 58.5zM360.999 1468h972c72 0 133.333 -24.833 184 -74.5s76 -109.834 76 -180.501v-982c0 -70.667 -25.333 -130.834 -76 -180.501s-112 -74.5 -184 -74.5h-972c-71.333 0 -132.5 24.833 -183.5 74.5s-76.5 109.834 -76.5 180.501v982
c0 70.667 25.5 130.834 76.5 180.501s112.167 74.5 183.5 74.5zM1431 1189c0 36 -13.333 66.833 -40 92.5s-58.667 38.5 -96 38.5h-896c-37.333 0 -69.333 -12.833 -96 -38.5s-40 -56.5 -40 -92.5v-934c0 -35.333 13.5 -66 40.5 -92s58.833 -39 95.5 -39h896
c37.333 0 69.333 12.833 96 38.5s40 56.5 40 92.5v934z" />
    <glyph glyph-name="equal.uc.whitesquare" unicode="&#x3d;&#x20de;" 
d="M1108 536h-522v130h522v-130zM1108 785h-522v131h522v-131zM361 1468h972c72 0 133.333 -24.833 184 -74.5s76 -109.834 76 -180.501v-982c0 -70.667 -25.333 -130.834 -76 -180.501s-112 -74.5 -184 -74.5h-972c-71.333 0 -132.5 24.833 -183.5 74.5
s-76.5 109.834 -76.5 180.501v982c0 70.667 25.5 130.834 76.5 180.501s112.167 74.5 183.5 74.5zM1431 1189c0 36 -13.333 66.833 -40 92.5s-58.667 38.5 -96 38.5h-896c-37.333 0 -69.333 -12.833 -96 -38.5s-40 -56.5 -40 -92.5v-934c0 -35.333 13.5 -66 40.5 -92
s58.833 -39 95.5 -39h896c37.333 0 69.333 12.833 96 38.5s40 56.5 40 92.5v934z" />
    <glyph glyph-name="greater.uc.whitesquare" unicode="&#x3e;&#x20de;" 
d="M1126 772v-100l-507 -249v160l304 139v7l-304 138v165zM361 1468h972c72 0 133.333 -24.833 184 -74.5s76 -109.834 76 -180.501v-982c0 -70.667 -25.333 -130.834 -76 -180.501s-112 -74.5 -184 -74.5h-972c-71.333 0 -132.5 24.833 -183.5 74.5
s-76.5 109.834 -76.5 180.501v982c0 70.667 25.5 130.834 76.5 180.501s112.167 74.5 183.5 74.5zM1431 1189c0 36 -13.333 66.833 -40 92.5s-58.667 38.5 -96 38.5h-896c-37.333 0 -69.333 -12.833 -96 -38.5s-40 -56.5 -40 -92.5v-934c0 -35.333 13.5 -66 40.5 -92
s58.833 -39 95.5 -39h896c37.333 0 69.333 12.833 96 38.5s40 56.5 40 92.5v934z" />
    <glyph glyph-name="less.uc.whitesquare" unicode="&#x3c;&#x20de;" 
d="M568 672v100l507 260v-165l-305 -138v-7l305 -139v-160zM361 1468h972c72 0 133.333 -24.833 184 -74.5s76 -109.834 76 -180.501v-982c0 -70.667 -25.333 -130.834 -76 -180.501s-112 -74.5 -184 -74.5h-972c-71.333 0 -132.5 24.833 -183.5 74.5
s-76.5 109.834 -76.5 180.501v982c0 70.667 25.5 130.834 76.5 180.501s112.167 74.5 183.5 74.5zM1431 1189c0 36 -13.333 66.833 -40 92.5s-58.667 38.5 -96 38.5h-896c-37.333 0 -69.333 -12.833 -96 -38.5s-40 -56.5 -40 -92.5v-934c0 -35.333 13.5 -66 40.5 -92
s58.833 -39 95.5 -39h896c37.333 0 69.333 12.833 96 38.5s40 56.5 40 92.5v934z" />
    <glyph glyph-name="numbersign.whitesquare" unicode="&#x23;&#x20de;" 
d="M1138 787h-104l-23 -112h102l-23 -115h-103l-37 -179h-124l37 179h-107l-36 -179h-124l37 179h-100l23 115h100l24 112h-98l22 116h99l35 171h123l-35 -171h107l35 171h123l-34 -171h104zM796 796l-29 -137h128l28 137h-127zM361 1468h972
c72 0 133.333 -24.833 184 -74.5s76 -109.834 76 -180.501v-982c0 -70.667 -25.333 -130.834 -76 -180.501s-112 -74.5 -184 -74.5h-972c-71.333 0 -132.5 24.833 -183.5 74.5s-76.5 109.834 -76.5 180.501v982c0 70.667 25.5 130.834 76.5 180.501s112.167 74.5 183.5 74.5
zM1431 1189c0 36 -13.333 66.833 -40 92.5s-58.667 38.5 -96 38.5h-896c-37.333 0 -69.333 -12.833 -96 -38.5s-40 -56.5 -40 -92.5v-934c0 -35.333 13.5 -66 40.5 -92s58.833 -39 95.5 -39h896c37.333 0 69.333 12.833 96 38.5s40 56.5 40 92.5v934z" />
    <glyph glyph-name="uni25BC.whitesquare" unicode="&#x25bc;&#x20de;" 
d="M1171 946l-323 -559l-323 559h646zM361 1468h972c72 0 133.333 -24.833 184 -74.5s76 -109.834 76 -180.501v-982c0 -70.667 -25.333 -130.834 -76 -180.501s-112 -74.5 -184 -74.5h-972c-71.333 0 -132.5 24.833 -183.5 74.5s-76.5 109.834 -76.5 180.501v982
c0 70.667 25.5 130.834 76.5 180.501s112.167 74.5 183.5 74.5zM1431 1189c0 36 -13.333 66.833 -40 92.5s-58.667 38.5 -96 38.5h-896c-37.333 0 -69.333 -12.833 -96 -38.5s-40 -56.5 -40 -92.5v-934c0 -35.333 13.5 -66 40.5 -92s58.833 -39 95.5 -39h896
c37.333 0 69.333 12.833 96 38.5s40 56.5 40 92.5v934z" />
    <glyph glyph-name="uni25B2.whitesquare" unicode="&#x25b2;&#x20de;" 
d="M1170 508h-645l322 558zM361 1468h972c72 0 133.333 -24.833 184 -74.5s76 -109.834 76 -180.501v-982c0 -70.667 -25.333 -130.834 -76 -180.501s-112 -74.5 -184 -74.5h-972c-71.333 0 -132.5 24.833 -183.5 74.5s-76.5 109.834 -76.5 180.501v982
c0 70.667 25.5 130.834 76.5 180.501s112.167 74.5 183.5 74.5zM1431 1189c0 36 -13.333 66.833 -40 92.5s-58.667 38.5 -96 38.5h-896c-37.333 0 -69.333 -12.833 -96 -38.5s-40 -56.5 -40 -92.5v-934c0 -35.333 13.5 -66 40.5 -92s58.833 -39 95.5 -39h896
c37.333 0 69.333 12.833 96 38.5s40 56.5 40 92.5v934z" />
    <glyph glyph-name="uni25C0.whitesquare" unicode="&#x25c0;&#x20de;" 
d="M1065 405l-559 323l559 322v-645zM361 1468h972c72 0 133.333 -24.833 184 -74.5s76 -109.834 76 -180.501v-982c0 -70.667 -25.333 -130.834 -76 -180.501s-112 -74.5 -184 -74.5h-972c-71.333 0 -132.5 24.833 -183.5 74.5s-76.5 109.834 -76.5 180.501v982
c0 70.667 25.5 130.834 76.5 180.501s112.167 74.5 183.5 74.5zM1431 1189c0 36 -13.333 66.833 -40 92.5s-58.667 38.5 -96 38.5h-896c-37.333 0 -69.333 -12.833 -96 -38.5s-40 -56.5 -40 -92.5v-934c0 -35.333 13.5 -66 40.5 -92s58.833 -39 95.5 -39h896
c37.333 0 69.333 12.833 96 38.5s40 56.5 40 92.5v934z" />
    <glyph glyph-name="uni25B6.whitesquare" unicode="&#x25b6;&#x20de;" 
d="M629 405v645l559 -322zM361 1468h972c72 0 133.333 -24.833 184 -74.5s76 -109.834 76 -180.501v-982c0 -70.667 -25.333 -130.834 -76 -180.501s-112 -74.5 -184 -74.5h-972c-71.333 0 -132.5 24.833 -183.5 74.5s-76.5 109.834 -76.5 180.501v982
c0 70.667 25.5 130.834 76.5 180.501s112.167 74.5 183.5 74.5zM1431 1189c0 36 -13.333 66.833 -40 92.5s-58.667 38.5 -96 38.5h-896c-37.333 0 -69.333 -12.833 -96 -38.5s-40 -56.5 -40 -92.5v-934c0 -35.333 13.5 -66 40.5 -92s58.833 -39 95.5 -39h896
c37.333 0 69.333 12.833 96 38.5s40 56.5 40 92.5v934z" />
    <glyph glyph-name="question.whitesquare" unicode="&#x3f;&#x20de;" 
d="M732 458c0 26 9.5 46.667 28.5 62s44.167 23 75.5 23c32.667 0 58.5 -7.66699 77.5 -23s28.5 -36 28.5 -62c0 -25.333 -9.5 -45.666 -28.5 -60.999s-44.833 -23 -77.5 -23c-31.333 0 -56.5 7.66699 -75.5 23s-28.5 35.666 -28.5 60.999zM604 878
c-0.666992 70.667 22.5 123.502 69.5 158.502s108.167 52.5 183.5 52.5c70 0 127.667 -16.833 173 -50.5s68 -80.834 68 -141.501c0 -38 -8.83301 -69.333 -26.5 -94s-43.167 -47.667 -76.5 -69c-38 -26 -62.5 -45.167 -73.5 -57.5s-16.5 -29.833 -16.5 -52.5v-19h-150
c-0.666992 2.66699 -1 13.334 -1 32.001c-2.66699 61.333 27.333 113 90 155c31.333 20.667 53 37.5 65 50.5s18 28.833 18 47.5c0 23.333 -7.83301 41.166 -23.5 53.499s-35.5 18.5 -59.5 18.5c-26 0 -46.667 -7.83301 -62 -23.5s-23.333 -35.834 -24 -60.501h-154z
M361 1468h972c72 0 133.333 -24.833 184 -74.5s76 -109.834 76 -180.501v-982c0 -70.667 -25.333 -130.834 -76 -180.501s-112 -74.5 -184 -74.5h-972c-71.333 0 -132.5 24.833 -183.5 74.5s-76.5 109.834 -76.5 180.501v982c0 70.667 25.5 130.834 76.5 180.501
s112.167 74.5 183.5 74.5zM1431 1189c0 36 -13.333 66.833 -40 92.5s-58.667 38.5 -96 38.5h-896c-37.333 0 -69.333 -12.833 -96 -38.5s-40 -56.5 -40 -92.5v-934c0 -35.333 13.5 -66 40.5 -92s58.833 -39 95.5 -39h896c37.333 0 69.333 12.833 96 38.5s40 56.5 40 92.5
v934z" />
    <glyph glyph-name="exclam.whitesquare" unicode="&#x21;&#x20de;" 
d="M744 458c0 26 9.5 46.833 28.5 62.5s44.833 23.5 77.5 23.5c32 0 57.333 -7.83301 76 -23.5s28 -36.5 28 -62.5c0 -25.333 -9.33301 -45.666 -28 -60.999s-44 -23 -76 -23s-57.667 7.66699 -77 23s-29 35.666 -29 60.999zM756 1077h187l-20 -455h-147zM361 1468h972
c72 0 133.333 -24.833 184 -74.5s76 -109.834 76 -180.501v-982c0 -70.667 -25.333 -130.834 -76 -180.501s-112 -74.5 -184 -74.5h-972c-71.333 0 -132.5 24.833 -183.5 74.5s-76.5 109.834 -76.5 180.501v982c0 70.667 25.5 130.834 76.5 180.501s112.167 74.5 183.5 74.5
zM1431 1189c0 36 -13.333 66.833 -40 92.5s-58.667 38.5 -96 38.5h-896c-37.333 0 -69.333 -12.833 -96 -38.5s-40 -56.5 -40 -92.5v-934c0 -35.333 13.5 -66 40.5 -92s58.833 -39 95.5 -39h896c37.333 0 69.333 12.833 96 38.5s40 56.5 40 92.5v934z" />
    <glyph glyph-name="uni2717.whitesquare" unicode="&#x2717;&#x20de;" 
d="M851 829l238 237l105 -105l-237 -237l237 -238l-105 -107l-238 237l-239 -237l-106 106l238 239l-238 238l106 106zM361 1468h972c72 0 133.333 -24.833 184 -74.5s76 -109.834 76 -180.501v-982c0 -70.667 -25.333 -130.834 -76 -180.501s-112 -74.5 -184 -74.5h-972
c-71.333 0 -132.5 24.833 -183.5 74.5s-76.5 109.834 -76.5 180.501v982c0 70.667 25.5 130.834 76.5 180.501s112.167 74.5 183.5 74.5zM1431 1189c0 36 -13.333 66.833 -40 92.5s-58.667 38.5 -96 38.5h-896c-37.333 0 -69.333 -12.833 -96 -38.5s-40 -56.5 -40 -92.5
v-934c0 -35.333 13.5 -66 40.5 -92s58.833 -39 95.5 -39h896c37.333 0 69.333 12.833 96 38.5s40 56.5 40 92.5v934z" />
    <glyph glyph-name="uni2713.whitesquare" unicode="&#x2713;&#x20de;" 
d="M1273 925l-544 -537l-303 298l112 110l192 -192l434 433zM361 1468h972c72 0 133.333 -24.833 184 -74.5s76 -109.834 76 -180.501v-982c0 -70.667 -25.333 -130.834 -76 -180.501s-112 -74.5 -184 -74.5h-972c-71.333 0 -132.5 24.833 -183.5 74.5
s-76.5 109.834 -76.5 180.501v982c0 70.667 25.5 130.834 76.5 180.501s112.167 74.5 183.5 74.5zM1431 1189c0 36 -13.333 66.833 -40 92.5s-58.667 38.5 -96 38.5h-896c-37.333 0 -69.333 -12.833 -96 -38.5s-40 -56.5 -40 -92.5v-934c0 -35.333 13.5 -66 40.5 -92
s58.833 -39 95.5 -39h896c37.333 0 69.333 12.833 96 38.5s40 56.5 40 92.5v934z" />
    <glyph glyph-name="plus.uc.blackcircle" unicode="&#x2b;&#x20dd;&#x25cf;" 
d="M932 650h225v160h-225v225h-170v-225h-225v-160h225v-231h170v231zM847 -52c-139.333 0 -268.333 34.667 -387 104s-212.667 163.333 -282 282s-104 247.667 -104 387s34.667 268.5 104 387.5s163.333 213.167 282 282.5s247.667 104 387 104s268.333 -34.667 387 -104
s212.667 -163.5 282 -282.5s104 -248.167 104 -387.5s-34.667 -268.333 -104 -387s-163.333 -212.667 -282 -282s-247.667 -104 -387 -104z" />
    <glyph glyph-name="minus.uc.blackcircle" unicode="&#x2212;&#x20dd;&#x25cf;" 
d="M1134 644v165h-574v-165h574zM847 -52c-139.333 0 -268.333 34.667 -387 104s-212.667 163.333 -282 282s-104 247.667 -104 387s34.667 268.5 104 387.5s163.333 213.167 282 282.5s247.667 104 387 104s268.333 -34.667 387 -104s212.667 -163.5 282 -282.5
s104 -248.167 104 -387.5s-34.667 -268.333 -104 -387s-163.333 -212.667 -282 -282s-247.667 -104 -387 -104z" />
    <glyph glyph-name="multiply.uc.blackcircle" unicode="&#xd7;&#x20dd;&#x25cf;" 
d="M847 844l-175 169l-119 -117l174 -170l-174 -168l119 -116l175 168l174 -168l119 116l-174 168l174 170l-119 117zM847 -52c-139.333 0 -268.333 34.667 -387 104s-212.667 163.333 -282 282s-104 247.667 -104 387s34.667 268.5 104 387.5s163.333 213.167 282 282.5
s247.667 104 387 104s268.333 -34.667 387 -104s212.667 -163.5 282 -282.5s104 -248.167 104 -387.5s-34.667 -268.333 -104 -387s-163.333 -212.667 -282 -282s-247.667 -104 -387 -104z" />
    <glyph glyph-name="divide.uc.blackcircle" unicode="&#xf7;&#x20dd;&#x25cf;" 
d="M745 961c0 -26.667 9.66699 -48.667 29 -66s43.333 -26 72 -26c29.333 0 54 8.66699 74 26s30 39.333 30 66c0 27.333 -9.83301 49.833 -29.5 67.5s-44.5 26.5 -74.5 26.5c-28.667 0 -52.667 -8.83301 -72 -26.5s-29 -40.167 -29 -67.5zM1134 659v135h-574v-135h574z
M745 495c0 -26.667 9.66699 -48.667 29 -66s43.666 -26 72.999 -26s53.833 8.66699 73.5 26s29.5 39.333 29.5 66c0 27.333 -9.83301 49.833 -29.5 67.5s-44.167 26.5 -73.5 26.5s-53.666 -8.83301 -72.999 -26.5s-29 -40.167 -29 -67.5zM847 -52
c-139.333 0 -268.333 34.667 -387 104s-212.667 163.333 -282 282s-104 247.667 -104 387s34.667 268.5 104 387.5s163.333 213.167 282 282.5s247.667 104 387 104s268.333 -34.667 387 -104s212.667 -163.5 282 -282.5s104 -248.167 104 -387.5
s-34.667 -268.333 -104 -387s-163.333 -212.667 -282 -282s-247.667 -104 -387 -104z" />
    <glyph glyph-name="equal.uc.blackcircle" unicode="&#x3d;&#x20dd;&#x25cf;" 
d="M1132 788v148h-570v-148h570zM1132 517v146h-570v-146h570zM847 -52c-139.333 0 -268.333 34.667 -387 104s-212.667 163.333 -282 282s-104 247.667 -104 387s34.667 268.5 104 387.5s163.333 213.167 282 282.5s247.667 104 387 104s268.333 -34.667 387 -104
s212.667 -163.5 282 -282.5s104 -248.167 104 -387.5s-34.667 -268.333 -104 -387s-163.333 -212.667 -282 -282s-247.667 -104 -387 -104z" />
    <glyph glyph-name="greater.uc.blackcircle" unicode="&#x3e;&#x20dd;&#x25cf;" 
d="M1147 777l-557 286v-179l330 -159l1 -2l-331 -156v-177l557 275v112zM847 -52c-139.333 0 -268.333 34.667 -387 104s-212.667 163.333 -282 282s-104 247.667 -104 387s34.667 268.5 104 387.5s163.333 213.167 282 282.5s247.667 104 387 104s268.333 -34.667 387 -104
s212.667 -163.5 282 -282.5s104 -248.167 104 -387.5s-34.667 -268.333 -104 -387s-163.333 -212.667 -282 -282s-247.667 -104 -387 -104z" />
    <glyph glyph-name="less.uc.blackcircle" unicode="&#x3c;&#x20dd;&#x25cf;" 
d="M542 665l555 -275v177l-328 156v2l328 159v179l-555 -286v-112zM847 -52c-139.333 0 -268.333 34.667 -387 104s-212.667 163.333 -282 282s-104 247.667 -104 387s34.667 268.5 104 387.5s163.333 213.167 282 282.5s247.667 104 387 104s268.333 -34.667 387 -104
s212.667 -163.5 282 -282.5s104 -248.167 104 -387.5s-34.667 -268.333 -104 -387s-163.333 -212.667 -282 -282s-247.667 -104 -387 -104z" />
    <glyph glyph-name="numbersign.blackcircle" unicode="&#x23;&#x20dd;&#x25cf;" 
d="M790 803h139l-31 -150h-139zM1165 789l26 133h-113l38 185h-144l-36 -185h-107l38 185h-143l-37 -185h-108l-26 -133h107l-24 -113h-109l-26 -134h107l-39 -193h142l41 193h106l-40 -193h143l39 193h112l27 134h-110c0.666992 2 4.5 20.833 11.5 56.5
s10.5 54.5 10.5 56.5h114zM847 -52c-139.333 0 -268.333 34.667 -387 104s-212.667 163.333 -282 282s-104 247.667 -104 387s34.667 268.5 104 387.5s163.333 213.167 282 282.5s247.667 104 387 104s268.333 -34.667 387 -104s212.667 -163.5 282 -282.5
s104 -248.167 104 -387.5s-34.667 -268.333 -104 -387s-163.333 -212.667 -282 -282s-247.667 -104 -387 -104z" />
    <glyph glyph-name="uni25BC.blackcircle" unicode="&#x25bc;&#x20dd;&#x25cf;" 
d="M1195 981h-695l347 -602zM847 -52c-139.333 0 -268.333 34.667 -387 104s-212.667 163.333 -282 282s-104 247.667 -104 387s34.667 268.5 104 387.5s163.333 213.167 282 282.5s247.667 104 387 104s268.333 -34.667 387 -104s212.667 -163.5 282 -282.5
s104 -248.167 104 -387.5s-34.667 -268.333 -104 -387s-163.333 -212.667 -282 -282s-247.667 -104 -387 -104z" />
    <glyph glyph-name="uni25B2.blackcircle" unicode="&#x25b2;&#x20dd;&#x25cf;" 
d="M1195 490l-348 602l-347 -602h695zM847 -52c-139.333 0 -268.333 34.667 -387 104s-212.667 163.333 -282 282s-104 247.667 -104 387s34.667 268.5 104 387.5s163.333 213.167 282 282.5s247.667 104 387 104s268.333 -34.667 387 -104s212.667 -163.5 282 -282.5
s104 -248.167 104 -387.5s-34.667 -268.333 -104 -387s-163.333 -212.667 -282 -282s-247.667 -104 -387 -104z" />
    <glyph glyph-name="uni25C0.blackcircle" unicode="&#x25c0;&#x20dd;&#x25cf;" 
d="M1087 389v693l-603 -346zM847 -52c-139.333 0 -268.333 34.667 -387 104s-212.667 163.333 -282 282s-104 247.667 -104 387s34.667 268.5 104 387.5s163.333 213.167 282 282.5s247.667 104 387 104s268.333 -34.667 387 -104s212.667 -163.5 282 -282.5
s104 -248.167 104 -387.5s-34.667 -268.333 -104 -387s-163.333 -212.667 -282 -282s-247.667 -104 -387 -104z" />
    <glyph glyph-name="uni25B6.blackcircle" unicode="&#x25b6;&#x20dd;&#x25cf;" 
d="M607 389l603 347l-603 346v-693zM847 -52c-139.333 0 -268.333 34.667 -387 104s-212.667 163.333 -282 282s-104 247.667 -104 387s34.667 268.5 104 387.5s163.333 213.167 282 282.5s247.667 104 387 104s268.333 -34.667 387 -104s212.667 -163.5 282 -282.5
s104 -248.167 104 -387.5s-34.667 -268.333 -104 -387s-163.333 -212.667 -282 -282s-247.667 -104 -387 -104z" />
    <glyph glyph-name="question.blackcircle" unicode="&#x3f;&#x20dd;&#x25cf;" 
d="M714 429c0 -29.333 10.667 -52.666 32 -69.999s50 -26 86 -26s64.667 8.66699 86 26s32 40.666 32 69.999s-10.667 52.833 -32 70.5s-50 26.5 -86 26.5s-64.667 -8.66699 -86 -26s-32 -41 -32 -71zM740 591h169.998v23c0 24.667 5.33301 43.167 16 55.5
s34.667 30.833 72 55.5c28 18.667 49.667 35 65 49s28.333 32.667 39 56s16 50.333 16 81c0 66 -25.167 118 -75.5 156s-113.5 57 -189.5 57c-82 0 -148.833 -19.5 -200.5 -58.5s-77.5 -97.833 -77.5 -176.5v-3l178 2c0 27.333 7.83301 49.833 23.5 67.5
s37.5 26.5 65.5 26.5c24 0 44.333 -6.5 61 -19.5s25 -32.167 25 -57.5c0 -12.667 -3.33301 -24.5 -10 -35.5s-14.167 -19.833 -22.5 -26.5l-35.5 -27.5c-15.333 -11.667 -27.666 -21.5 -36.999 -29.5c-59.333 -45.333 -87.666 -97.333 -84.999 -156
c0 -24 0.666992 -37 2 -39zM846.998 -52c-139.333 0 -268.333 34.667 -387 104s-212.667 163.333 -282 282s-104 247.667 -104 387s34.667 268.5 104 387.5s163.333 213.167 282 282.5s247.667 104 387 104s268.333 -34.667 387 -104s212.667 -163.5 282 -282.5
s104 -248.167 104 -387.5s-34.667 -268.333 -104 -387s-163.333 -212.667 -282 -282s-247.667 -104 -387 -104z" />
    <glyph glyph-name="exclam.blackcircle" unicode="&#x21;&#x20dd;&#x25cf;" 
d="M742 1110l22 -502h168l22 502h-212zM731 430c0 -28.667 10.666 -51.834 31.999 -69.501s50 -26.5 86 -26.5s64.5 8.83301 85.5 26.5s31.5 40.834 31.5 69.501c0 29.333 -10.667 52.666 -32 69.999s-49.666 26 -84.999 26c-36 0 -64.667 -8.66699 -86 -26
s-32 -40.666 -32 -69.999zM846.999 -52c-139.333 0 -268.333 34.667 -387 104s-212.667 163.333 -282 282s-104 247.667 -104 387s34.667 268.5 104 387.5s163.333 213.167 282 282.5s247.667 104 387 104s268.333 -34.667 387 -104s212.667 -163.5 282 -282.5
s104 -248.167 104 -387.5s-34.667 -268.333 -104 -387s-163.333 -212.667 -282 -282s-247.667 -104 -387 -104z" />
    <glyph glyph-name="uni2717.blackcircle" unicode="&#x2717;&#x20dd;&#x25cf;" 
d="M849 839l-260 260l-115 -115l259 -261l-259 -259l116 -116l259 259l259 -258l115 116l-258 258l258 259l-115 116zM847 -52c-139.333 0 -268.333 34.667 -387 104s-212.667 163.333 -282 282s-104 247.667 -104 387s34.667 268.5 104 387.5s163.333 213.167 282 282.5
s247.667 104 387 104s268.333 -34.667 387 -104s212.667 -163.5 282 -282.5s104 -248.167 104 -387.5s-34.667 -268.333 -104 -387s-163.333 -212.667 -282 -282s-247.667 -104 -387 -104z" />
    <glyph glyph-name="uni2713.blackcircle" unicode="&#x2713;&#x20dd;&#x25cf;" horiz-adv-x="1718" 
d="M716 366l596 589l-122 123l-473 -473l-210 209l-122 -121zM847 -52c-139.333 0 -268.333 34.667 -387 104s-212.667 163.333 -282 282s-104 247.667 -104 387s34.667 268.5 104 387.5s163.333 213.167 282 282.5s247.667 104 387 104s268.333 -34.667 387 -104
s212.667 -163.5 282 -282.5s104 -248.167 104 -387.5s-34.667 -268.333 -104 -387s-163.333 -212.667 -282 -282s-247.667 -104 -387 -104z" />
    <glyph glyph-name="zero.blacksquare" unicode="&#x30;&#x20de;&#x25a0;" 
d="M844 487c-80 0 -120 81 -120 243s40 243 120 243c38.667 0 68.5 -20.5 89.5 -61.5s31.5 -101.5 31.5 -181.5s-10.5 -140.5 -31.5 -181.5s-50.833 -61.5 -89.5 -61.5zM843 338c96 0 172.5 35 229.5 105s85.5 165.667 85.5 287s-28.5 217 -85.5 287s-133.5 105 -229.5 105
c-95.333 0 -171.166 -34.833 -227.499 -104.5s-84.5 -165.5 -84.5 -287.5s28.167 -217.833 84.5 -287.5s132.166 -104.5 227.499 -104.5zM361 1468h972c72 0 133.333 -24.833 184 -74.5s76 -109.834 76 -180.501v-982c0 -70.667 -25.333 -130.834 -76 -180.501
s-112 -74.5 -184 -74.5h-972c-71.333 0 -132.5 24.833 -183.5 74.5s-76.5 109.834 -76.5 180.501v982c0 70.667 25.5 130.834 76.5 180.501s112.167 74.5 183.5 74.5z" />
    <glyph glyph-name="one.blacksquare" unicode="&#x31;&#x20de;&#x25a0;" 
d="M990 352v757h-195l-186 -125v-175l180 122h4v-579h197zM361 1468h972c72 0 133.333 -24.833 184 -74.5s76 -109.834 76 -180.501v-982c0 -70.667 -25.333 -130.834 -76 -180.501s-112 -74.5 -184 -74.5h-972c-71.333 0 -132.5 24.833 -183.5 74.5
s-76.5 109.834 -76.5 180.501v982c0 70.667 25.5 130.834 76.5 180.501s112.167 74.5 183.5 74.5z" />
    <glyph glyph-name="two.blacksquare" unicode="&#x32;&#x20de;&#x25a0;" 
d="M738 864l0.000976562 8.00195c0 30 8.83301 54.667 26.5 74s42.167 29 73.5 29c27.333 0 50.166 -8.16699 68.499 -24.5s27.5 -36.833 27.5 -61.5c0 -26 -7.5 -49.833 -22.5 -71.5s-38.5 -47.834 -70.5 -78.501l-273 -268v-120h569v155h-311v2l162 163
c45.333 44 79 83.167 101 117.5s33 72.833 33 115.5c0 62.667 -25.667 114.5 -77 155.5s-117.333 61.5 -198 61.5c-90.667 0 -161.667 -23.833 -213 -71.5s-77 -106.834 -77 -177.501v-8h181zM361.001 1468h972c72 0 133.333 -24.833 184 -74.5s76 -109.834 76 -180.501
v-982c0 -70.667 -25.333 -130.834 -76 -180.501s-112 -74.5 -184 -74.5h-972c-71.333 0 -132.5 24.833 -183.5 74.5s-76.5 109.834 -76.5 180.501v982c0 70.667 25.5 130.834 76.5 180.501s112.167 74.5 183.5 74.5z" />
    <glyph glyph-name="three.blacksquare" unicode="&#x33;&#x20de;&#x25a0;" 
d="M756 670l86.002 0.000976562c35.333 0 63.666 -8.5 84.999 -25.5s32.333 -39.5 33 -67.5c0 -28 -11 -50.667 -33 -68s-51 -26 -87 -26c-34 0.666992 -62.167 9 -84.5 25s-34.833 37 -37.5 63h-179c2 -67.333 30 -123 84 -167s126 -66 216 -66
c91.333 0 166.166 20.833 224.499 62.5s87.166 97.5 86.499 167.5c-0.666992 51.333 -17.5 93 -50.5 125s-70.833 50.333 -113.5 55v3c36 6.66699 68.833 25.5 98.5 56.5s44.167 68.833 43.5 113.5c-1.33301 59.333 -28 107.833 -80 145.5s-120.667 56.5 -206 56.5
c-90.667 -0.666992 -161.167 -21.834 -211.5 -63.501s-77.166 -97.5 -80.499 -167.5h182c1.33301 24.667 11.5 45.334 30.5 62.001s44.167 25 75.5 25c30 0 54.5 -7.83301 73.5 -23.5s28.5 -35.834 28.5 -60.501c0 -25.333 -9.5 -46 -28.5 -62s-43.833 -24 -74.5 -24h-81
v-139zM361.002 1468h972c72 0 133.333 -24.833 184 -74.5s76 -109.834 76 -180.501v-982c0 -70.667 -25.333 -130.834 -76 -180.501s-112 -74.5 -184 -74.5h-972c-71.333 0 -132.5 24.833 -183.5 74.5s-76.5 109.834 -76.5 180.501v982c0 70.667 25.5 130.834 76.5 180.501
s112.167 74.5 183.5 74.5z" />
    <glyph glyph-name="four.blacksquare" unicode="&#x34;&#x20de;&#x25a0;" 
d="M793 1109c-132.667 -213.333 -226.333 -372.667 -281 -478v-148h376v-131h173v131h101v149h-101v477h-268zM687.001 631.999l0.000976562 1c51.333 98 117.666 211 198.999 339h2v-340h-201zM361.002 1468h972c72 0 133.333 -24.833 184 -74.5s76 -109.834 76 -180.501
v-982c0 -70.667 -25.333 -130.834 -76 -180.501s-112 -74.5 -184 -74.5h-972c-71.333 0 -132.5 24.833 -183.5 74.5s-76.5 109.834 -76.5 180.501v982c0 70.667 25.5 130.834 76.5 180.501s112.167 74.5 183.5 74.5z" />
    <glyph glyph-name="five.blacksquare" unicode="&#x35;&#x20de;&#x25a0;" 
d="M555 569c2 -66.667 29.999 -121.167 83.999 -163.5s124 -63.5 210 -63.5c94 0 169.167 24.833 225.5 74.5s84.5 116.5 84.5 200.5c0 75.333 -24 135 -72 179s-108.667 66 -182 66c-38 0 -71.167 -6.66699 -99.5 -20s-48.833 -29 -61.5 -47h-3
c5.33301 82 10 140.333 14 175h357v143h-510l-31 -450h167c10 18 24.833 33.333 44.5 46s42.834 19 69.501 19c34.667 0 63.667 -10.833 87 -32.5s35 -50.167 35 -85.5c0 -37.333 -12 -67.333 -36 -90s-52.333 -34 -85 -34c-30 0 -56.333 7.33301 -79 22s-36.667 35 -42 61
h-177zM360.999 1468h972c72 0 133.333 -24.833 184 -74.5s76 -109.834 76 -180.501v-982c0 -70.667 -25.333 -130.834 -76 -180.501s-112 -74.5 -184 -74.5h-972c-71.333 0 -132.5 24.833 -183.5 74.5s-76.5 109.834 -76.5 180.501v982c0 70.667 25.5 130.834 76.5 180.501
s112.167 74.5 183.5 74.5z" />
    <glyph glyph-name="six.blacksquare" unicode="&#x36;&#x20de;&#x25a0;" 
d="M1157 609c0 74 -23.334 132.001 -70.001 174.001s-105 63 -175 63c-47.333 0 -87.166 -9.5 -119.499 -28.5s-56.5 -43.167 -72.5 -72.5l-4 -2c-1.33301 5.33301 -2 10 -2 14c-0.666992 67.333 12.333 121.166 39 161.499s62 60.5 106 60.5c52 0 86.667 -20.333 104 -61
h178c-4 55.333 -31.5 103.333 -82.5 144s-116.5 61 -196.5 61c-102 0 -182.5 -34.667 -241.5 -104s-88.5 -169.333 -88.5 -300c0 -104 20.333 -187.333 61 -250c58 -87.333 145.333 -131 262 -131c89.333 0 162 24.333 218 73s84 114.667 84 198zM732.999 603.001
c0 34.667 11.332 63 33.999 85s52 33 88 33c34 0 62.5 -10.5 85.5 -31.5s34.5 -50.167 34.5 -87.5c0 -38.667 -11.167 -68.5 -33.5 -89.5s-51.166 -31.5 -86.499 -31.5s-64.5 11 -87.5 33s-34.5 51.667 -34.5 89zM360.998 1468h972c72 0 133.333 -24.833 184 -74.5
s76 -109.834 76 -180.501v-982c0 -70.667 -25.333 -130.834 -76 -180.501s-112 -74.5 -184 -74.5h-972c-71.333 0 -132.5 24.833 -183.5 74.5s-76.5 109.834 -76.5 180.501v982c0 70.667 25.5 130.834 76.5 180.501s112.167 74.5 183.5 74.5z" />
    <glyph glyph-name="seven.blacksquare" unicode="&#x37;&#x20de;&#x25a0;" 
d="M561 1109v-156h376v-2l-318 -599h209l307 603v154h-574zM361 1468h972c72 0 133.333 -24.833 184 -74.5s76 -109.834 76 -180.501v-982c0 -70.667 -25.333 -130.834 -76 -180.501s-112 -74.5 -184 -74.5h-972c-71.333 0 -132.5 24.833 -183.5 74.5
s-76.5 109.834 -76.5 180.501v982c0 70.667 25.5 130.834 76.5 180.501s112.167 74.5 183.5 74.5z" />
    <glyph glyph-name="eight.blacksquare" unicode="&#x38;&#x20de;&#x25a0;" 
d="M844 803c-31.333 0 -56.666 8.66699 -75.999 26s-29 40 -29 68c0 28.667 9.66699 51.834 29 69.501s44.666 26.5 75.999 26.5s56.833 -8.83301 76.5 -26.5s29.5 -40.834 29.5 -69.501c0 -27.333 -9.83301 -49.833 -29.5 -67.5s-45.167 -26.5 -76.5 -26.5zM844 468
c-37.333 0 -68 10.333 -92 31s-36 46.667 -36 78c0 32 12 58.5 36 79.5s54.667 31.5 92 31.5s68.166 -10.5 92.499 -31.5s36.5 -47.5 36.5 -79.5c0 -31.333 -12.167 -57.333 -36.5 -78s-55.166 -31 -92.499 -31zM844 338c97.333 0 175.334 20.667 234.001 62
s88 96.333 88 165c0 47.333 -14.833 87.5 -44.5 120.5s-70.167 54.167 -121.5 63.5v2c89.333 27.333 134 83 134 167c0 61.333 -26.5 110.833 -79.5 148.5s-123.167 56.5 -210.5 56.5c-86.667 0 -156.5 -18.833 -209.5 -56.5s-79.5 -87.167 -79.5 -148.5
c0 -84 44.667 -139.667 134 -167v-2c-51.333 -9.33301 -91.833 -30.5 -121.5 -63.5s-44.5 -73.167 -44.5 -120.5c0 -68.667 29.167 -123.667 87.5 -165s136.166 -62 233.499 -62zM361.001 1468h972c72 0 133.333 -24.833 184 -74.5s76 -109.834 76 -180.501v-982
c0 -70.667 -25.333 -130.834 -76 -180.501s-112 -74.5 -184 -74.5h-972c-71.333 0 -132.5 24.833 -183.5 74.5s-76.5 109.834 -76.5 180.501v982c0 70.667 25.5 130.834 76.5 180.501s112.167 74.5 183.5 74.5z" />
    <glyph glyph-name="nine.blacksquare" unicode="&#x39;&#x20de;&#x25a0;" 
d="M529 857c0 -76.667 23.3359 -136.668 70.0029 -180.001s106.667 -65 180 -65c45.333 0 84.166 9.33301 116.499 28s55.833 42.667 70.5 72h2c4 -66.667 -6.33301 -121.667 -31 -165s-62 -65 -112 -65c-24.667 0 -45.667 5.33301 -63 16s-29.333 23.667 -36 39h-179
c6 -55.333 33.667 -102.166 83 -140.499s114 -57.5 194 -57.5c106.667 0 188.167 34 244.5 102s84.5 166 84.5 294c0 68.667 -8.33301 128.5 -25 179.5s-39.834 91.333 -69.501 121s-63.334 51.667 -101.001 66s-79.167 21.5 -124.5 21.5
c-90 0 -163.167 -24.167 -219.5 -72.5s-84.5 -112.833 -84.5 -193.5zM952.003 856.999c0 -37.333 -11.5 -66.332 -34.5 -86.999s-51.833 -31 -86.5 -31s-63.334 10.667 -86.001 32s-34 50.666 -34 87.999s11.333 67 34 89s51.334 33 86.001 33
c35.333 0 64.333 -11.167 87 -33.5s34 -52.5 34 -90.5zM361.003 1468h972c72 0 133.333 -24.833 184 -74.5s76 -109.834 76 -180.501v-982c0 -70.667 -25.333 -130.834 -76 -180.501s-112 -74.5 -184 -74.5h-972c-71.333 0 -132.5 24.833 -183.5 74.5
s-76.5 109.834 -76.5 180.501v982c0 70.667 25.5 130.834 76.5 180.501s112.167 74.5 183.5 74.5z" />
    <glyph glyph-name="plus.uc.blacksquare" unicode="&#x2b;&#x20de;&#x25a0;" 
d="M932 650h225v160h-225v225h-170v-225h-225v-160h225v-231h170v231zM361 1468h972c72 0 133.333 -24.833 184 -74.5s76 -109.834 76 -180.501v-982c0 -70.667 -25.333 -130.834 -76 -180.501s-112 -74.5 -184 -74.5h-972c-71.333 0 -132.5 24.833 -183.5 74.5
s-76.5 109.834 -76.5 180.501v982c0 70.667 25.5 130.834 76.5 180.501s112.167 74.5 183.5 74.5z" />
    <glyph glyph-name="minus.uc.blacksquare" unicode="&#x2212;&#x20de;&#x25a0;" 
d="M1134 644v165h-574v-165h574zM361 1468h972c72 0 133.333 -24.833 184 -74.5s76 -109.834 76 -180.501v-982c0 -70.667 -25.333 -130.834 -76 -180.501s-112 -74.5 -184 -74.5h-972c-71.333 0 -132.5 24.833 -183.5 74.5s-76.5 109.834 -76.5 180.501v982
c0 70.667 25.5 130.834 76.5 180.501s112.167 74.5 183.5 74.5z" />
    <glyph glyph-name="multiply.uc.blacksquare" unicode="&#xd7;&#x20de;&#x25a0;" 
d="M847 844l-175 169l-119 -117l174 -170l-174 -168l119 -116l175 168l174 -168l119 116l-174 168l174 170l-119 117zM361 1468h972c72 0 133.333 -24.833 184 -74.5s76 -109.834 76 -180.501v-982c0 -70.667 -25.333 -130.834 -76 -180.501s-112 -74.5 -184 -74.5h-972
c-71.333 0 -132.5 24.833 -183.5 74.5s-76.5 109.834 -76.5 180.501v982c0 70.667 25.5 130.834 76.5 180.501s112.167 74.5 183.5 74.5z" />
    <glyph glyph-name="divide.uc.blacksquare" unicode="&#xf7;&#x20de;&#x25a0;" 
d="M745 961c0 -26.667 9.66699 -48.667 29 -66s43.333 -26 72 -26c29.333 0 54 8.66699 74 26s30 39.333 30 66c0 27.333 -9.83301 49.833 -29.5 67.5s-44.5 26.5 -74.5 26.5c-28.667 0 -52.667 -8.83301 -72 -26.5s-29 -40.167 -29 -67.5zM1134 659v135h-574v-135h574z
M745 495c0 -26.667 9.66699 -48.667 29 -66s43.666 -26 72.999 -26s53.833 8.66699 73.5 26s29.5 39.333 29.5 66c0 27.333 -9.83301 49.833 -29.5 67.5s-44.167 26.5 -73.5 26.5s-53.666 -8.83301 -72.999 -26.5s-29 -40.167 -29 -67.5zM361 1468h972
c72 0 133.333 -24.833 184 -74.5s76 -109.834 76 -180.501v-982c0 -70.667 -25.333 -130.834 -76 -180.501s-112 -74.5 -184 -74.5h-972c-71.333 0 -132.5 24.833 -183.5 74.5s-76.5 109.834 -76.5 180.501v982c0 70.667 25.5 130.834 76.5 180.501s112.167 74.5 183.5 74.5
z" />
    <glyph glyph-name="equal.uc.blacksquare" unicode="&#x3d;&#x20de;&#x25a0;" 
d="M1132 788v148h-570v-148h570zM1132 517v146h-570v-146h570zM361 1468h972c72 0 133.333 -24.833 184 -74.5s76 -109.834 76 -180.501v-982c0 -70.667 -25.333 -130.834 -76 -180.501s-112 -74.5 -184 -74.5h-972c-71.333 0 -132.5 24.833 -183.5 74.5
s-76.5 109.834 -76.5 180.501v982c0 70.667 25.5 130.834 76.5 180.501s112.167 74.5 183.5 74.5z" />
    <glyph glyph-name="greater.uc.blacksquare" unicode="&#x3e;&#x20de;&#x25a0;" 
d="M1147 777l-557 286v-179l330 -159l1 -2l-331 -156v-177l557 275v112zM361 1468h972c72 0 133.333 -24.833 184 -74.5s76 -109.834 76 -180.501v-982c0 -70.667 -25.333 -130.834 -76 -180.501s-112 -74.5 -184 -74.5h-972c-71.333 0 -132.5 24.833 -183.5 74.5
s-76.5 109.834 -76.5 180.501v982c0 70.667 25.5 130.834 76.5 180.501s112.167 74.5 183.5 74.5z" />
    <glyph glyph-name="less.uc.blacksquare" unicode="&#x3c;&#x20de;&#x25a0;" 
d="M542 665l555 -274.999v177c-28 14 -83.167 40.167 -165.5 78.5s-136.5 64.166 -162.5 77.499v2l328 159v179l-555 -286v-112zM361 1468h972c72 0 133.333 -24.833 184 -74.5s76 -109.834 76 -180.501v-982c0 -70.667 -25.333 -130.834 -76 -180.501
s-112 -74.5 -184 -74.5h-972c-71.333 0 -132.5 24.833 -183.5 74.5s-76.5 109.834 -76.5 180.501v982c0 70.667 25.5 130.834 76.5 180.501s112.167 74.5 183.5 74.5z" />
    <glyph glyph-name="numbersign.blacksquare" unicode="&#x23;&#x20de;&#x25a0;" 
d="M790 803h139l-31 -150h-139zM1165 789l26 133h-113l38 185h-144l-36 -185h-107l38 185h-143l-37 -185h-108l-26 -133h107l-24 -113h-109l-26 -134h107l-39 -193h142l41 193h106l-40 -193h143l39 193h112l27 134h-110c0.666992 2 4.5 20.833 11.5 56.5
s10.5 54.5 10.5 56.5h114zM361 1468h972c72 0 133.333 -24.833 184 -74.5s76 -109.834 76 -180.501v-982c0 -70.667 -25.333 -130.834 -76 -180.501s-112 -74.5 -184 -74.5h-972c-71.333 0 -132.5 24.833 -183.5 74.5s-76.5 109.834 -76.5 180.501v982
c0 70.667 25.5 130.834 76.5 180.501s112.167 74.5 183.5 74.5z" />
    <glyph glyph-name="uni25BC.blacksquare" unicode="&#x25bc;&#x20de;&#x25a0;" 
d="M1195 977h-695l347 -602zM361 1468h972c72 0 133.333 -24.833 184 -74.5s76 -109.834 76 -180.501v-982c0 -70.667 -25.333 -130.834 -76 -180.501s-112 -74.5 -184 -74.5h-972c-71.333 0 -132.5 24.833 -183.5 74.5s-76.5 109.834 -76.5 180.501v982
c0 70.667 25.5 130.834 76.5 180.501s112.167 74.5 183.5 74.5z" />
    <glyph glyph-name="uni25B2.blacksquare" unicode="&#x25b2;&#x20de;&#x25a0;" 
d="M1195 490l-348 602l-347 -602h695zM361 1468h972c72 0 133.333 -24.833 184 -74.5s76 -109.834 76 -180.501v-982c0 -70.667 -25.333 -130.834 -76 -180.501s-112 -74.5 -184 -74.5h-972c-71.333 0 -132.5 24.833 -183.5 74.5s-76.5 109.834 -76.5 180.501v982
c0 70.667 25.5 130.834 76.5 180.501s112.167 74.5 183.5 74.5z" />
    <glyph glyph-name="uni25C0.blacksquare" unicode="&#x25c0;&#x20de;&#x25a0;" 
d="M1087 389v693l-603 -346zM361 1468h972c72 0 133.333 -24.833 184 -74.5s76 -109.834 76 -180.501v-982c0 -70.667 -25.333 -130.834 -76 -180.501s-112 -74.5 -184 -74.5h-972c-71.333 0 -132.5 24.833 -183.5 74.5s-76.5 109.834 -76.5 180.501v982
c0 70.667 25.5 130.834 76.5 180.501s112.167 74.5 183.5 74.5z" />
    <glyph glyph-name="uni25B6.blacksquare" unicode="&#x25b6;&#x20de;&#x25a0;" 
d="M607 389l603 347l-603 346v-693zM361 1468h972c72 0 133.333 -24.833 184 -74.5s76 -109.834 76 -180.501v-982c0 -70.667 -25.333 -130.834 -76 -180.501s-112 -74.5 -184 -74.5h-972c-71.333 0 -132.5 24.833 -183.5 74.5s-76.5 109.834 -76.5 180.501v982
c0 70.667 25.5 130.834 76.5 180.501s112.167 74.5 183.5 74.5z" />
    <glyph glyph-name="question.blacksquare" unicode="&#x3f;&#x20de;&#x25a0;" 
d="M714 429c0 -29.333 10.667 -52.666 32 -69.999s50 -26 86 -26s64.667 8.66699 86 26s32 40.666 32 69.999s-10.667 52.833 -32 70.5s-50 26.5 -86 26.5s-64.667 -8.66699 -86 -26s-32 -41 -32 -71zM853 1124c-82 0 -148.835 -19.5 -200.502 -58.5
s-77.5 -97.833 -77.5 -176.5v-3l178 2c0 27.333 7.83301 49.833 23.5 67.5s37.5 26.5 65.5 26.5c24 0 44.333 -6.5 61 -19.5s25 -32.167 25 -57.5c0 -12.667 -3.33301 -24.5 -10 -35.5s-14.167 -19.833 -22.5 -26.5l-35.5 -27.5
c-15.333 -11.667 -27.666 -21.5 -36.999 -29.5c-59.333 -45.333 -87.666 -97.333 -84.999 -156c0 -24 0.666992 -37 2 -39h170v23c0 24.667 5.33301 43.167 16 55.5s34.667 30.833 72 55.5c28 18.667 49.667 35 65 49s28.333 32.667 39 56s16 50.333 16 81
c0 66 -25.167 118 -75.5 156s-113.5 57 -189.5 57zM360.998 1468h972c72 0 133.333 -24.833 184 -74.5s76 -109.834 76 -180.501v-982c0 -70.667 -25.333 -130.834 -76 -180.501s-112 -74.5 -184 -74.5h-972c-71.333 0 -132.5 24.833 -183.5 74.5
s-76.5 109.834 -76.5 180.501v982c0 70.667 25.5 130.834 76.5 180.501s112.167 74.5 183.5 74.5z" />
    <glyph glyph-name="exclam.blacksquare" unicode="&#x21;&#x20de;&#x25a0;" 
d="M742 1110l22 -502h168l22 502h-212zM731 430c0 -28.667 10.666 -51.834 31.999 -69.501s50 -26.5 86 -26.5s64.5 8.83301 85.5 26.5s31.5 40.834 31.5 69.501c0 29.333 -10.667 52.666 -32 69.999s-49.666 26 -84.999 26c-36 0 -64.667 -8.66699 -86 -26
s-32 -40.666 -32 -69.999zM360.999 1468h972c72 0 133.333 -24.833 184 -74.5s76 -109.834 76 -180.501v-982c0 -70.667 -25.333 -130.834 -76 -180.501s-112 -74.5 -184 -74.5h-972c-71.333 0 -132.5 24.833 -183.5 74.5s-76.5 109.834 -76.5 180.501v982
c0 70.667 25.5 130.834 76.5 180.501s112.167 74.5 183.5 74.5z" />
    <glyph glyph-name="uni2717.blacksquare" unicode="&#x2717;&#x20de;&#x25a0;" 
d="M474 984l259 -261l-259 -259l116 -116l259 259l259 -258l115 116l-258 258l258 259l-115 116l-259 -259l-260 260zM361 1468h972c72 0 133.333 -24.833 184 -74.5s76 -109.834 76 -180.501v-982c0 -70.667 -25.333 -130.834 -76 -180.501s-112 -74.5 -184 -74.5h-972
c-71.333 0 -132.5 24.833 -183.5 74.5s-76.5 109.834 -76.5 180.501v982c0 70.667 25.5 130.834 76.5 180.501s112.167 74.5 183.5 74.5z" />
    <glyph glyph-name="uni2713.blacksquare" unicode="&#x2713;&#x20de;&#x25a0;" 
d="M716 366l596 589l-122 123l-473 -473l-210 209l-122 -121zM361 1468h972c72 0 133.333 -24.833 184 -74.5s76 -109.834 76 -180.501v-982c0 -70.667 -25.333 -130.834 -76 -180.501s-112 -74.5 -184 -74.5h-972c-71.333 0 -132.5 24.833 -183.5 74.5
s-76.5 109.834 -76.5 180.501v982c0 70.667 25.5 130.834 76.5 180.501s112.167 74.5 183.5 74.5z" />
    <glyph glyph-name=".notdef" horiz-adv-x="2048" 
d="M100 -494v234h1848v-234h-1848zM100 -52v234h1848v-234h-1848zM100 390v234h1848v-234h-1848zM100 832v234h1848v-234h-1848zM100 1274v234h1848v-234h-1848zM100 1716v234h1848v-234h-1848z" />
    <glyph glyph-name="space" unicode=" " horiz-adv-x="410" 
 />
    <glyph glyph-name="exclam" unicode="!" horiz-adv-x="611" 
d="M177 1443h257l-20 -967h-217zM305 -20c-40.667 0 -75 13.833 -103 41.5s-42 61.167 -42 100.5s14 72.666 42 99.999s62.333 41 103 41s75.167 -13.667 103.5 -41s42.5 -60.666 42.5 -99.999s-14.167 -72.833 -42.5 -100.5s-62.833 -41.5 -103.5 -41.5z" />
    <glyph glyph-name="quotedbl" unicode="&#x22;" horiz-adv-x="884" 
d="M335 900h-217v543h217v-543zM766 900h-217v543h217v-543z" />
    <glyph glyph-name="numbersign" unicode="#" horiz-adv-x="1277" 
d="M627 0l79 388h-285l-78 -388h-192l77 388h-228l36 190h231l61 304h-237l37 188h237l77 373h192l-74 -373h283l76 373h193l-75 -373h240l-36 -188h-243l-62 -304h248l-36 -190h-249l-79 -388h-193zM447 565h303l67 329h-303z" />
    <glyph glyph-name="dollar" unicode="$" horiz-adv-x="1294" 
d="M721 -137l-137.999 -0.000976562v130c-149.333 9.33301 -267.333 50.833 -354 124.5s-130.334 169.5 -131.001 287.5h244c4.66699 -57.333 28.5 -104.833 71.5 -142.5s99.5 -60.5 169.5 -68.5v437l-96 24c-116 28 -204.5 75.333 -265.5 142s-91.5 150 -91.5 250
c0 118 40 213.5 120 286.5s191 115.833 333 128.5v138h138v-138c134.667 -12 242.5 -55.167 323.5 -129.5s122.833 -167.833 125.5 -280.5h-239c-1.33301 53.333 -21.5 99 -60.5 137s-88.833 61 -149.5 69v-415l99 -21c126.667 -30 221 -77.667 283 -143
s93 -150.666 93 -255.999c0 -124.667 -41.333 -224.167 -124 -298.5s-199.667 -117.5 -351 -129.5v-132zM953.001 396.999c0 55.333 -18.833 99.833 -56.5 133.5s-96.167 58.5 -175.5 74.5v-413c73.333 4.66699 130.333 25 171 61s61 84 61 144zM376.001 1067
c0 -50 17.668 -91.5 53.001 -124.5s86.666 -56.5 153.999 -70.5v387c-60 -3.33301 -109.5 -23 -148.5 -59s-58.5 -80.333 -58.5 -133z" />
    <glyph glyph-name="percent" unicode="%" horiz-adv-x="1607" 
d="M686 1099c0 -112.667 -29 -202.334 -87 -269.001s-135.667 -100 -233 -100s-174.833 33.333 -232.5 100s-86.5 156.334 -86.5 269.001s28.833 202.167 86.5 268.5s135.167 99.5 232.5 99.5s175 -33.167 233 -99.5s87 -155.833 87 -268.5zM366 887
c37.333 0 66.5 18.833 87.5 56.5s31.5 89.5 31.5 155.5c0 66.667 -10.5 118.834 -31.5 156.501s-50.167 56.5 -87.5 56.5c-36.667 0 -65.5 -18.833 -86.5 -56.5s-31.5 -89.834 -31.5 -156.501c0 -66 10.5 -117.833 31.5 -155.5s49.833 -56.5 86.5 -56.5zM386 0h-218l559 765
l496 678h216l-544 -745zM1561 350c0 -112.667 -29 -202.167 -87 -268.5s-135.667 -99.5 -233 -99.5s-174.833 33.167 -232.5 99.5s-86.5 155.833 -86.5 268.5s28.833 202.334 86.5 269.001s135.167 100 232.5 100s175 -33.333 233 -100s87 -156.334 87 -269.001zM1241 138
c36.667 0 65.667 19 87 57s32 90 32 156s-10.667 118 -32 156s-50.333 57 -87 57s-65.5 -19 -86.5 -57s-31.5 -90 -31.5 -156s10.5 -118 31.5 -156s49.833 -57 86.5 -57z" />
    <glyph glyph-name="ampersand" unicode="&#x26;" horiz-adv-x="1413" 
d="M1141 0l-119.999 129c-56.667 -48.667 -124.334 -86.5 -203.001 -113.5s-161.667 -40.5 -249 -40.5c-148.667 0 -268.5 37.167 -359.5 111.5s-136.5 172.166 -136.5 293.499c0 83.333 22.167 156.5 66.5 219.5s113.166 119.833 206.499 170.5
c5.33301 2.66699 12.833 6.66699 22.5 12s18.167 9.83301 25.5 13.5l13 6.5c-64.667 68 -110.667 127.167 -138 177.5s-41 101.833 -41 154.5c0 94.667 37.333 173.334 112 236.001s168.334 94 281.001 94c113.333 0 206.333 -30.667 279 -92s109 -139.666 109 -234.999
c0 -74 -23.833 -140.833 -71.5 -200.5s-123.167 -117.167 -226.5 -172.5l304 -329c38.667 69.333 58 173.666 58 312.999v64h216v-75c0 -190 -40.333 -343.333 -121 -460l263 -277h-290zM485.001 643c-62 -38.667 -106.5 -76.832 -133.5 -114.499
s-40.5 -80.834 -40.5 -129.501c0 -70 26 -126.667 78 -170s120.333 -65 205 -65c56.667 0 111.5 10.167 164.5 30.5s95.167 47.833 126.5 82.5l-358 389c-17.333 -7.33301 -31.333 -15 -42 -23zM590.001 887.002c72.667 37.333 124.833 74.168 156.5 110.501
s47.5 77.833 47.5 124.5c0 49.333 -16 89.5 -48 120.5s-73.333 46.5 -124 46.5s-92.167 -15.833 -124.5 -47.5s-48.5 -71.834 -48.5 -120.501c0 -35.333 10.5 -70.5 31.5 -105.5s57.5 -77.833 109.5 -128.5z" />
    <glyph glyph-name="quotesingle" unicode="'" horiz-adv-x="453" 
d="M335 900h-217v543h217v-543z" />
    <glyph glyph-name="parenleft" unicode="(" horiz-adv-x="738" 
d="M185 567c0 176 23.833 335.67 71.5 479.003s121.167 275.666 220.5 396.999h224c-73.333 -85.333 -135 -211.333 -185 -378s-75 -332.334 -75 -497.001c0 -164 25 -329.667 75 -497s111.667 -294 185 -380h-224c-99.333 122 -172.833 254.667 -220.5 398
s-71.5 302.666 -71.5 477.999z" />
    <glyph glyph-name="parenright" unicode=")" horiz-adv-x="738" 
d="M553 567c0 -195.333 -26 -362.666 -78 -501.999s-123.333 -264 -214 -374h-224c28.667 34 57.5 78.667 86.5 134s56.833 120 83.5 194s48.334 159.333 65.001 256s25 194.334 25 293.001c0 99.333 -8.33301 197.166 -25 293.499s-38.334 181.333 -65.001 255
s-54.5 138.167 -83.5 193.5s-57.833 99.666 -86.5 132.999h224c58 -70.667 107.167 -143.5 147.5 -218.5s74.5 -169.667 102.5 -284s42 -238.833 42 -373.5z" />
    <glyph glyph-name="asterisk" unicode="*" horiz-adv-x="992" 
d="M795 856l-235 158l19 -282h-163l20 282l-238 -159l-79 146l252 120l-252 121l80 144l236 -155l-19 280h164l-19 -280l235 156l81 -145l-254 -122l254 -119z" />
    <glyph glyph-name="plus" unicode="+" horiz-adv-x="1294" 
d="M759 464v-444h-225v444h-415v222h415v437h225v-437h416v-222h-416z" />
    <glyph glyph-name="comma" unicode="," horiz-adv-x="551" 
d="M281 -305h-191l83 543h243z" />
    <glyph glyph-name="hyphen" unicode="&#x2011;" horiz-adv-x="895" 
d="M776 475h-657v222h657v-222z" />
    <glyph glyph-name="hyphen" unicode="-" horiz-adv-x="895" 
d="M776 475h-657v222h657v-222z" />
    <glyph glyph-name="period" unicode="." horiz-adv-x="551" 
d="M276 -11c-40.667 0 -74.834 13.833 -102.501 41.5s-41.5 61.834 -41.5 102.501c0 40 13.833 74 41.5 102s61.834 42 102.501 42c40 0 73.833 -14 101.5 -42s41.5 -62 41.5 -102c0 -40.667 -13.833 -74.834 -41.5 -102.501s-61.5 -41.5 -101.5 -41.5z" />
    <glyph glyph-name="slash" unicode="/" horiz-adv-x="738" 
d="M226 -309h-226l512 1752h226z" />
    <glyph glyph-name="zero" unicode="0" horiz-adv-x="1300" 
d="M651 -29c-176 0 -314.167 67.167 -414.5 201.5s-150.5 317.833 -150.5 550.5c0 231.333 50.333 414 151 548s238.667 201 414 201s313 -66.833 413 -200.5s150 -316.167 150 -547.5c0 -232 -50 -415.5 -150 -550.5s-237.667 -202.5 -413 -202.5zM651 182
c95.333 0 169.5 47.666 222.5 142.999s79.5 228 79.5 398c0 168.667 -26.667 300.5 -80 395.5s-127.333 142.5 -222 142.5s-169.167 -47.667 -223.5 -143s-81.5 -226.666 -81.5 -393.999c0 -170 26.833 -302.833 80.5 -398.5s128.5 -143.5 224.5 -143.5z" />
    <glyph glyph-name="one" unicode="1" horiz-adv-x="956" 
d="M471 0v1197h-6l-373 -262v243l377 265h255v-1443h-253z" />
    <glyph glyph-name="two" unicode="2" horiz-adv-x="1207" 
d="M93 1015c0 133.333 48 242.834 144 328.501s218.667 128.5 368 128.5c143.333 0 261.5 -39 354.5 -117s139.5 -175.667 139.5 -293c0 -80.667 -22.5 -156.834 -67.5 -228.501s-119.5 -159.834 -223.5 -264.501l-357 -353v-5h670v-211h-1014v174l531 528
c82 84 137.333 149.667 166 197s43 98 43 152c0 60 -23.833 110.667 -71.5 152s-107.167 62 -178.5 62c-75.333 0 -137.833 -23.667 -187.5 -71s-74.5 -106.666 -74.5 -177.999v-4h-242v3z" />
    <glyph glyph-name="three" unicode="3" horiz-adv-x="1261" 
d="M438 643l0.000976562 193.999h174c74 0 134 20.5 180 61.5s69 93.833 69 158.5c0 64 -21.833 115 -65.5 153s-105.167 57 -184.5 57c-74 0 -134.333 -20.167 -181 -60.5s-72.667 -94.166 -78 -161.499h-240c7.33301 130 57.166 233.667 149.499 311
s212.833 116 361.5 116c142.667 0 259.334 -35.333 350.001 -106s136 -162 136 -274c0 -88.667 -27.167 -163.5 -81.5 -224.5s-126.5 -99.167 -216.5 -114.5v-6c108.667 -8 195.167 -43.167 259.5 -105.5s96.5 -143.5 96.5 -243.5c0 -126.667 -51.5 -229.5 -154.5 -308.5
s-233.833 -118.5 -392.5 -118.5c-157.333 0 -284.333 39.5 -381 118.5s-148.334 183.167 -155.001 312.5h246c6 -66.667 35 -120 87 -160s120.333 -60 205 -60c83.333 0 151.333 21 204 63s79 96.333 79 163c0 72.667 -25.833 130 -77.5 172s-122.167 63 -211.5 63h-178z
" />
    <glyph glyph-name="four" unicode="4" horiz-adv-x="1295" 
d="M794 0l-0.000976562 273h-720v222c118.667 224 318.334 540 599.001 948h367v-959h194v-211h-194v-273h-246zM307.999 485l-0.000976562 -7h490v774h-4c-122 -176.667 -219.667 -322.667 -293 -438s-137.666 -225 -192.999 -329z" />
    <glyph glyph-name="five" unicode="5" horiz-adv-x="1250" 
d="M641 -29c-148.667 0 -272 40.499 -370 121.499s-149.667 185.5 -155 313.5h242c8 -66.667 38.5 -121 91.5 -163s117.5 -63 193.5 -63c86 0 155.833 27 209.5 81s80.5 123.667 80.5 209c0 86.667 -26.833 157.5 -80.5 212.5s-122.834 82.5 -207.501 82.5
c-58.667 0 -112.167 -12.667 -160.5 -38s-85.833 -60.666 -112.5 -105.999h-234l75 822h884v-211h-680l-37 -422h6c30 46.667 73.333 83.5 130 110.5s120.334 40.5 191.001 40.5c138 0 251.667 -45.5 341 -136.5s134 -206.833 134 -347.5
c0 -150 -50.167 -271.833 -150.5 -365.5s-230.5 -140.5 -390.5 -140.5z" />
    <glyph glyph-name="six" unicode="6" horiz-adv-x="1284" 
d="M667 -30c-105.333 0 -199.166 24.6689 -281.499 74.002s-147.833 120.333 -196.5 213c-68.667 119.333 -103 268.666 -103 447.999c0 240 52.333 428 157 564s248.667 204 432 204c132 0 245 -35.833 339 -107.5s151.667 -165.834 173 -282.501h-256
c-16.667 54.667 -48.334 98.334 -95.001 131.001s-101 49 -163 49c-108 0 -192 -48 -252 -144s-89.667 -230.667 -89 -404h5c30.667 71.333 81 128.333 151 171s150 64 240 64c137.333 0 251.333 -45.167 342 -135.5s136 -203.833 136 -340.5
c0 -146.667 -50.667 -267.334 -152 -362.001s-230.333 -142 -387 -142zM665 181.002c80 0 147.834 27.6699 203.501 83.0029s83.5 122.666 83.5 201.999c0 81.333 -26.833 148.666 -80.5 201.999s-121.834 80 -204.501 80s-151.5 -26.5 -206.5 -79.5
s-82.5 -119.5 -82.5 -199.5c0 -80.667 27.667 -148.834 83 -204.501s123.333 -83.5 204 -83.5z" />
    <glyph glyph-name="seven" unicode="7" horiz-adv-x="1153" 
d="M185 0l633 1227v5h-750v211h1004v-215l-617 -1228h-270z" />
    <glyph glyph-name="eight" unicode="8" horiz-adv-x="1296" 
d="M648 -29c-166.667 0 -301.999 39.001 -405.999 117.001s-156 178.667 -156 302c0 93.333 30.167 173.833 90.5 241.5s139.5 110.834 237.5 129.501v5c-82 21.333 -147.667 61.5 -197 120.5s-74 127.5 -74 205.5c0 110 47.5 200.833 142.5 272.5
s215.833 107.5 362.5 107.5c147.333 0 268.166 -35.833 362.499 -107.5s141.5 -162.834 141.5 -273.501c0 -77.333 -24.5 -145.333 -73.5 -204s-114.5 -99 -196.5 -121v-5c98.667 -19.333 178.167 -62.833 238.5 -130.5s90.5 -147.834 90.5 -240.501
c0 -123.333 -52.333 -224 -157 -302s-240 -117 -406 -117zM648.001 168.001c86 0 156.667 22.667 212 68s83 103 83 173c0 70.667 -27.5 128.667 -82.5 174s-125.833 68 -212.5 68c-86 0 -156.667 -22.833 -212 -68.5s-83 -103.5 -83 -173.5s27.667 -127.667 83 -173
s126 -68 212 -68zM648.001 848.001c72.667 0 132.334 20.167 179.001 60.5s70 91.5 70 153.5c0 62.667 -23.333 114.167 -70 154.5s-106.334 60.5 -179.001 60.5c-73.333 0 -133.333 -20.167 -180 -60.5s-70 -91.833 -70 -154.5c0 -62 23.333 -113.167 70 -153.5
s106.667 -60.5 180 -60.5z" />
    <glyph glyph-name="nine" unicode="9" horiz-adv-x="1286" 
d="M611 -29c-132.667 0 -246.166 36 -340.499 108s-151.833 166 -172.5 282h256c16 -54.667 47.833 -98.5 95.5 -131.5s102.834 -49.5 165.501 -49.5c107.333 0 190.833 48.167 250.5 144.5s88.5 231.166 86.5 404.499h-2h-1h-1
c-28.667 -71.333 -77.834 -128.5 -147.501 -171.5s-150.834 -64.5 -243.501 -64.5c-137.333 0 -251.5 45.333 -342.5 136s-136.5 204.334 -136.5 341.001c0 146 50.833 266.333 152.5 361s230.5 142 386.5 142c106 0 200.5 -24.667 283.5 -74s148.5 -120 196.5 -212
c68.667 -119.333 103 -269 103 -449c0 -240.667 -52 -428.667 -156 -564s-248.333 -203 -433 -203zM618.001 695c82.667 0 151.669 26.668 207.002 80.001s83 119.666 83 198.999c0 80.667 -27.833 148.667 -83.5 204s-123.834 83 -204.501 83
s-148.834 -27.333 -204.501 -82s-83.5 -121.667 -83.5 -201c0 -81.333 27.167 -148.833 81.5 -202.5s122.5 -80.5 204.5 -80.5z" />
    <glyph glyph-name="colon" unicode=":" horiz-adv-x="551" 
d="M276 -11c-40.667 0 -74.834 13.833 -102.501 41.5s-41.5 61.834 -41.5 102.501c0 40 13.833 74 41.5 102s61.834 42 102.501 42c40 0 73.833 -14 101.5 -42s41.5 -62 41.5 -102c0 -40.667 -13.833 -74.834 -41.5 -102.501s-61.5 -41.5 -101.5 -41.5zM276 711
c-40.667 0 -74.834 14 -102.501 42s-41.5 62 -41.5 102s13.833 74 41.5 102s61.834 42 102.501 42c40 0 73.833 -14 101.5 -42s41.5 -62 41.5 -102s-13.833 -74 -41.5 -102s-61.5 -42 -101.5 -42z" />
    <glyph glyph-name="semicolon" unicode=";" horiz-adv-x="551" 
d="M276 711c-40.667 0 -74.834 14 -102.501 42s-41.5 62 -41.5 102s13.833 74 41.5 102s61.834 42 102.501 42c40 0 73.833 -14 101.5 -42s41.5 -62 41.5 -102s-13.833 -74 -41.5 -102s-61.5 -42 -101.5 -42zM277 -305h-191l83 543h244z" />
    <glyph glyph-name="less" unicode="&#x3c;" horiz-adv-x="1294" 
d="M1110 933l-675 -349v-10l675 -333v-253l-926 489v195l926 513v-252z" />
    <glyph glyph-name="equal" unicode="=" horiz-adv-x="1294" 
d="M1158 249h-1022v216h1022v-216zM1158 686h-1022v216h1022v-216z" />
    <glyph glyph-name="greater" unicode="&#x3e;" horiz-adv-x="1294" 
d="M184 934v252l926 -513v-195l-926 -489v252l675 334v10z" />
    <glyph glyph-name="question" unicode="?" horiz-adv-x="1060" 
d="M54 1048c4 121.333 46.832 219.504 128.499 294.504s194.834 112.5 339.501 112.5c136 0 246.167 -35.333 330.5 -106s126.5 -161.334 126.5 -272.001c0 -143.333 -70.667 -257 -212 -341c-65.333 -38 -109.666 -73 -132.999 -105s-35 -73 -35 -123v-58h-232l-1 71
c-4.66699 72.667 7.83301 133.667 37.5 183s79.5 94.666 149.5 135.999c62.667 38 106 73.167 130 105.5s36 73.166 36 122.499c0 53.333 -19.333 97.166 -58 131.499s-89.334 51.5 -152.001 51.5c-64 0 -115.667 -18.333 -155 -55s-61 -86 -65 -148h-235zM485.999 -19.9961
c-40.667 0 -75.167 13.833 -103.5 41.5s-42.5 61.167 -42.5 100.5s14.167 72.666 42.5 99.999s62.833 41 103.5 41s75 -13.667 103 -41s42 -60.666 42 -99.999s-14 -72.833 -42 -100.5s-62.333 -41.5 -103 -41.5z" />
    <glyph glyph-name="at" unicode="@" horiz-adv-x="1803" 
d="M892 853c-58.667 0 -104.168 -22.002 -136.501 -66.002s-48.5 -105.333 -48.5 -184c0 -77.333 16.333 -138.166 49 -182.499s77.334 -66.5 134.001 -66.5c59.333 0 106.333 22.333 141 67s52 105.334 52 182.001s-17.167 137.5 -51.5 182.5s-80.833 67.5 -139.5 67.5z
M924.999 1444c156 0 295.001 -30.667 417.001 -92s217.167 -148.333 285.5 -261s102.5 -242 102.5 -388c0 -159.333 -34.5 -286.333 -103.5 -381s-163.5 -142 -283.5 -142c-60.667 0 -112.667 14.667 -156 44s-69.333 68.333 -78 117h-12
c-20.667 -50.667 -52.167 -89.334 -94.5 -116.001s-92.833 -40 -151.5 -40c-104 0 -187.833 38.833 -251.5 116.5s-95.5 180.167 -95.5 307.5c0 121.333 31.5 220 94.5 296s145.167 114 246.5 114c54 0 102.5 -12.667 145.5 -38s74.167 -59.666 93.5 -102.999h12v120h183
v-554c0 -34.667 8.66699 -62 26 -82s42.666 -30 75.999 -30c54 0 97.667 32.333 131 97s50 153.334 50 266.001c0 181.333 -59.333 327 -178 437s-274.667 165 -468 165c-127.333 0 -241.333 -29.167 -342 -87.5s-179 -140.333 -235 -246s-84 -225.5 -84 -359.5
c0 -106 17.167 -202 51.5 -288s82.333 -157.333 144 -214s135.167 -100.334 220.5 -131.001s179 -46 281 -46c131.333 0 229.666 13.333 294.999 40v-148c-85.333 -27.333 -187 -41 -305 -41c-124.667 0 -239.5 19 -344.5 57s-195.167 92.167 -270.5 162.5
s-134.166 158.166 -176.499 263.499s-63.5 222.333 -63.5 351c0 122.667 20.667 235.834 62 339.501s98.5 191.667 171.5 264s161.5 128.833 265.5 169.5s217 61 339 61z" />
    <glyph glyph-name="A" unicode="A" horiz-adv-x="1369" 
d="M1070 0l-123 373h-531l-123 -373h-266l512 1443h291l512 -1443h-272zM678 1188l-202 -616h410l-201 616h-7z" />
    <glyph glyph-name="B" unicode="B" horiz-adv-x="1284" 
d="M732 0l-605.001 -0.000976562v1443h599c131.333 0 236 -32.667 314 -98s117 -152.666 117 -261.999c0 -77.333 -25.333 -146 -76 -206s-113 -96 -187 -108v-8c98.667 -9.33301 178.834 -46.333 240.501 -111s92.5 -144.667 92.5 -240c0 -127.333 -44 -227.5 -132 -300.5
s-209 -109.5 -363 -109.5zM384.999 1242v-406.999h236c90 0 159.333 18.167 208 54.5s73 88.166 73 155.499c0 62.667 -20.833 111.167 -62.5 145.5s-101.167 51.5 -178.5 51.5h-276zM384.999 201h287.999c94.667 0 166.834 19.333 216.501 58s74.5 95 74.5 169
c0 73.333 -25.5 129 -76.5 167s-126.167 57 -225.5 57h-277v-451z" />
    <glyph glyph-name="C" unicode="C" horiz-adv-x="1439" 
d="M749 -24c-206.667 0 -370.163 66.667 -490.496 200s-180.5 315.333 -180.5 546c0 229.333 60.5 410.833 181.5 544.5s284.167 200.5 489.5 200.5c168 0 309.667 -47.833 425 -143.5s181 -220.834 197 -375.501h-254c-16.667 90.667 -58.834 163.334 -126.501 218.001
s-148.167 82 -241.5 82c-124 0 -222.833 -47.5 -296.5 -142.5s-110.5 -222.833 -110.5 -383.5c0 -162 36.667 -290.333 110 -385s172.666 -142 297.999 -142c95.333 0 175.5 24.5 240.5 73.5s107.5 116.833 127.5 203.5h253c-22.667 -154.667 -89.334 -276 -200.001 -364
s-251.334 -132 -422.001 -132z" />
    <glyph glyph-name="D" unicode="D" horiz-adv-x="1417" 
d="M127 1443h527c216 0 384.333 -62.667 505 -188s181 -302 181 -530c0 -228.667 -60.333 -406.667 -181 -534s-289 -191 -505 -191h-527v1443zM385 1225l0.000976562 -1007h242c145.333 0 256.666 43.333 333.999 130s116 212 116 376c0 161.333 -39 285.166 -117 371.499
s-189 129.5 -333 129.5h-242z" />
    <glyph glyph-name="E" unicode="E" horiz-adv-x="1158" 
d="M1061 218v-218h-934v1443h934v-218h-676v-390h639v-205h-639v-412h676z" />
    <glyph glyph-name="F" unicode="F" horiz-adv-x="1107" 
d="M385 0h-258v1443h920v-218h-662v-426h605v-210h-605v-589z" />
    <glyph glyph-name="G" unicode="G" horiz-adv-x="1473" 
d="M1390 602c0 -196 -55.501 -349.333 -166.501 -460s-265.167 -166 -462.5 -166c-210.667 0 -377.167 67.167 -499.5 201.5s-183.5 317.5 -183.5 549.5c0 228.667 60.833 409.167 182.5 541.5s286.834 198.5 495.501 198.5c164 0 303 -44.333 417 -133
s182.667 -205.334 206 -350.001h-262c-24.667 82.667 -68.667 147.334 -132 194.001s-139.333 70 -228 70c-130 0 -231.667 -45.667 -305 -137s-110 -218.333 -110 -381c0 -166 37.833 -296.667 113.5 -392s178.5 -143 308.5 -143c108.667 0 197.5 31.333 266.5 94
s104.5 144.667 106.5 246l1 24h-348v197h600v-154z" />
    <glyph glyph-name="H" unicode="H" horiz-adv-x="1471" 
d="M1344 0h-257v626h-702v-626h-258v1443h258v-600h702v600h257v-1443z" />
    <glyph glyph-name="I" unicode="I" horiz-adv-x="512" 
d="M385 0h-258v1443h258v-1443z" />
    <glyph glyph-name="J" unicode="J" horiz-adv-x="1096" 
d="M35 394h251.001c1.33301 -59.333 20.833 -107.333 58.5 -144s86.5 -55 146.5 -55c69.333 0 122.166 20.5 158.499 61.5s54.5 100.5 54.5 178.5v1008h257v-1010c0 -146.667 -41.167 -260.667 -123.5 -342s-196.833 -122 -343.5 -122c-138 0 -249 38.833 -333 116.5
s-126 180.5 -126 308.5z" />
    <glyph glyph-name="K" unicode="K" horiz-adv-x="1319" 
d="M385 0h-258v1443h258v-675h9l576 675h297l-556 -640l599 -803h-314l-469 630l-142 -166v-464z" />
    <glyph glyph-name="L" unicode="L" horiz-adv-x="1098" 
d="M1040 218v-218h-913v1443h258v-1225h655z" />
    <glyph glyph-name="M" unicode="M" horiz-adv-x="1744" 
d="M1616 0h-232v1024h-7l-417 -1012h-176l-417 1012h-7v-1024h-233v1443h299l442 -1089h8l442 1089h298v-1443z" />
    <glyph glyph-name="N" unicode="N" horiz-adv-x="1452" 
d="M376 0h-249v1443h224l716 -1011h9v1011h248v-1443h-222l-717 1012h-9v-1012z" />
    <glyph glyph-name="O" unicode="O" horiz-adv-x="1525" 
d="M763 1467c210 0 376.5 -67 499.5 -201s184.5 -315.667 184.5 -545s-61.5 -410.833 -184.5 -544.5s-289.5 -200.5 -499.5 -200.5c-210.667 0 -377.5 66.833 -500.5 200.5s-184.5 315.167 -184.5 544.5s61.5 411 184.5 545s289.833 201 500.5 201zM763 1247
c-128.667 0 -231 -47.333 -307 -142s-114 -222.667 -114 -384c0 -160.667 38 -288.334 114 -383.001s178.333 -142 307 -142s231 47.333 307 142s114 222.334 114 383.001s-38 288.5 -114 383.5s-178.333 142.5 -307 142.5z" />
    <glyph glyph-name="P" unicode="P" horiz-adv-x="1235" 
d="M127 1443l561 -0.000976562c144 0 261 -44.5 351 -133.5s135 -205.5 135 -349.5c0 -143.333 -46.167 -259.666 -138.5 -348.999s-211.833 -134 -358.5 -134h-292v-477h-258v1443zM385 1232v-547h234c92.667 0 164.667 24 216 72s77 115.667 77 203
c0 86.667 -25.5 153.667 -76.5 201s-122.833 71 -215.5 71h-235z" />
    <glyph glyph-name="Q" unicode="Q" horiz-adv-x="1525" 
d="M763 -24c-210.667 0 -377.5 66.667 -500.5 200s-184.5 315 -184.5 545c0 229.333 61.5 411 184.5 545s289.833 201 500.5 201c210 0 376.5 -67 499.5 -201s184.5 -315.667 184.5 -545c0 -131.333 -20.833 -248 -62.5 -350s-101.5 -184 -179.5 -246l186 -271h-260
l-114 163c-75.333 -27.333 -160 -41 -254 -41zM763 194c40 0 80.333 6 121 18l-166 240h247l85 -116c89.333 90.667 134 219 134 385c0 161.333 -38 289.666 -114 384.999s-178.333 143 -307 143s-231 -47.667 -307 -143s-114 -223.666 -114 -384.999s38 -289.5 114 -384.5
s178.333 -142.5 307 -142.5z" />
    <glyph glyph-name="R" unicode="R" horiz-adv-x="1280" 
d="M385 1234l-0.000976562 -493h291c82 0 145.667 21.667 191 65s68 104 68 182c0 76 -23.667 136 -71 180s-111.666 66 -192.999 66h-286zM384.999 543v-542.998h-258v1443h573c155.333 0 277.333 -40.167 366 -120.5s133 -189.833 133 -328.5
c0 -96.667 -24 -181.834 -72 -255.501s-114.667 -125.834 -200 -156.501l315 -582h-294l-284 543h-279z" />
    <glyph glyph-name="S" unicode="S" horiz-adv-x="1265" 
d="M68 406l249.999 0.000976562c8 -66 42 -119.167 102 -159.5s134.333 -60.5 223 -60.5c86.667 0 157.5 19.333 212.5 58s82.5 88 82.5 148c0 52 -20 94.167 -60 126.5s-105.333 59.166 -196 80.499l-187 44c-132.667 30.667 -231.167 78.334 -295.5 143.001
s-96.5 148.667 -96.5 252c0 127.333 50 230.666 150 309.999s229 119 387 119c158.667 0 286.5 -39.167 383.5 -117.5s147.167 -181.166 150.5 -308.499h-246c-6 67.333 -35 120.166 -87 158.499s-119.667 57.5 -203 57.5c-81.333 0 -147.166 -18.333 -197.499 -55
s-75.5 -85 -75.5 -145c0 -48 19.5 -87 58.5 -117s102.833 -55.667 191.5 -77l166 -38c146 -33.333 252 -82 318 -146s99 -149.667 99 -257c0 -136.667 -51.167 -245.167 -153.5 -325.5s-240.833 -120.5 -415.5 -120.5c-166.667 0 -300.5 38.5 -401.5 115.5
s-154.167 181.833 -159.5 314.5z" />
    <glyph glyph-name="T" unicode="T" horiz-adv-x="1217" 
d="M737 0h-257v1225h-432v218h1120v-218h-431v-1225z" />
    <glyph glyph-name="U" unicode="U" horiz-adv-x="1441" 
d="M385 1443l0.000976562 -911c0 -100 29.5 -180.167 88.5 -240.5s141.167 -90.5 246.5 -90.5s187.666 30.167 246.999 90.5s89 140.5 89 240.5v911h257v-934c0 -159.333 -53.5 -288 -160.5 -386s-251.167 -147 -432.5 -147c-180.667 0 -324.667 49 -432 147
s-161 226.667 -161 386v934h258z" />
    <glyph glyph-name="V" unicode="V" horiz-adv-x="1354" 
d="M825 0h-296l-502 1443h284l366 -1166h6l366 1166h278z" />
    <glyph glyph-name="W" unicode="W" horiz-adv-x="1946" 
d="M968 1044l-295 -1044h-243l-387 1443h268l250 -1093h8l290 1093h228l290 -1093h8l250 1093h268l-387 -1443h-243l-295 1044h-10z" />
    <glyph glyph-name="X" unicode="X" horiz-adv-x="1366" 
d="M44 0l470 723v7l-466 713h305l334 -542h8l338 542h289l-481 -719v-7l473 -717h-297l-340 530h-8l-344 -530h-281z" />
    <glyph glyph-name="Y" unicode="Y" horiz-adv-x="1323" 
d="M790 0h-257v569l-506 874h283l350 -628h6l349 628h281l-506 -874v-569z" />
    <glyph glyph-name="Z" unicode="Z" horiz-adv-x="1281" 
d="M92 0v172l766 1046v7h-745v218h1057v-172l-762 -1046v-7h781v-218h-1097z" />
    <glyph glyph-name="bracketleft" unicode="[" horiz-adv-x="738" 
d="M204 1443h510v-186h-270v-1380h270v-186h-510v1752z" />
    <glyph glyph-name="backslash" unicode="\" horiz-adv-x="738" 
d="M509 -309l-509 1752h229l509 -1752h-229z" />
    <glyph glyph-name="bracketright" unicode="]" horiz-adv-x="738" 
d="M534 1443v-1752h-511v186h271v1380h-271v186h511z" />
    <glyph glyph-name="asciicircum" unicode="^" horiz-adv-x="948" 
d="M465 1229l-196 -416h-221l310 617h234l308 -617h-225l-193 416h-17z" />
    <glyph glyph-name="underscore" unicode="_" horiz-adv-x="846" 
d="M895 -292h-944v185h944v-185z" />
    <glyph glyph-name="grave" unicode="`" horiz-adv-x="1008" 
d="M734 1284h-204l-252 307h239z" />
    <glyph glyph-name="a" unicode="a" horiz-adv-x="1087" 
d="M489 171c71.333 0 131.5 21.168 180.5 63.501s73.5 95.166 73.5 158.499v81l-245 -15c-60 -4 -106.5 -18.833 -139.5 -44.5s-49.5 -59.5 -49.5 -101.5c0 -43.333 16.5 -77.833 49.5 -103.5s76.5 -38.5 130.5 -38.5zM414 -16.999
c-103.333 0 -188.166 29.668 -254.499 89.001s-99.5 136.333 -99.5 231c0 94 34.833 168.333 104.5 223s169.167 86 298.5 94l280 16v76c0 55.333 -17.5 98.333 -52.5 129s-83.5 46 -145.5 46c-58 0 -105.333 -13 -142 -39s-59 -61.333 -67 -106h-231
c5.33301 100.667 48.5 182.5 129.5 245.5s187.833 94.5 320.5 94.5c131.333 0 236.5 -32 315.5 -96s118.5 -149.333 118.5 -256v-730h-240v169h-5c-30 -56.667 -75.333 -101.834 -136 -135.501s-125.334 -50.5 -194.001 -50.5z" />
    <glyph glyph-name="b" unicode="b" horiz-adv-x="1191" 
d="M695 -17c-76.667 0 -144.168 17.332 -202.501 51.999s-103.166 83.334 -134.499 146.001h-5v-181h-244v1443h249v-565h6c30 62.667 74 111.667 132 147s124.333 53 199 53c134 0 240.333 -49.167 319 -147.5s118 -231.833 118 -400.5
c0 -169.333 -39.167 -302.833 -117.5 -400.5s-184.833 -146.5 -319.5 -146.5zM617.999 872.999c-77.333 0 -140.166 -31.5 -188.499 -94.5s-72.5 -145.833 -72.5 -248.5c0 -103.333 24.167 -186.333 72.5 -249s111.166 -94 188.499 -94c80 0 143.167 30.833 189.5 92.5
s69.5 145.167 69.5 250.5s-23.333 188.833 -70 250.5s-109.667 92.5 -189 92.5z" />
    <glyph glyph-name="c" unicode="c" horiz-adv-x="1083" 
d="M1036 682h-234.999c-10.667 59.333 -36 107.166 -76 143.499s-92 54.5 -156 54.5c-78.667 0 -141.334 -31.167 -188.001 -93.5s-70 -147.833 -70 -256.5c0 -110 23.333 -195.833 70 -257.5s110 -92.5 190 -92.5c62.667 0 114 16.833 154 50.5s65.667 80.834 77 141.501
h235c-10 -118.667 -57.5 -213.834 -142.5 -285.501s-193.833 -107.5 -326.5 -107.5c-156 0 -280 49.167 -372 147.5s-138 232.833 -138 403.5c0 168.667 46 302.834 138 402.501s215.333 149.5 370 149.5c136 0 246.167 -37.833 330.5 -113.5s130.833 -171.167 139.5 -286.5
z" />
    <glyph glyph-name="d" unicode="d" horiz-adv-x="1188" 
d="M498 -17c-134 0 -240.835 49.334 -320.502 148.001s-119.5 232 -119.5 400c0 167.333 39.833 300.333 119.5 399s186.5 148 320.5 148c74.667 0 140.834 -17.667 198.501 -53s100.834 -83 129.501 -143h6v561h249v-1443h-244v181h-4
c-29.333 -60.667 -73.5 -108.834 -132.5 -144.501s-126.5 -53.5 -202.5 -53.5zM572.998 873.001c-80 0 -143.333 -30.833 -190 -92.5s-70 -145.167 -70 -250.5c0 -106 23.167 -189.667 69.5 -251s109.833 -92 190.5 -92c78.667 0 141.667 31 189 93s71 145.333 71 250
c0 104 -23.667 187.167 -71 249.5s-110.333 93.5 -189 93.5z" />
    <glyph glyph-name="e" unicode="e" horiz-adv-x="1105" 
d="M559 889c-69.333 0 -127.166 -23.8311 -173.499 -71.498s-72.166 -108.834 -77.499 -183.501h495c-2.66699 75.333 -26.334 136.666 -71.001 183.999s-102.334 71 -173.001 71zM804 317.002l233.002 -0.000976562c-16 -100.667 -67 -182.167 -153 -244.5
s-191.333 -93.5 -316 -93.5c-158.667 0 -283.334 48.833 -374.001 146.5s-136 231.167 -136 400.5c0 168 45.167 302.667 135.5 404s211.833 152 364.5 152c150 0 269 -48.167 357 -144.5s132 -225.166 132 -386.499v-81h-741v-15c0 -85.333 24.167 -154 72.5 -206
s113.166 -78 194.499 -78c57.333 0 106.833 13.167 148.5 39.5s69.167 61.833 82.5 106.5z" />
    <glyph glyph-name="f" unicode="f" horiz-adv-x="690" 
d="M171 0v868h-145v189h145v94c0 104 26.167 180.5 78.5 229.5s135.5 73.5 249.5 73.5c51.333 0 96 -3.66699 134 -11v-174c-28 4 -54.333 6 -79 6c-92 0 -138 -43.667 -138 -131v-87h212v-189h-208v-868h-249z" />
    <glyph glyph-name="g" unicode="g" horiz-adv-x="1182" 
d="M570 197c80 0 143.667 30.1689 191 90.502s71 142.166 71 245.499s-23.833 185.833 -71.5 247.5s-111.167 92.5 -190.5 92.5c-78.667 0 -141.167 -30.667 -187.5 -92s-69.5 -144 -69.5 -248c0 -104.667 23.167 -186.834 69.5 -246.501s108.833 -89.5 187.5 -89.5z
M569 -399.998c-130 0 -238.502 29.834 -325.502 89.501s-136.833 136.5 -149.5 230.5h247c13.333 -40.667 41.333 -73.5 84 -98.5s93.334 -37.5 152.001 -37.5c80 0 142.5 20.5 187.5 61.5s67.5 95.833 67.5 164.5v179h-6c-28 -58 -71.5 -104.167 -130.5 -138.5
s-126.167 -51.5 -201.5 -51.5c-132 0 -237.667 48.167 -317 144.5s-119 226.5 -119 390.5c0 167.333 39.667 299.833 119 397.5s186.666 146.5 321.999 146.5c74.667 0 141.334 -17.833 200.001 -53.5s103.334 -84.5 134.001 -146.5h4v182h244v-1043
c0 -126.667 -46.667 -227.834 -140 -303.501s-217.333 -113.5 -372 -113.5z" />
    <glyph glyph-name="h" unicode="h" horiz-adv-x="1163" 
d="M109 0v1443h246v-565h5c28.667 64.667 71.667 114.5 129 149.5s126 52.5 206 52.5c116 0 206.833 -35.5 272.5 -106.5s98.5 -167.833 98.5 -290.5v-683h-249v632c0 75.333 -18.5 133.666 -55.5 174.999s-91.167 62 -162.5 62c-74.667 0 -133.5 -23.667 -176.5 -71
s-64.5 -110.333 -64.5 -189v-609h-249z" />
    <glyph glyph-name="i" unicode="i" horiz-adv-x="464" 
d="M108 0v1060h249v-1060h-249zM232 1199c-38.667 0 -71.334 13.167 -98.001 39.5s-40 58.166 -40 95.499c0 38 13.333 70.167 40 96.5s59.334 39.5 98.001 39.5s71.5 -13.167 98.5 -39.5s40.5 -58.5 40.5 -96.5c0 -37.333 -13.5 -69.166 -40.5 -95.499
s-59.833 -39.5 -98.5 -39.5z" />
    <glyph glyph-name="j" unicode="j" horiz-adv-x="464" 
d="M357 1060v-1110c0 -214.667 -120.667 -322 -362 -322c-29.333 0 -50 0.666992 -62 2v190c3.33301 -0.666992 14.333 -1 33 -1c51.333 0 87.833 10.333 109.5 31s32.5 55.334 32.5 104.001v1106h249zM232 1199c-38.667 0 -71.334 13.167 -98.001 39.5
s-40 58.166 -40 95.499c0 38 13.333 70.167 40 96.5s59.334 39.5 98.001 39.5s71.5 -13.167 98.5 -39.5s40.5 -58.5 40.5 -96.5c0 -37.333 -13.5 -69.166 -40.5 -95.499s-59.833 -39.5 -98.5 -39.5z" />
    <glyph glyph-name="k" unicode="k" horiz-adv-x="1062" 
d="M361 618l399 442h287l-424 -456l442 -604h-288l-335 453l-84 -85v-368h-249v1443h249v-825h3z" />
    <glyph glyph-name="l" unicode="l" horiz-adv-x="468" 
d="M109 0v1443h249v-1443h-249z" />
    <glyph glyph-name="m" unicode="m" horiz-adv-x="1723" 
d="M102 0l0.000976562 1060h239v-184h5c23.333 62.667 61.666 112.334 114.999 149.001s115.666 55 186.999 55c74.667 0 137.834 -18.5 189.501 -55.5s87.167 -89.5 106.5 -157.5h6c25.333 65.333 67.5 117.166 126.5 155.499s126.833 57.5 203.5 57.5
c104.667 0 188.5 -32.333 251.5 -97s94.5 -150 94.5 -256v-727h-249v666c0 65.333 -16.5 115.666 -49.5 150.999s-79.833 53 -140.5 53c-60 0 -108.667 -20 -146 -60s-56 -91.667 -56 -155v-655h-242v679c0 58.667 -16.833 105.167 -50.5 139.5s-79.5 51.5 -137.5 51.5
c-60 0 -109 -20.833 -147 -62.5s-57 -94.5 -57 -158.5v-649h-249z" />
    <glyph glyph-name="n" unicode="n" horiz-adv-x="1143" 
d="M102 0v1060h239v-182h5c29.333 64 72.166 113.667 128.499 149s124.5 53 204.5 53c116 0 206.167 -35 270.5 -105s96.5 -166.667 96.5 -290v-685h-249v635c0 76 -17.833 134 -53.5 174s-88.5 60 -158.5 60c-71.333 0 -128.166 -23.333 -170.499 -70
s-63.5 -108.334 -63.5 -185.001v-614h-249z" />
    <glyph glyph-name="o" unicode="o" horiz-adv-x="1142" 
d="M571 -21c-156.667 0 -281.331 49.167 -373.998 147.5s-139 232.833 -139 403.5c0 170 46.667 304.5 140 403.5s217.666 148.5 372.999 148.5c156 0 280.5 -49.5 373.5 -148.5s139.5 -233.5 139.5 -403.5c0 -170.667 -46.333 -305.167 -139 -403.5
s-217.334 -147.5 -374.001 -147.5zM571.003 176c80 0 143.333 31 190 93s70 149 70 261c0 111.333 -23.333 198.166 -70 260.499s-110 93.5 -190 93.5c-79.333 0 -142.5 -31.167 -189.5 -93.5s-70.5 -149.166 -70.5 -260.499c0 -112 23.333 -199 70 -261s110 -93 190 -93z
" />
    <glyph glyph-name="p" unicode="p" horiz-adv-x="1182" 
d="M684 1078c134.667 0 241.667 -49.001 321 -147.001s119 -231.667 119 -401c0 -168.667 -39.333 -302 -118 -400s-184.667 -147 -318 -147c-76 0 -143 17.167 -201 51.5s-101.667 81.5 -131 141.5h-5v-525h-249v1409h243v-183h5c30.667 62.667 75 111.834 133 147.501
s125 53.5 201 53.5zM608 186.999c80.667 0 144.333 30.833 191 92.5s70 145.167 70 250.5c0 104.667 -23.5 188 -70.5 250s-110.5 93 -190.5 93c-77.333 0 -139.666 -31.333 -186.999 -94s-71.333 -145.667 -72 -249c0.666992 -104 24.667 -187.167 72 -249.5
s109.666 -93.5 186.999 -93.5z" />
    <glyph glyph-name="q" unicode="q" horiz-adv-x="1182" 
d="M499 1078c75.333 0 142.001 -18 200.001 -54s102.333 -85 133 -147h5v183h244v-1409h-249v528h-6c-28 -60 -71.5 -107.667 -130.5 -143s-126.167 -53 -201.5 -53c-133.333 0 -239.333 49.333 -318 148s-118 232 -118 400s39.667 301.167 119 399.5
s186.666 147.5 321.999 147.5zM570.001 187c78.667 0 142 31.167 190 93.5s72 145.5 72 249.5s-24 187.167 -72 249.5s-111.333 93.5 -190 93.5c-79.333 0 -142 -30.667 -188 -92s-69 -145 -69 -251s23 -189.667 69 -251s108.667 -92 188 -92z" />
    <glyph glyph-name="r" unicode="r" horiz-adv-x="704" 
d="M102 0l0.000976562 1060h239v-185h5c18 64.667 49.167 114.667 93.5 150s97.833 53 160.5 53c22 0 48 -3.33301 78 -10v-225c-24.667 9.33301 -58.334 14 -101.001 14c-70.667 0 -126 -21.333 -166 -64s-60 -101.334 -60 -176.001v-617h-249z" />
    <glyph glyph-name="s" unicode="s" horiz-adv-x="1018" 
d="M83 756c0 97.333 39.332 176.006 117.999 236.006s182.334 90 311.001 90c124 0 224.833 -30.5 302.5 -91.5s118.167 -140.5 121.5 -238.5h-232c-4 46 -23.333 82 -58 108s-81 39 -139 39c-54.667 0 -98.667 -11.833 -132 -35.5s-50 -54.834 -50 -93.501
c0 -58.667 50.667 -100.334 152 -125.001l189 -42c106 -24.667 181.667 -59.334 227 -104.001s68 -106.334 68 -185.001c0 -100 -42 -180.833 -126 -242.5s-193 -92.5 -327 -92.5c-132 0 -238.167 30.167 -318.5 90.5s-124.833 141.166 -133.5 242.499h245
c7.33301 -48.667 29.5 -86 66.5 -112s86.833 -39 149.5 -39c60.667 0 108.5 11.5 143.5 34.5s52.5 54.167 52.5 93.5c0 30.667 -10.833 55.167 -32.5 73.5s-58.167 34.166 -109.5 47.499l-193 45c-196.667 46 -295 146.333 -295 301z" />
    <glyph glyph-name="t" unicode="t" horiz-adv-x="687" 
d="M171 1308h249v-248h200v-192h-200v-551c0 -43.333 10.333 -75.333 31 -96s53 -31 97 -31c29.333 0 53 1.66699 71 5v-190c-30 -6.66699 -73 -10 -129 -10c-114.667 0 -196.5 22 -245.5 66s-73.5 117.667 -73.5 221v586h-152v192h152v248z" />
    <glyph glyph-name="u" unicode="u" horiz-adv-x="1143" 
d="M1042 1060v-1060h-240v184h-5c-58.667 -135.333 -166.667 -203 -324 -203c-115.333 0 -206.833 35.167 -274.5 105.5s-101.5 166.5 -101.5 288.5v685h249v-635c0 -76 18.167 -134 54.5 -174s89.5 -60 159.5 -60c71.333 0 128 23.333 170 70s63 108.667 63 186v613h249z
" />
    <glyph glyph-name="v" unicode="v" horiz-adv-x="1047" 
d="M1035 1060l-373 -1060h-274l-376 1060h266l246 -829h5l246 829h260z" />
    <glyph glyph-name="w" unicode="w" horiz-adv-x="1562" 
d="M1540 1060l-287 -1060h-262l-209 775h-5l-208 -775h-260l-287 1060h250l179 -814h5l207 814h239l207 -814h6l179 814h246z" />
    <glyph glyph-name="x" unicode="x" horiz-adv-x="1037" 
d="M516 380h-5l-220 -380h-265l342 529l-339 531h280l214 -372h5l211 372h273l-341 -524l337 -536h-272z" />
    <glyph glyph-name="y" unicode="y" horiz-adv-x="1069" 
d="M220 -394c-54 0 -86.667 1.33203 -98 3.99902v197c11.333 -2.66699 35.333 -4 72 -4c51.333 0 91.333 10.667 120 32s50 56.333 64 105c0 0.666992 2.5 10.334 7.5 29.001s7.16699 28.667 6.5 30l-377 1061h272l250 -848h4l250 848h262l-383 -1102
c-45.333 -131.333 -101.333 -222.833 -168 -274.5s-160.667 -77.5 -282 -77.5z" />
    <glyph glyph-name="z" unicode="z" horiz-adv-x="1007" 
d="M81 0v151l549 711v4h-544v194h831v-164l-527 -697v-5h536v-194h-845z" />
    <glyph glyph-name="braceleft" unicode="{" horiz-adv-x="738" 
d="M243 553c164 -17.333 246 -98.668 246 -244.001v-226c0 -74 14 -126.833 42 -158.5s75 -47.5 141 -47.5h42v-186h-67c-136.667 0 -236.667 29.333 -300 88s-95 151 -95 277v181c0 76 -17.167 129.333 -51.5 160s-93.5 46.334 -177.5 47.001v246
c84 0.666992 143.167 16.5 177.5 47.5s51.5 84.5 51.5 160.5v183c0 125.333 31.667 217 95 275s163.333 87 300 87h67v-186h-42c-66 0 -113 -15.833 -141 -47.5s-42 -84.5 -42 -158.5v-226c0 -144.667 -82 -225.667 -246 -243v-29z" />
    <glyph glyph-name="bar" unicode="|" horiz-adv-x="738" 
d="M482 -309h-227v1752h227v-1752z" />
    <glyph glyph-name="braceright" unicode="}" horiz-adv-x="738" 
d="M495 553v29.002c-164.667 17.333 -247 98.333 -247 243v226c0 74 -13.833 126.833 -41.5 158.5s-74.5 47.5 -140.5 47.5h-43v186h67c137.333 0 237.5 -29 300.5 -87s94.5 -149.667 94.5 -275v-183c0 -76 17.167 -129.5 51.5 -160.5s93.5 -46.833 177.5 -47.5v-246
c-84 -0.666992 -143.167 -16.334 -177.5 -47.001s-51.5 -83.667 -51.5 -159v-175c0 -128.667 -31.667 -222.834 -95 -282.501s-163.333 -89.5 -300 -89.5h-67v186h43c64.667 0 111.167 15.833 139.5 47.5s42.5 84.167 42.5 157.5v226c0 72.667 21 129.5 63 170.5
s103.333 65.833 184 74.5z" />
    <glyph glyph-name="asciitilde" unicode="~" horiz-adv-x="1294" 
d="M601 628c-32 32.667 -58.998 55.666 -80.998 68.999s-44 20 -66 20c-79.333 0 -121 -59.333 -125 -178h-204c-4 121.333 22.333 217.5 79 288.5s135.667 106.5 237 106.5c44 0 86.167 -10.167 126.5 -30.5s83.166 -53.166 128.499 -98.499
c31.333 -32 57.833 -54.667 79.5 -68s43.5 -20 65.5 -20c38.667 0 68.667 15.167 90 45.5s33 74.833 35 133.5h203c4 -121.333 -22.333 -217.5 -79 -288.5s-135.334 -106.5 -236.001 -106.5c-44 0 -85.833 10 -125.5 30s-82.167 52.333 -127.5 97z" />
    <glyph glyph-name="nonbreakingspace" unicode="&#xa0;" horiz-adv-x="410" 
 />
    <glyph glyph-name="exclamdown" unicode="&#xa1;" horiz-adv-x="611" 
d="M177 -330l20 966h217l20 -966h-257zM305 852c-40.667 0 -75 13.667 -103 41s-42 60.666 -42 99.999c0 40 14 73.5 42 100.5s62.333 40.5 103 40.5c41.333 0 76 -13.5 104 -40.5s42 -60.5 42 -100.5c0 -39.333 -14.167 -72.666 -42.5 -99.999s-62.833 -41 -103.5 -41z" />
    </font>
</defs>
</svg>
